#TITLE:경고;
#SUBTITLE:Caution;
#ARTIST:타샤니 (Tashannie);
#TITLETRANSLIT:;
#SUBTITLETRANSLIT:;
#ARTISTTRANSLIT:;
#CREDIT:locuuraa [from 14.mp];
#BANNER:Caution.png;
#BACKGROUND:Caution.png;
#LYRICSPATH:;
#CDTITLE:../CDTitles/3DDX.png;
#MUSIC:Caution.mp3;
#OFFSET:-0.252;
#SAMPLESTART:38.000;
#SAMPLELENGTH:10.000;
#DISPLAYBPM:106.0;
#BGCHANGES:;
#NOTEDATA:;
#STEPSTYPE:ds3ddx-single;
#DESCRIPTION:Pretty;
#DIFFICULTY:Easy;
#METER:3;
#RADARVALUES:;
#BPMS:0.000=110.000;
#STOPS:0.000=0.000;
#DELAYS:;
#NOTES:
00000000
00000000
00000000
00000000
,
00000000
00000000
00000000
00000000
,
00000000
11000000
00000000
00000011
,
00000000
10100000
00000000
00000101
,
00000000
01000010
00000000
00100000
,
00000100
00000000
00000000
00000000
01000000
00100000
01000000
00000000
,
00000000
00000011
00000000
11000000
,
00000000
00000101
00000000
10100000
,
00000000
01000010
00000000
00000100
,
00100000
00000000
00000000
00000000
00000010
00000100
00000010
00000000
,
00000000
11000000
00000000
00010100
,
00000000
11000000
00000000
00010100
,
00000000
10000001
00000000
01000000
,
00000010
00000000
00000000
00000000
01000000
00000010
01000000
00000000
,
00000000
10000001
00000000
00000100
,
00100000
00000000
00000000
00000000
00000100
00100000
00000100
00000000
,
00000000
11000000
00000000
00000100
,
00100000
00000000
00000011
00000000
,
00100000
00000100
00000010
01000000
,
00100000
00000100
00000010
01000000
,
00000001
00000000
10000000
00000000
,
00000100
00100000
00000100
00000000
,
00000101
00000000
10100000
00000000
,
00000010
01000000
00000010
00000000
,
00100000
00100000
00000100
00000100
,
01000000
01000000
01000000
00000000
,
00100100
00000000
01000010
00000000
,
00110100
00000000
00000000
00000000
,
01000000
01000000
00000011
00000000
,
00000010
00000010
11000000
00000000
,
00000100
00000000
00100000
00000000
,
00000100
00000010
00100000
01000000
,
00000010
00000100
01000000
00100000
,
00000100
00000010
00100000
01000000
,
00000001
00000000
10000000
00000000
,
00100100
00011010
00000000
00000000
;
#NOTEDATA:;
#STEPSTYPE:ds3ddx-single;
#DESCRIPTION:Power;
#DIFFICULTY:Medium;
#METER:3;
#RADARVALUES:;
#BPMS:0.000=110.000;
#STOPS:0.000=0.000;
#DELAYS:;
#NOTES:
00000000
00000000
00000000
00000000
,
00000000
00000000
00000000
00000000
,
00010000
00000110
00010000
01100000
,
00000010
00000000
01000000
00000000
00010000
00000001
00000010
00000000
,
01000000
01000010
00000010
00000100
,
00100000
00000000
01000000
00000000
00010000
00010000
00010000
00000000
,
00000010
00000100
01000000
00100000
,
00100100
00110000
00000010
00000010
,
10100000
10100000
00000100
00000100
,
00010000
00000000
00011000
10000000
00000000
00000000
00100100
00000000
,
00000010
00010100
00000010
11000000
,
01000000
00110000
00000010
00000010
,
00000100
00100000
01010100
00110010
,
00100100
00000000
00100100
00000000
00100000
01000000
00000101
00000000
,
00000010
00110000
01000000
00010100
,
00000100
00000000
01000000
00000000
00000010
00100000
00010100
00000000
,
00000010
00010110
00000010
11000010
,
00010000
00010000
00010000
00000000
00100000
01000000
00110000
00000000
,
00100000
01011000
00000100
00010010
,
01000000
00000000
00010100
00000000
00100000
01000000
00000100
00000000
,
00100000
01000000
00000011
00000011
,
00000100
00000010
00010100
00000000
00010000
00010000
00010000
00000000
,
11000000
11000000
00010100
00010100
,
00100000
00000000
01000000
00000000
00000100
00000010
00100000
00000000
,
00000100
00000011
00100000
11000000
,
11000000
00000000
00000011
00000000
00000100
00000010
00100000
00000000
,
00010000
01000010
00010000
01000010
,
00000001
00011000
00000000
00000000
00000000
00000000
00000000
00000000
00000000
00000000
00000000
00000000
00000000
00000000
00000000
00000000
,
10000000
00010000
00000000
00000000
00000000
00000000
00000000
00000000
00000000
00000000
00000000
00000000
00000000
00000000
00000000
00000000
,
00000001
00011000
00000000
00000000
00000000
00000000
00000000
00000000
00000000
00000000
00000000
00000000
00000000
00000000
00000000
00000000
,
10000000
00010000
00000000
00000000
00000000
00000000
00000000
00000000
00010000
00000000
10000000
00000000
00010000
00000000
10000000
00000000
,
00100000
00000100
00000100
00011010
,
00100000
01010000
00000010
00110000
,
00100000
00000000
00000000
00000000
00100000
00000000
00000000
00000000
00010000
10000000
00000000
00000001
00010000
00000000
00000000
00000000
,
00100100
00000000
00100100
00000000
00100000
01000000
00000100
00000000
,
00000010
00011110
00000000
00000000
;
#NOTEDATA:;
#STEPSTYPE:ds3ddx-double;
#DESCRIPTION:Dual;
#DIFFICULTY:Medium;
#METER:3;
#RADARVALUES:;
#BPMS:0.000=110.000;
#STOPS:0.000=0.000;
#DELAYS:;
#NOTES:
0000000000000000
0000000000000000
0000000000000000
0000000000000000
,
0000000000000000
0000000000000000
0000000000000000
0000000000000000
,
0000000000010000
0000010000100000
0001000000000000
0000011000000000
,
0000001000000000
0000000000000000
0100000000000000
0000000000000000
0001000000000000
0000000100000000
0000001000000000
0000000000000000
,
0100000000000000
0100001000000000
0000001000000000
0000010000000000
,
0010000000000000
0000000000000000
0100000000000000
0000000000000000
0001000000000000
0001000000000000
0001000000000000
0000000000000000
,
0000010000000000
0000001000000000
0000000001000000
0000000001000000
,
0000001001000000
0000000000110000
0000000001000000
0000000001000000
,
0000000000000010
0000000000000010
0000000010100000
0000000010100000
,
0000000000010000
0000000000011000
0001100000000000
0000011000000000
,
0000001000000000
0001010000000000
0000001000000000
1100000000000000
,
0010000000000000
0001010000000000
0000001000000000
0000001000000000
,
0000010000000000
0000000000100000
0000001000110000
0001010001000000
,
0000010000100000
0000000000000000
0000010000100000
0000000000000000
0000000000100000
0000000001000000
0000000000000011
0000000000000000
,
0000000000000010
0000000000110000
0000000001000000
0000000000110000
,
0000000000100000
0000000000000000
0000010000000000
0000000000000000
0000000001000000
0000010000000000
0000000000110000
0000000000000000
,
0000010000000000
0001011000000000
0000001000000000
1100001000000000
,
0001000000000000
0001000000000000
0001000000000000
0000000000000000
0010000000000000
0100000000000000
0011000000000000
0000000000000000
,
0000010000000000
0001101000000000
0000001000000000
0000000001011000
,
0000010000000000
0000000000000000
0000000000110000
0000000000000000
0000000000100000
0000000001000000
0000000000000010
0000000000000000
,
0000000000100000
0000000001000000
0000000000000011
0000000000000011
,
0000000000000100
0000000000000010
0000000000010100
0000000000000000
0000000000011000
0000000000011000
0000000000011000
0000000000000000
,
0000000011000000
0000000011000000
0000000000110000
0000000000110000
,
0000000000100000
0000000000000000
0000010000000000
0000000000000000
0000010000000000
0000001000000000
0100000000000000
0000000000000000
,
0000010000000000
0000001100000000
0010000000000000
1100000000000000
,
1100000000000000
0000000000000000
0000001100000000
0000000000000000
0100000000000000
0000010000000000
0000001000000000
0000000000000000
,
0000010000100000
0000000000000000
0000000000000000
0000000000000000
0010010000000000
0000000000000000
0000000000000000
0000000000000000
0001000000000000
0000000000000000
0000000100000000
0000000000000000
0001000000000000
0000000000000000
0000000000000000
0000000010000000
,
0000000000000000
0000000000000000
0000000000000000
0000000000000000
0000000000000000
0000000000000000
0000000000000000
0000000000000000
0000000000000000
0000000000000000
0000000000000000
0000000000000000
0000000000000000
0000000000000000
0000000000000000
0000000100000000
,
0000000000000000
0000000000000000
0000000000000000
0000000000000000
0000000000000000
0000000000000000
0000000000000000
0000000000000000
0000000000000000
0000000000000000
0000000000000000
0000000000000000
0000000000000000
0000000000000000
0000000000000000
0000000010000000
,
0000000000000000
0000000000000000
0000000000000000
0000000000000000
0000000000000000
0000000000000000
0000000000000000
0000000100000000
0000000000000000
0000000000000000
0000000000000000
0000000000000000
0000000000000000
0000000000000000
0000000000000000
0000000010000000
,
0000000000000000
0000000000000000
0000000000000000
0000000000000000
0000000000010000
0000000000000001
0000000000010000
0000000000000001
,
0000000000000100
0000000000100000
0000000000100000
0000000001011000
,
0000000001000000
0000001000000000
0000000000100000
0001010000000000
,
0000001000000000
0000001000000000
0001000000000000
0001100000000000
,
0000000000011000
0000000000000000
0000000001100000
0000000000000000
0000000001000000
0000000000100000
0000000000000100
0000000000000000
,
0000000001000000
0000011000000000
0000000000000000
0000000000000000
;
