#TITLE:Candy;
#SUBTITLE:;
#ARTIST:HOT;
#TITLETRANSLIT:;
#SUBTITLETRANSLIT:;
#ARTISTTRANSLIT:;
#CREDIT:locuuraa [from 16.mp];
#BANNER:Candy.png;
#BACKGROUND:Candy.png;
#LYRICSPATH:;
#CDTITLE:../CDTitles/3DDX.png;
#MUSIC:Candy.mp3;
#OFFSET:-0.231;
#SAMPLESTART:19.000;
#SAMPLELENGTH:10.000;
#DISPLAYBPM:120.0;
#BGCHANGES:;
#NOTEDATA:;
#STEPSTYPE:ds3ddx-single;
#DESCRIPTION:Pretty;
#DIFFICULTY:Easy;
#METER:3;
#RADARVALUES:;
#BPMS:0.000=120.050;
#STOPS:0.000=0.000;
#DELAYS:;
#NOTES:
00000000
00000000
00000000
00000000
,
00000000
00000000
00000000
00000000
,
00000000
00000000
00000000
00000000
,
00000000
00000000
00000000
00000000
,
00000000
00000000
00000000
00000000
,
00000000
00000100
01000000
00000010
,
00000000
00100000
00000010
01000000
,
00000000
00010100
00000000
00000101
,
00000000
00100000
00000100
00100000
,
00100000
00000000
01000010
00000000
,
01000010
00000000
00000010
00000010
,
00000000
00100000
00000000
00100000
,
00000000
00000010
01000000
00000100
,
00000000
00000010
01000000
00000010
,
00000000
01000000
00000010
01000000
,
00000000
00000101
00000000
10100000
,
00000000
00000100
00100000
00000100
,
00000000
00000010
01000000
00000100
,
00000000
01000000
00000010
00100000
,
00000000
00010100
00000000
00110000
,
00000000
00000010
00000000
01000000
,
00000000
00000000
00000100
00100000
00000100
00000000
00000000
00000000
,
00000000
00000000
00100000
00000100
00100000
00000000
00000000
00000000
,
00000000
00110000
00000000
00000011
,
00000000
01000000
00100000
01000000
,
00000000
00000100
00000100
00100000
,
00100000
00000010
01000000
00000010
,
00000000
01000000
00000010
01000000
,
00000000
00000101
00000000
10100000
,
00000000
01000010
00000000
01000010
,
00000000
00000100
00100000
00000100
,
00000000
00100000
00000100
00100000
,
00000000
00000010
00000000
01000000
,
00000000
10000001
00000000
00010000
,
00000000
00000100
00000000
00100000
,
00000000
00000010
00000000
01000000
,
00000000
00000100
00000100
00100000
,
00100000
00000010
00000000
00000010
,
00000000
00100000
00100000
00000010
,
00000010
00100000
00000000
00000010
,
00000000
00000100
00000010
00000100
,
00000000
00110000
00000000
01000000
,
00000000
00000100
00100000
00000010
,
00000000
00100000
00000100
01000000
,
10000011
00000000
00000000
00000000
;
#NOTEDATA:;
#STEPSTYPE:ds3ddx-single;
#DESCRIPTION:Power;
#DIFFICULTY:Medium;
#METER:4;
#RADARVALUES:;
#BPMS:0.000=120.050;
#STOPS:0.000=0.000;
#DELAYS:;
#NOTES:
00000000
00000000
00000000
00000000
,
00000000
00000000
00000000
00000000
,
00000000
00000000
00000000
00000000
,
00000000
00000000
00000000
00000000
,
00000000
00000000
00000000
00000000
,
00000000
10000101
01000000
00000010
,
01000010
10100001
00000010
01000000
,
01000010
00000000
00000100
00000000
00000010
00000000
00100000
01000000
,
00100000
00000000
00000101
00000000
10100000
00000000
00000010
01000000
,
00000010
00100000
01000100
00000100
,
00100010
00000000
10010100
00000000
01000000
00000000
00000100
00000010
,
01000000
00000000
10000100
00000000
00000000
00000000
00100000
00010000
,
00100000
00000000
00000010
00000000
01000000
00000000
00000100
00100000
,
00000100
00000000
10000011
00000000
01000000
00000000
00000010
01000000
,
00000010
00000000
11000001
00000000
00000010
00000000
01000000
00000010
,
01000000
00000100
00000000
00100000
,
00000000
00000000
00000100
00100000
00000010
01000000
01000010
00000000
,
00000000
00000000
11000000
00000000
00000011
00000000
00110000
00000010
,
01000000
00000000
00000011
00000000
11000000
00000000
00010100
01000000
,
00000010
00100000
01000000
00000010
,
01000000
00100100
00000011
00100100
,
11000000
00000000
00100000
00000010
00100000
00000000
00000100
01000000
,
00000100
00100000
00100000
00100000
,
00000000
01000010
01010000
00100100
,
00100001
00000010
00000100
00100000
,
01000000
00000000
00000100
00000100
00100000
00100000
00000100
00100000
,
00000010
01000000
11000000
00000000
00000011
00000000
01000000
00000000
,
01000000
00000011
11000000
00000010
,
00000010
00110000
00000000
00010100
,
00000000
00000000
00100100
00000001
00100100
10000000
00000010
01000000
,
00000010
00000011
11000000
00000010
,
00000010
11000000
00000011
01000000
,
01000000
00000000
00000100
00000100
00000100
00000000
01000000
00000010
,
01000000
10000001
00000000
00010000
,
00000000
00100000
00100100
00000010
,
01000010
00100000
10100000
00000100
,
00000101
00000000
01000000
01000000
00000010
00100000
00000100
00000100
,
01000000
00000001
01000000
00000010
01000000
00000010
10000000
00000001
,
10000000
00000000
00000100
00000000
00100000
00000000
00000010
00000100
,
00000010
00100001
00010100
00000010
,
01000010
00000000
00000100
00000000
00000010
00000000
00000100
00000010
,
00000100
01010000
00100000
01000000
,
00100000
00000000
01000000
00100000
00000100
00000010
00100000
01000000
,
00000100
00000010
00100000
00000100
00100000
00000100
01000000
00000010
,
01000010
00010000
00000000
00000000
00000000
00000000
00000000
00000000
;
#NOTEDATA:;
#STEPSTYPE:ds3ddx-double;
#DESCRIPTION:Dual;
#DIFFICULTY:Medium;
#METER:4;
#RADARVALUES:;
#BPMS:0.000=120.050;
#STOPS:0.000=0.000;
#DELAYS:;
#NOTES:
0000000000000000
0000000000000000
0000000000000000
0000000000000000
,
0000000000000000
0000000000000000
0000000000000000
0000000000000000
,
0000000000000000
0000000000000000
0000000000000000
0000000000000000
,
0000000000000000
0000000000000000
0000000000000000
0000000000000000
,
0000000000000000
0000000000000000
0000000000000000
0000000000000000
,
0000000000000000
0001000000110000
0000001000000000
0000000001000000
,
0000001001000000
0001010000010000
0000000001000000
0000001000000000
,
0000001001000000
0000000000000000
0000000000100000
0000000000000000
0000000000000101
0000000000000000
0000000000100000
0000000001000000
,
0000000000100000
0000000000000000
0000000000000101
0000000000000000
0000000010100000
0000000000000000
0000000001000000
0000001000000000
,
0000000001000000
0000010000000000
0001101000100000
0000000000100000
,
0000010001011000
0000000000000000
0000001000000000
0000000000000000
0100000000000000
0000000000000000
0000010000000000
0000001000000000
,
0100000000000000
0000000000000000
1000010000000000
0000000000000000
0000000000000000
0000000000000000
0000010000000000
0000000000010000
,
0000010000000000
0000000000000000
0000000000100000
0000000000000000
0000000000000100
0000000000000000
0000000001000000
0000000000000010
,
0000000001000000
0000000000000000
0000000010000101
0000000000000000
0000000000100000
0000000000000000
0000000000000100
0000000000100000
,
0000000000000100
0000000000000000
0000000010100001
0000000000000000
0000000000000100
0000000000000000
0000000000100000
0000000000000100
,
0000000000100000
0000000000000010
0000000000000000
0000001000000000
,
0000000000000000
0000000000000000
0000000000100000
0000010000000000
0000000001000000
0000001000000000
0000001001000000
0000000000000000
,
0000000000000000
0000000000000000
0001101000000000
0000000000000000
0000000000110000
0000000000000000
0000010000000000
0000000001000000
,
0000001000000000
0000000000000000
0000000001011000
0000000000000000
0001010000000000
0000000000000000
0000000000100000
0000001000000000
,
0000000001000000
0010000000000000
0100000000000000
0000001000000000
,
0100000000000000
0010010000000000
0000001100000000
0010010000000000
,
1100000000000000
0000010000000000
0000000000000000
0000000000000100
,
0000000000000000
0000000000100000
0000000000100000
0000000000100000
,
0000000000000000
0000000001000010
0000000001010000
0000000000100100
,
0000000000100001
0000000000000010
0000000000000100
0000000000100000
,
0000000001000000
0000000000000000
0000000000100000
0000000000100000
0000010000000000
0000010000000000
0000000000000100
0000000000100000
,
0000000000000010
0000000001000000
0000000011000000
0000000000000000
0000000000000011
0000000000000000
0000000001000000
0000000000000000
,
0000000001000000
0000000000000011
0000000011000000
0000000000000010
,
0000000000000010
0000000000100000
0000000000000000
0010000000000000
,
0000000000000000
0000000000000000
0010010000000000
0000000100000000
0010010000000000
1000000000000000
0000001000000000
0100000000000000
,
0000001000000000
0000001100000000
1100000000000000
0000001000000000
,
0000001000000000
1100000000000000
0000001100000000
0100000000000000
,
0100000000000000
0000000000000000
0000010000000000
0000001000000000
0000000001000000
0000000000000000
0100000000000000
0000001000000000
,
0100000000000000
0001010000000000
0000000000000000
0000000000010100
,
0000000000000000
0000000000100000
0000000000100100
0000000000000010
,
0000000001000010
0000000000100000
0000000010100000
0000000000000100
,
0000000000000101
0000000000000000
0000000001000000
0000000001000000
0000000000100000
0000001000000000
0000010000000000
0000010000000000
,
0100000000000000
0000000100000000
0100000000000000
0000001000000000
0000010000000000
0000000000100000
0001000000000000
0000000000010000
,
0001000000000000
0000000000000000
0000000000100000
0000000000000000
0000010000000000
0000000000000000
0000000001000000
0000000000100000
,
0000000001000000
0000001000010000
0000000001000000
0000001000000000
,
0000001001000000
0000000000000000
0100000000000000
0000000000000000
0000001000000000
0000000000000000
0100000000000000
0010000000000000
,
0100000000000000
0001001000000000
0000010000000000
0000001000000000
,
0000010000000000
0000000000000000
0000001000000000
0000010000000000
0010000000000000
0100000000000000
0000010000000000
0000001000000000
,
0010000000000000
0100000000000000
0000010000000000
0000001000000000
0000000001000000
0000000000100000
0000000000000100
0000000000100000
,
0000000000100100
0000000000000001
0000000000000000
0000000000000000
0000000000000000
0000000000000000
0000000000000000
0000000000000000
;
