#VERSION:0.83;
#TITLE:Butterfly;
#SUBTITLE:;
#ARTIST:Kotoh;
#TITLETRANSLIT:;
#SUBTITLETRANSLIT:;
#ARTISTTRANSLIT:;
#GENRE:;
#ORIGIN:;
#TAGS:;
#CREDIT:locuuraa [from video];
#BANNER:;
#BACKGROUND:;
#PREVIEWVID:;
#JACKET:;
#CDIMAGE:;
#DISCIMAGE:;
#LYRICSPATH:;
#CDTITLE:;
#MUSIC:Butterfly.mp3;
#OFFSET:-0.652000;
#SAMPLESTART:36.059990;
#SAMPLELENGTH:10.000000;
#SELECTABLE:YES;
#DISPLAYBPM:135.000000;
#BPMS:0.000000=60.000000
;
#STOPS:;
#DELAYS:;
#WARPS:;
#TIMESIGNATURES:0.000000=4=4
;
#TICKCOUNTS:0.000000=4
;
#COMBOS:0.000000=1
;
#SPEEDS:0.000000=1.000000=0.000000=0
;
#SCROLLS:0.000000=1.000000
;
#FAKES:;
#LABELS:0.000000=Song Start
;
#BGCHANGES:;
#KEYSOUNDS:;
#ATTACKS:
;

//---------------ds3ddx-single - Pretty----------------
#NOTEDATA:;
#CHARTNAME:;
#CHARTHASH:2147483647;
#STEPSTYPE:ds3ddx-single;
#BANNER:;
#DESCRIPTION:Pretty;
#CHARTSTYLE:;
#DIFFICULTY:Easy;
#METER:3;
#METERF:3.000000;
#LASTSECONDHINT:92.592003;
#RADARVALUES:0.258525,0.360195,0.321244,0.000000,0.000000,169.000000,137.000000,30.000000,0.000000,0.000000,2.000000,0.000000,0.000000,0.000000,0.258525,0.360195,0.321244,0.000000,0.000000,169.000000,137.000000,30.000000,0.000000,0.000000,2.000000,0.000000,0.000000,0.000000;
#CREDIT:;
#OFFSET:-0.592000;
#BPMS:0.000000=135.000000
;
#STOPS:;
#DELAYS:;
#WARPS:;
#TIMESIGNATURES:0.000000=4=4
;
#TICKCOUNTS:0.000000=4
;
#COMBOS:0.000000=1
;
#SPEEDS:0.000000=1.000000=0.000000=0
;
#SCROLLS:0.000000=1.000000
;
#FAKES:;
#LABELS:0.000000=Song Start
;
#DISPLAYBPM:135.000000;
#NOTES:
// measure 0
00000000
00000000
00000000
00000000
,  // measure 1
00000000
00000000
00000000
00000000
,  // measure 2
00000000
00000000
00000000
00000000
,  // measure 3
00000000
00000000
00000000
00000000
,  // measure 4
01000010
00000000
00000000
00000000
,  // measure 5
01000010
00000000
00000000
00000000
,  // measure 6
01000000
00000010
01000000
00000000
,  // measure 7
00000010
01000000
00000010
01000000
,  // measure 8
00000100
00000000
00100000
00000000
,  // measure 9
00000100
00000000
00100000
00000000
,  // measure 10
00000010
00000000
01000000
00000000
,  // measure 11
00000010
01000000
00000011
00000000
,  // measure 12
00100000
00000000
00100000
00000000
,  // measure 13
01000000
00000010
01000000
00000000
,  // measure 14
00100100
00000000
00100100
00000000
,  // measure 15
00000010
01000000
00000010
00000000
,  // measure 16
01000000
00000000
01000000
00000000
,  // measure 17
00100000
00000100
00100000
00000000
,  // measure 18
01000010
00000000
01000010
00000000
,  // measure 19
00100000
00000100
00100000
00000000
,  // measure 20
00000011
00000000
00000000
00000000
,  // measure 21
11000000
00000000
00000000
00000000
,  // measure 22
00000100
00000000
00100000
00000000
,  // measure 23
00000010
00000010
01000000
01000000
,  // measure 24
00010100
00000000
00000000
00000000
,  // measure 25
00110000
00000000
00000000
00000000
,  // measure 26
00000010
01000000
00000100
00100000
,  // measure 27
01000010
10000001
00000000
00100000
,  // measure 28
10000001
00000000
01000000
01000010
,  // measure 29
00000000
00100000
00000100
01000000
,  // measure 30
00000010
00100000
00010100
00000000
,  // measure 31
00100001
00000000
00100000
00100000
,  // measure 32
00100100
10000010
00000000
00000010
,  // measure 33
01000000
00000010
00000000
00000100
,  // measure 34
00000100
00000100
00000010
01000000
,  // measure 35
00000100
00000100
00000100
11000000
,  // measure 36
00000100
00000100
10000101
00000010
,  // measure 37
00000100
00100000
00000011
00000000
,  // measure 38
01000000
00100000
01000000
00000010
,  // measure 39
00100000
00000100
11000000
00000000
,  // measure 40
00000100
00000100
10000101
00000010
,  // measure 41
00100000
00000011
01000000
00100000
,  // measure 42
01000000
00000010
01000000
00000100
,  // measure 43
11000000
00000100
00100000
00000100
,  // measure 44
00100000
00000010
01000000
00000010
,  // measure 45
01000000
00000100
00100000
00000100
,  // measure 46
00100000
00000010
00000100
00100000
,  // measure 47
00000000
01000010
00000000
00000100
,  // measure 48
00000000
00000101
00000000
00100000
,  // measure 49
00000000
10100000
00000000
00000010
,  // measure 50
00000100
00000010
01000000
00000100
,  // measure 51
00100000
00000010
01000000
10000001
;

//---------------ds3ddx-single - Power----------------
#NOTEDATA:;
#CHARTNAME:;
#CHARTHASH:2147483647;
#STEPSTYPE:ds3ddx-single;
#BANNER:;
#DESCRIPTION:Power;
#CHARTSTYLE:;
#DIFFICULTY:Medium;
#METER:3;
#METERF:0.000000;
#LASTSECONDHINT:53.036442;
#RADARVALUES:0.076487,0.126356,0.074957,0.000000,0.000000,50.000000,43.000000,7.000000,0.000000,0.000000,0.000000,0.000000,0.000000,0.000000,0.076487,0.126356,0.074957,0.000000,0.000000,50.000000,43.000000,7.000000,0.000000,0.000000,0.000000,0.000000,0.000000,0.000000;
#CREDIT:;
#OFFSET:-0.592000;
#BPMS:0.000000=135.000000
;
#STOPS:;
#DELAYS:;
#WARPS:;
#TIMESIGNATURES:0.000000=4=4
;
#TICKCOUNTS:0.000000=4
;
#COMBOS:0.000000=1
;
#SPEEDS:0.000000=1.000000=0.000000=0
;
#SCROLLS:0.000000=1.000000
;
#FAKES:;
#LABELS:0.000000=Song Start
;
#DISPLAYBPM:135.000000;
#NOTES:
00000000
00000000
00000000
00000000
,
00000000
00000000
00000000
00000000
,
00000000
00000000
00000000
00000000
,
00000000
00000000
00000000
00000000
,
00010000
00000000
00000000
00000000
,
00000001
00000000
00000000
00000000
,
00100000
00010000
00100000
00000000
,
00010000
00100000
00010000
10000000
,
00010000
00000000
00001000
00000000
,
01000000
00000000
10000000
00000000
,
00000100
00000000
00000001
00000000
,
00010000
00000000
01000010
00000000
,
10000000
00000000
00100000
00000000
,
00010000
00000000
00001000
00000000
,
00101000
00000000
10010000
00000000
,
00100000
00000000
00000100
00000000
,
00010001
00000000
00010000
00000000
,
01000000
00000000
00000000
00000000
,
00000000
00000000
00000000
00000000
,
00000000
00000000
00000000
00000000
,
00000000
00000000
00000000
00000000
,
00000000
00000000
00000000
00000000
,
00000000
00000000
00000000
00000000
,
00010000
00000000
00010000
00000000
,
00000100
00010000
00100000
00000000
,
10100000
00000000
00100000
00000000
,
01000100
00000000
00000100
00000000
,
00000010
00000010
00000000
00000000
,
10000000
00000010
00000000
00000000
,
00001010
00000000
00010000
00000000
;
