#TITLE:오빠;
#SUBTITLE:Brother;
#ARTIST:왁스 (Wax);
#TITLETRANSLIT:;
#SUBTITLETRANSLIT:;
#ARTISTTRANSLIT:;
#CREDIT:locuuraa [from 23.mp];
#BANNER:Brother.png;
#BACKGROUND:Brother.png;
#LYRICSPATH:;
#CDTITLE:../CDTitles/3DDX.png;
#MUSIC:Brother.mp3;
#OFFSET:-0.135;
#SAMPLESTART:15.000;
#SAMPLELENGTH:10.000;
#DISPLAYBPM:143.0;
#BGCHANGES:;
#NOTEDATA:;
#STEPSTYPE:ds3ddx-single;
#DESCRIPTION:Pretty;
#DIFFICULTY:Easy;
#METER:4;
#RADARVALUES:;
#BPMS:0.000=142.969,16.000=142.976;
#STOPS:0.000=0.000;
#DELAYS:;
#NOTES:
00000000
00000000
00000000
00000000
,
00000000
00000000
00000000
00000000
,
00000000
00000000
00000000
00000000
,
00000000
00000000
00000000
00000000
,
00100000
00000000
00000100
00000000
,
00100000
00000100
00100000
00010000
,
01000000
00000000
00000010
00000000
,
01000000
00000010
01000000
00010000
,
00000100
00000000
00100000
00000000
,
00000010
00000000
00000010
00000000
01000000
00100000
01000000
00000000
,
00000100
00000000
00000000
00000000
,
00100000
00000000
00000000
00000000
,
00000001
10000000
00000010
00000010
,
10000000
00000001
01000000
01000000
,
00000100
00000000
00100000
00000000
,
00000010
00000000
01000000
00000000
,
00000001
10000000
00000100
00000100
,
10000000
00000001
00100000
00100000
,
00000010
00000000
00000000
00000000
,
01000000
00000000
00000000
00000000
,
00000100
00000100
00100000
00100000
,
00000010
01000000
00000010
00000000
,
01000000
00000010
01000000
00000000
,
00000100
00000000
00100000
00000000
,
00000001
10000000
00000010
01000000
,
00010000
00000001
10000000
00000000
,
00000010
00000010
01000000
01000000
,
00000100
00100000
00100000
00000100
,
11000000
00000000
00000011
00000000
,
00100100
00000000
00100100
00000000
,
00000010
00000010
01000000
01000000
,
00010100
00000000
00110000
00000000
,
01000010
00000000
01000010
00000000
,
10000001
00000000
00000000
00000000
,
00000100
00100000
00000010
01000000
,
00000000
00000100
00110000
00000000
,
00000010
00000000
00000010
00000001
,
00000000
00100000
00010100
00000000
,
01000000
00000000
01000000
10000000
,
00000000
00000100
00100000
00000000
,
00000010
01000000
00000010
01000000
,
00000101
00000000
10100000
00000000
,
00000100
00100000
00000010
01000000
,
00000000
00000100
00110000
00000000
,
00000010
00000000
00000010
00000001
,
00000000
00100000
00010100
00000000
,
01000000
00000000
01000000
10000000
,
00000000
00000100
00100000
00000000
,
00000010
01000000
00000011
00000000
,
00100000
00100000
00000100
00000100
,
01000000
00000010
11000000
00000000
,
00000010
00000010
01000000
01000000
,
00000100
00000000
00000101
00000000
,
00100000
00000000
10100000
00000000
,
00000010
00000000
01000000
00000000
,
00000100
00100000
00100100
00000000
;
#NOTEDATA:;
#STEPSTYPE:ds3ddx-single;
#DESCRIPTION:Power;
#DIFFICULTY:Medium;
#METER:3;
#RADARVALUES:;
#BPMS:0.000=142.969,16.000=142.976;
#STOPS:0.000=0.000;
#DELAYS:;
#NOTES:
00000000
00000000
00000000
00000000
,
00000000
00000000
00000000
00000000
,
00000000
00000000
00000000
00000000
,
00000000
00000000
00000000
00000000
,
00100000
00000000
00000100
00000000
00100000
00000100
00100000
00000000
,
00000100
00100000
00000100
10100001
,
00000100
00000000
00100000
00000000
00000100
00100000
00000100
00000000
,
00100000
00000100
00100000
10000101
,
01000000
00000000
00000010
00000000
,
00100000
00000000
00000100
00000000
00100000
00000100
00100000
00000000
,
00000010
00000000
00000010
00000000
,
01000000
00000000
01000000
00000000
,
00000010
01000000
00000010
00000010
,
01000000
00000010
01000000
01000000
,
00000100
00000000
00100000
00000000
,
00000010
00000000
01000000
00000000
,
00000100
00100000
00000100
00000000
01000000
00000000
01000000
00000000
,
00000010
01000000
00000010
00000000
00100000
00000000
00100000
00000000
,
00000000
00000010
00000000
01000000
,
00000000
00000100
00000000
00100000
,
00000100
00010001
00000100
00010001
00000100
00000000
00000100
00000000
,
01000000
00000010
01000000
01000010
,
00000000
10100000
00000101
00000000
,
00100000
00000000
00000100
00000000
,
00100000
00000000
00000010
00000000
00100000
00000010
01000001
00000000
,
00100100
01000000
00000010
00000000
,
01000000
01010000
00000010
00010010
,
01000000
00000010
00000010
01000000
,
10110000
01000000
00010101
00000010
,
00100100
00000000
00100100
00000000
,
00000010
00000010
01000000
01000000
,
00000010
00000100
00000010
00000000
01000000
00100000
01000000
00000000
,
00000100
00100100
00100000
00100100
,
10000001
00000000
00000000
00000000
,
00000100
00100000
00000010
01000000
,
00000000
00010100
00100000
00000000
,
00100000
00000000
00100000
00000000
00000100
10000001
00100000
00000000
,
00000000
00000011
11000000
00000000
,
00000010
01000000
00000110
01000000
,
00000000
10100000
00000101
00000000
,
00110000
00000100
00100000
00100000
,
00010100
10000001
00000000
00000000
00110000
10000001
00000000
00000000
,
00000101
10100000
00000011
11000000
,
00000000
00000000
00000100
00010000
01000000
00000000
00000000
00000000
,
00100000
00000000
00000100
00000000
00100000
10000001
00000100
00000000
,
00000000
00100000
00100000
00000000
,
00000100
00000100
01000000
00000010
,
00000000
00110000
00010100
00000000
,
01000000
00000000
00000010
00000000
01000000
10000001
00000010
00000000
,
00100000
00000000
00100000
00000000
00000100
00010000
00000100
00000000
,
00100000
00000000
00000100
00000000
00100000
10000001
00000100
00000000
,
01000000
01000000
00000010
00000010
,
01000000
00100000
01000000
00000000
00000010
01000000
00000010
00000000
,
00000100
00000010
00000100
00000000
00000010
01000000
00000010
00000000
,
00100000
00000101
00100000
00000101
,
00100000
00000010
01000000
00000010
11000001
00000000
00000000
00000000
;
#NOTEDATA:;
#STEPSTYPE:ds3ddx-double;
#DESCRIPTION:Dual;
#DIFFICULTY:Medium;
#METER:3;
#RADARVALUES:;
#BPMS:0.000=142.969,16.000=142.976;
#STOPS:0.000=0.000;
#DELAYS:;
#NOTES:
0000000000000000
0000000000000000
0000000000000000
0000000000000000
,
0000000000000000
0000000000000000
0000000000000000
0000000000000000
,
0000000000000000
0000000000000000
0000000000000000
0000000000000000
,
0000000000000000
0000000000000000
0000000000000000
0000000000000000
,
0010000000000000
0000000000000000
0000010000000000
0000000000000000
0010000000000000
0000010000000000
0010000000000000
0000000000000000
,
0000010000000000
0000000001000000
0000000000000010
0000000010100001
,
0000000000000100
0000000000000000
0000000000100000
0000000000000000
0000000000000100
0000000000100000
0000000000000100
0000000000000000
,
0000000000100000
0000001000000000
0100000000000000
1000010100000000
,
0100000000000000
0000000000000000
0000001000000000
0000000000000000
,
0010000000000000
0000000000000000
0000010000000000
0000000000000000
0010000000000000
0000010000000000
0010000000000000
0000000000000000
,
0000001000000000
0000000000000000
0000001000000000
0000000000000000
,
0000000001000000
0000000000000000
0000000001000000
0000000000000000
,
0000010000000000
0000000000100000
0000010000000000
0000010000000000
,
0000000000100000
0000010000000000
0000000000100000
0000000000100000
,
0000001000000000
0000000000000000
0000000000000010
0000000000000000
,
0000000001000000
0000000000000000
0100000000000000
0000000000000000
,
0000010000000000
0010000000000000
0000010000000000
0000000000000000
0000001000000000
0000000000000000
0000001000000000
0000000000000000
,
0000000000100000
0000010000000000
0000000000100000
0000000000000000
0000000001000000
0000000000000000
0000000001000000
0000000000000000
,
0000000000000000
0000000000000010
0000000000000000
0000000001000000
,
0000000000000010
0000000000000100
0000000000100000
0000000001000000
,
0000000000000100
0000000000010001
0000000000000100
0000000000010001
0000000000000100
0000000000000000
0000000000100000
0000000000000000
,
0000000001000000
0000001000000000
0000000001000000
0000001001000000
,
0000000000000000
0001000000000000
0000000000010000
0000000000000000
,
0000010000000000
0000000000000000
0000000000100000
0000000000000000
,
0000000000100000
0000000000000000
0000000000000010
0000000000000000
0000000000100000
0000000000000010
0000000001000001
0000000000000000
,
0000000000100100
0000010000000000
0010000000000000
0000000000000000
,
0100000000000000
0101000000000000
0000001000000000
0001001000000000
,
0100000000000000
0000001000000000
0000001000000000
0100000000000000
,
1011000000000000
0100000000000000
0001010100000000
0000001000000000
,
0100001000000000
0000000000000000
0000001001000000
0000000000000000
,
0000000000100000
0000000000100000
0000010000000000
0000010000000000
,
0000000001000000
0000000000100000
0000000001000000
0000000000000000
0000001000000000
0000010000000000
0000001000000000
0000000000000000
,
0000000000100000
0000010000100000
0000000000000100
0000000000100100
,
0000000010000001
0000000000000000
0000000000000000
0000000000000000
,
0000000001000000
0000000000100000
0000010000000000
0000001000000000
,
0000000000000000
0001010000000000
0010000000000000
0000000000000000
,
0010000000000000
0000000000000000
0010000000000000
0000000000000000
0000010000000000
1000000100000000
0010000000000000
0000000000000000
,
0000000000000000
0000001100000000
1100000000000000
0000000000000000
,
0000001000000000
0000000001000000
0000000000000110
0000000001000000
,
0000000000000000
0000000010100000
0000000000000101
0000000000000000
,
0000000000110000
0000000000000100
0000000000100000
0000000000100000
,
0000000000010100
0000000000000001
0000000000000000
0000000000000000
0000000000110000
0000000010000000
0000000000000000
0000000000000000
,
0000000000000100
0000000000100000
0000000000000010
0000000001000000
,
0000000000000000
0000000000000000
0000000000100000
0000000000010000
0000001000000000
0000000000000000
0000000000000000
0000000000000000
,
0000000000100000
0000000000000000
0000010000000000
0000000000000000
0000000000100000
0001000000010000
0000010000000000
0000000000000000
,
0000000000000000
0000001000000000
0000001000000000
0000000000000000
,
0010000000000000
0010000000000000
0000001000000000
0100000000000000
,
0000000000000000
0001010000000000
0011000000000000
0000000000000000
,
0100000000000000
0000000000000000
0000001000000000
0000000000000000
0100000000000000
1000000100000000
0000001000000000
0000000000000000
,
0010000000000000
0000000000000000
0010000000000000
0000000000000000
0000010000000000
0001000000000000
0000010000000000
0000000000000000
,
0000001000000000
0000000001000000
0000011000000000
0000000001000000
,
0000000000100000
0000000000100000
0000000000000100
0000000000000100
,
0000000001000000
0000000000100000
0000000001000000
0000000000000000
0000000000100000
0000010000000000
0000000000100000
0000000000000000
,
0000010000000000
0000001000000000
0000010000000000
0000000000000000
0000000000100000
0000010000000000
0000000000100000
0000000000000000
,
0000000001000000
0000000000000011
0000000001000000
0000000000000011
,
0000000000100000
0000000000000010
0000000001000000
0000000000000100
0000000000001010
0000000000000000
0000000000000000
0000000000000000
;
