#TITLE:Bow Wow;
#SUBTITLE:;
#ARTIST:JTL;
#TITLETRANSLIT:;
#SUBTITLETRANSLIT:;
#ARTISTTRANSLIT:;
#CREDIT:locuuraa [from 59.mp];
#BANNER:Bow Wow.png;
#BACKGROUND:Bow Wow.png;
#LYRICSPATH:;
#CDTITLE:../CDTitles/3DDX.png;
#MUSIC:Bow Wow.mp3;
#OFFSET:-0.160;
#SAMPLESTART:61.000;
#SAMPLELENGTH:10.000;
#DISPLAYBPM:102.0;
#BGCHANGES:;
#NOTEDATA:;
#STEPSTYPE:ds3ddx-single;
#DESCRIPTION:Pretty;
#DIFFICULTY:Easy;
#METER:3;
#RADARVALUES:;
#BPMS:0.000=101.988;
#STOPS:0.000=0.000;
#DELAYS:;
#NOTES:
00000000
00000000
00000000
00000000
,
00000000
00000000
00000000
00000000
,
00000100
00000000
00100000
00000000
,
00000100
00000000
00100000
00000000
,
00000010
00000000
01000000
00000000
,
00000010
00000000
01000000
00000000
,
00000100
00100000
00000100
00000000
10000000
00000000
00000001
00000000
,
00100000
00100000
00000100
00000100
,
00100000
01000000
00000100
00000010
,
01000000
00000000
00000010
00000000
,
01000000
00000010
01000000
00000000
00000001
00000000
10000000
00000000
,
00000100
00000100
00100000
00100000
,
00000100
00100000
00000100
00000000
00010000
00000000
00010000
00000000
,
00100000
00000100
00100000
00000000
,
00000101
00000000
10100000
00000000
,
00000101
00000000
10100000
00000000
,
00000100
00100000
00000100
00000000
00100000
00000000
00100100
00000000
,
00000001
10000000
00000001
00100100
,
00000000
00000000
00000000
00000000
,
00000101
00000000
10100000
00000000
,
00000100
00000000
00100000
00000000
00100000
00000000
00000100
00000100
,
00000100
00000000
01000000
00000000
,
00000010
00000000
01000000
00000000
,
01000100
00100010
00000000
00000100
,
00000000
00000000
00100000
00000000
00000100
00100000
00000100
00000000
,
00100000
00000000
00100000
00000000
,
00000100
00000000
00000100
00000000
,
00000100
00000010
00100000
01000000
,
00000100
00000100
00100000
00100000
,
00000010
00000000
01000000
00000000
,
00000010
00000000
01000000
00000000
,
00000100
00000000
00100000
00000000
,
11000000
00000000
00000011
00000000
,
01000000
00000010
01000000
00000000
00000010
00000000
01000010
00000000
,
00000001
10000000
00000001
01000010
,
01000000
00000000
00000010
00000000
,
11000000
00000000
00000011
00000000
,
01000000
00000010
01000000
00000000
00000010
00000000
01000010
00000000
,
10000000
00000001
10000000
01000010
,
00000010
00000000
01000000
00000000
,
00000011
00000000
11000000
00000000
,
00000100
00100000
00000100
00000000
00100000
00000000
00100100
00000000
,
00000001
10000000
00000001
00100100
;
#NOTEDATA:;
#STEPSTYPE:ds3ddx-single;
#DESCRIPTION:Power;
#DIFFICULTY:Medium;
#METER:4;
#RADARVALUES:;
#BPMS:0.000=101.988;
#STOPS:0.000=0.000;
#DELAYS:;
#NOTES:
00000000
00000000
00000000
00000000
,
00000000
00000000
00000000
00000000
,
00000100
00000000
00000100
00000000
00010101
01000000
00000010
00000000
,
00100000
00000000
00100000
00000000
10110000
00000010
01000000
00000000
,
00000001
00000000
10000000
00000000
00000010
00000100
00000010
00000000
,
00000001
00000000
10000000
00000000
01000000
00100000
01000000
00000000
,
00000100
01000000
00000100
00000000
01000000
00000000
00110000
00000000
,
00000100
00000000
00000100
00000000
00000010
00100000
00010100
00000000
,
00100000
00100000
00000001
10000000
,
00000100
00000000
00000100
00000000
01000000
00000100
00110000
00000000
,
00100000
00000010
00100000
00000000
00000010
00000000
00010100
00000000
,
10000000
00000000
00000001
00000000
00100000
00000100
00100000
00000000
,
00000010
00000100
00000010
00000000
00000110
00000000
00010000
00000000
,
00100000
00000100
00100000
00000000
,
00100000
00010100
01000000
01000000
,
00110000
00000000
00000010
00000010
,
00100000
00000010
00100000
00000000
00100100
00000000
01010100
00000000
,
00000100
00100100
00110010
10000001
,
00100000
00100000
00000100
00100000
00000000
00000000
00000000
00000000
,
00000100
00000000
00100000
00000000
,
00000100
00000000
00000000
00000000
00000000
00000000
00000000
00000000
00100000
00000000
00000000
00000100
00000000
00000000
00000100
00000000
,
01000000
00000000
01000000
00000000
,
00000010
00000000
01000000
00000000
,
00110100
10000101
00000000
00000100
,
00000000
00000000
00100000
00000000
00000100
00100000
00000100
00000000
,
00100000
01000000
00000100
00000010
,
00100000
00000010
01000000
00000100
00100000
00000000
00000000
00000000
,
00000100
00000010
00100000
01000000
,
00000100
00100000
00000100
00000100
,
01000000
00000010
01000000
00000000
00000010
00000000
01000000
00000000
,
00000100
00000100
00100000
00100000
,
00000100
00110000
00000010
00000010
,
00010100
00000000
01000000
01000000
,
00000100
01000000
00000100
00000000
00100100
00000000
00110010
00000000
,
00000100
00100100
01010100
10000001
,
00000010
01000000
00000100
00000100
,
00100000
00000000
00000010
00000010
,
01000000
00100000
01000000
00000000
00010000
00000000
01100000
00000000
,
00000001
01100000
00010000
00011001
,
00000010
00000000
00100000
00100000
,
00000100
00000000
01000000
01000000
,
00000010
00000100
00000010
00000000
00010000
00000000
00000110
00000000
,
10000000
00000110
00010000
10011000
,
01000000
00000000
00000000
00000000
;
#NOTEDATA:;
#STEPSTYPE:ds3ddx-double;
#DESCRIPTION:Dual;
#DIFFICULTY:Medium;
#METER:4;
#RADARVALUES:;
#BPMS:0.000=101.988;
#STOPS:0.000=0.000;
#DELAYS:;
#NOTES:
0000000000000000
0000000000000000
0000000000000000
0000000000000000
,
0000000000000000
0000000000000000
0000000000000000
0000000000000000
,
0000000000000100
0000000000000000
0000000000000100
0000000000000000
0000000000010101
0000000001000000
0000000000000010
0000000000000000
,
0000000000100000
0000000000000000
0000000000100000
0000000000000000
0000000010110000
0000000000000010
0000000001000000
0000000000000000
,
0000000000000001
0000000000000000
0000000010000000
0000000000000000
0000000000000010
0000000000000100
0000000000000010
0000000000000000
,
0000000000000001
0000000000000000
0000000010000000
0000000000000000
0000000001000000
0000000000100000
0000000001000000
0000000000000000
,
0000000000100000
0000001000000000
0000000000100000
0000000000000000
0000010000000000
0000000000000000
0000000000110000
0000000000000000
,
0000010000000000
0000000000000000
0000010000000000
0000000000000000
0000001000000000
0000000000100000
0001010000000000
0000000000000000
,
0000000000100000
0000000000100000
0000000000010000
0001000000000000
,
0000000000100000
0000000000000000
0000000000100000
0000000000000000
0000000001000000
0000010000000000
0000000000110000
0000000000000000
,
0000000000100000
0000001000000000
0000000000100000
0000000000000000
0000001000000000
0000000000000000
0001010000000000
0000000000000000
,
1000000000000000
0000000000000000
0000000100000000
0000000000000000
0010000000000000
0000010000000000
0010000000000000
0000000000000000
,
0000001000000000
0000010000000000
0000001000000000
0000000000000000
0000011000000000
0000000000000000
0001000000000000
0000000000000000
,
0000000000100000
0000010000000000
0000000000100000
0000000000000000
,
0000000000100000
0001010000000000
0000000001000000
0000000001000000
,
0000000000110000
0000000000000000
0000001000000000
0000001000000000
,
0000000000100000
0000010000000000
0000000000100000
0000000000000000
0000010000100000
0000000000000000
0001010001000000
0000000000000000
,
0000000000100000
0000010000100000
0000001000110000
0001000000000000
,
0000000000100000
0000000000100000
0000000001000000
0000000000000010
0000000000000000
0000000000000000
0000000000000000
0000000000000000
,
0000000000000100
0000000000000000
0000000000100000
0000000000000000
,
0000000000000100
0000000000000000
0000000000000000
0000000000000000
0000000000000000
0000000000000000
0000000000000000
0000000000000000
0000000001000000
0000000000000000
0000000000000000
0000000000100000
0000000000000000
0000000000000000
0000000000100000
0000000000000000
,
0000001000000000
0000000000000000
0000010000000000
0000000000000000
,
0100000000000000
0000000000000000
0000001000000000
0000000000000000
,
0011010000000000
1000010100000000
0000000000000000
0010000000000000
,
0000000000000000
0000000000000000
0000010000000000
0000000000000000
0010000000000000
0000010000000000
0010000000000000
0000000000000000
,
0000010000000000
0000001000000000
0010000000000000
0100000000000000
,
0000001000000000
0000010000000000
0000000000100000
0000000001000000
0000000000000010
0000000000000000
0000000000000000
0000000000000000
,
0000000000000100
0000000000000010
0000000000100000
0000000001000000
,
0000000000000100
0000000000100000
0000000000000100
0000000000000100
,
0000000001000000
0000000000000010
0000000001000000
0000000000000000
0000000000000010
0000000000000000
0000000001000000
0000000000000000
,
0000000000000100
0000000000100000
0000000000000100
0000000000000000
0000000000100000
0000000000000000
0000000000100000
0000000000000000
,
0000000000000100
0000000000110000
0000000000000010
0000000000000010
,
0000000000010100
0000000000000000
0000000001000000
0000000001000000
,
0000000000100000
0000001000000000
0000000000100000
0000000000000000
0000010000100000
0000000000000000
0000001000110000
0000000000000000
,
0000010000000000
0000010000100000
0001010001000000
0000000000010000
,
0000000000100000
0000001000000000
0000010000000000
0000010000000000
,
0010000000000000
0000000000000000
0000001000000000
0000001000000000
,
0100000000000000
0010000000000000
0100000000000000
0000000000000000
0001000000000000
0000000000000000
0110000000000000
0000000000000000
,
0000000100000000
0110000000000000
0001000000000000
0001100100000000
,
0000001000000000
0000000000000000
0000010000000000
0000010000000000
,
0000000000100000
0000000000000000
0000000001000000
0000000001000000
,
0000000000000010
0000000000000100
0000000000000010
0000000000000000
0000000000010000
0000000000000000
0000000000000110
0000000000000000
,
0000000010000000
0000000000000110
0000000000010000
0000000010011000
,
0000000001000000
0000000000000000
0000000000000000
0000000000000000
;
