#TITLE:빙빙빙;
#SUBTITLE:Bing Bing Bing;
#ARTIST:클론 (CLON);
#TITLETRANSLIT:;
#SUBTITLETRANSLIT:;
#ARTISTTRANSLIT:;
#CREDIT:locuuraa [from 28.mp];
#BANNER:Bing Bing Bing.png;
#BACKGROUND:Bing Bing Bing.png;
#LYRICSPATH:;
#CDTITLE:../CDTitles/3DDX.png;
#MUSIC:Bing Bing Bing.mp3;
#OFFSET:-0.268;
#SAMPLESTART:13.000;
#SAMPLELENGTH:10.000;
#DISPLAYBPM:86.0;
#BGCHANGES:;
#NOTEDATA:;
#STEPSTYPE:ds3ddx-single;
#DESCRIPTION:Pretty;
#DIFFICULTY:Easy;
#METER:3;
#RADARVALUES:;
#BPMS:0.000=86.180;
#STOPS:0.000=0.000;
#DELAYS:;
#NOTES:
00000000
00000000
00000000
00000000
,
00000000
00000000
00000000
00000000
,
00000000
00000000
00000000
00000000
,
00000000
00000000
00000000
10000001
,
00000100
00000000
00100000
00000000
,
00000001
10000000
00000001
10000000
,
00000010
00000000
01000000
00000000
,
10000001
00000000
00000001
10000000
,
00000100
00100000
00100000
00000100
,
00010000
00000000
00010000
00000000
,
00000010
00000000
01000000
00000000
,
00000010
01000000
00000010
00000000
,
00000001
10000000
00010000
10000000
,
00000010
01000000
01000000
00000010
,
10000000
00000001
00010000
00000001
,
01000000
00000000
10000001
00000000
,
00100000
00000100
00000001
10000000
,
00000010
00000010
01000000
01000000
,
00000100
00100000
10000000
00000001
,
01000000
01000000
00000010
00000010
,
10000000
00010000
00000001
00000000
,
00100000
00000000
00000100
00000000
00100000
00100000
00100000
00000000
,
00000001
10000000
00010000
00000000
,
00000010
01000000
00000010
00000010
,
00100000
00000100
00000001
10000000
,
00000010
00000010
01000000
01000000
,
00000100
00100000
10000000
00000001
,
01000000
01000000
00000010
00000010
,
00010000
00000000
10000001
00000000
,
00000010
00000010
01000000
01000000
,
00000001
00000000
10000000
00000000
,
00010000
00000000
00000010
01000000
,
01000010
00000000
00000000
00000000
;
#NOTEDATA:;
#STEPSTYPE:ds3ddx-single;
#DESCRIPTION:Power;
#DIFFICULTY:Medium;
#METER:3;
#RADARVALUES:;
#BPMS:0.000=86.180;
#STOPS:0.000=0.000;
#DELAYS:;
#NOTES:
00000000
00000000
00000000
00000000
,
00000000
00000000
00000000
00000000
,
00000000
00000000
00000000
00000000
,
00000000
00000000
00000000
00000000
,
10000100
10000100
00100001
00100001
,
00000010
00000000
00000010
00000000
11000000
00000010
11000000
00000000
,
00010100
00010100
00110000
00110000
,
00000010
00000000
00000010
00000000
11000000
00000010
11000000
00000000
,
00000100
00000000
00100000
00000000
00010100
00110000
00100100
00000000
,
00010010
00000000
01010000
00000000
00000010
01000000
10000100
00000000
,
00000010
00000000
00100000
00000000
,
00000100
00000000
01000000
00000000
00000010
01000000
10000100
00000000
,
00100000
00100000
00000010
01000000
00000100
00100000
00000010
00000010
,
01000000
01000000
00000010
00000001
00100000
00000100
10100101
00000000
,
01000000
00000100
00001010
00000000
00000010
00100000
01001000
00000000
,
00000100
00000010
00100000
00000100
00100000
01000000
10000101
00000000
,
11000000
11000000
00010100
00010100
,
11000000
00000000
00010100
00000000
01000000
00100000
00010100
00000000
,
00100000
00000000
00010011
00000000
01000000
01000000
01000000
00000000
,
00000100
00000000
00100000
00000000
00000100
01000000
00000010
00000000
,
01000001
01000001
01000001
00000100
,
00100000
00010000
00100000
10000000
00000010
00000010
00000010
00000000
,
10000000
10000000
10000000
00000110
,
00100000
01000000
00000010
00000100
,
01000000
00100000
01000000
00000000
00100000
01000000
00100000
00000000
,
01000000
00000100
01000000
00000000
00000010
00100000
00000010
00000000
,
10110000
00000000
00010011
00000000
00100000
01000000
00000101
00000000
,
00000100
00000010
10100000
00000000
01000000
00000010
01000000
00000000
,
00000100
00000100
01010000
00000000
01000010
00000010
11000000
00000000
,
01000010
01000000
00000011
00000000
01000010
01000010
00110000
00000000
,
00000100
00000000
00100000
00000000
00000010
01000000
00010100
00000000
,
00110000
00110000
00000010
01000000
,
00010100
00000000
00000000
00000000
;
#NOTEDATA:;
#STEPSTYPE:ds3ddx-double;
#DESCRIPTION:Dual;
#DIFFICULTY:Medium;
#METER:3;
#RADARVALUES:;
#BPMS:0.000=86.180;
#STOPS:0.000=0.000;
#DELAYS:;
#NOTES:
0000000000000000
0000000000000000
0000000000000000
0000000000000000
,
0000000000000000
0000000000000000
0000000000000000
0000000000000000
,
0000000000000000
0000000000000000
0000000000000000
0000000000000000
,
0000000000000000
0000000000000000
0000000000000000
0000000000000000
,
0000000000100000
0001000000100000
0000010000000000
0000010000010000
,
0000000001000000
0000000000000000
0000000001000000
0000000000000000
0000001000000000
0000000001000000
0000001001000000
0000000000000000
,
0001000000100000
0001000000100000
0000010000010000
0000010000010000
,
0000000001000000
0000000000000000
0000000001000000
0000000000000000
0000001000000000
0000000001000000
0001001000000000
0000000000000000
,
0010000000000000
0000000000000000
0000010000000000
0000000000000000
0011000000000000
0001010000000000
0010010000000000
0000000000000000
,
0101000000000000
0000000000000000
0001001000000000
0000000000000000
0100000000000000
0000001000000000
0010000100000000
0000000000000000
,
0000000001000000
0000000000000000
0000000000000100
0000000000000000
,
0000000010110000
0000000000000000
0000000000000010
0000000000000000
0000001000000000
0000000001000000
0001010000000000
0000000000000000
,
0010000000000000
0010000000000000
0010000000000000
0000001000000000
0000000000100000
0000000001000000
0000000011011000
0000000000000000
,
0000000000000100
0000000000000100
0000000000000100
0000000001000000
0000010000000000
0010000000000000
1010010100000000
0000000000000000
,
0000001000000000
0000001000000000
0000000001000000
0000001000000000
0000001000000000
0000000001000000
0000000000100000
0000000000000000
,
0000000000000010
0000000001000000
0000000001000000
0000000000000100
0000000000000100
0000000000000010
0000000001010000
0000000000000000
,
0001010000000000
0000010000000000
0001101000000000
0000001000000000
,
1011000000000000
0000000000000000
0010000000000000
0000000000000000
0100000000000000
0100000000000000
0000011100000000
0000000000000000
,
0000000000110000
0000000000100000
0000000001011000
0000000001000000
,
0000000000000101
0000000000000000
0000000000000100
0000000000000000
0000000000000010
0000000000000010
0000000001100000
0000000000000000
,
0001001000000000
0001001000000000
0001001000000000
0010000000000000
,
0100000000000000
0001000000000000
0100000000000000
1000000000000000
0000010000000000
0000010000000000
0000010000000000
0000000000000000
,
0000000001000000
0000000001000000
0000000001000000
0000000000000110
,
0000000000100000
0000000001000000
0000000000000010
0000000000000100
,
0000000001000000
0000010000000000
0000000001000000
0000000000000000
0000001000000000
0000001000000000
0000001000000000
0000000000000000
,
0010000000000000
0000001000000000
1100000000000000
0000000000000000
0001000000000000
1000000000000000
0001010000000000
0000000000000000
,
0000001000000000
0000000000000000
0000000000100000
0000000000000000
0000000001000000
0000000001000000
0000000001000000
0000000000000000
,
0000000000000010
0000000000000100
0000000001010000
0000000000000000
0000000000000010
0000000000000000
0000000010000011
0000000000000000
,
0000000000100010
0000000000100010
0000000001000100
0000000000000000
0000000001000100
0000000001000100
0000000000100010
0000000000000000
,
0000001000000000
0000001000000000
0000010000000000
0000000000000000
0010000000000000
0000001000000000
0100000000000000
0000000000000000
,
0001010100000000
0000000000000000
1101000000000000
0000000000000000
0000001000000000
0010000000000000
0010001000000000
0000000000000000
,
0000010000000000
0010000000000000
0100000000000000
0000001000000000
,
0000000110000000
0000000000000000
0000000000000000
0000000000000000
;
