#TITLE:아름다운 21C;
#SUBTITLE:Beautiful 21C;
#ARTIST:2000대한민국 (2000 Republic of Korea);
#TITLETRANSLIT:;
#SUBTITLETRANSLIT:;
#ARTISTTRANSLIT:;
#CREDIT:locuuraa [from 65.mp];
#BANNER:Beautiful 21C.png;
#BACKGROUND:Beautiful 21C.png;
#LYRICSPATH:;
#CDTITLE:../CDTitles/3DDX.png;
#MUSIC:Beautiful 21C.mp3;
#OFFSET:-0.402;
#SAMPLESTART:14.000;
#SAMPLELENGTH:10.000;
#DISPLAYBPM:108.0;
#BGCHANGES:;
#NOTEDATA:;
#STEPSTYPE:ds3ddx-single;
#DESCRIPTION:Pretty;
#DIFFICULTY:Easy;
#METER:6;
#RADARVALUES:;
#BPMS:0.000=215.924,82.000=107.962,130.000=215.924,178.000=107.962,210.000=215.924;
#STOPS:0.000=0.000;
#DELAYS:;
#NOTES:
00000000
00000000
00000000
00000000
,
00000000
00000000
00000000
00000000
,
00000000
00000000
00000000
00000000
,
00000000
00000000
00000000
00000000
,
00000000
00000000
00000000
00000000
,
00000000
00000000
00000000
00000000
,
00000000
00000000
00000000
00000000
,
00000000
00000000
00000000
00000000
,
00000000
00000000
00010000
00000000
,
00100100
00000000
00010000
00000000
,
00100100
00000000
10000000
00000000
,
01000010
00000000
00000001
00000000
,
01000010
00000000
00100000
00000000
,
00110000
00000000
00000100
00000000
,
00010100
00000000
00100000
00000000
,
01000000
00000000
00000100
00000000
,
00000010
00000000
00100000
00000000
,
10100001
00000000
00000100
00000000
,
10000101
00000000
01000000
00000000
,
11000001
00000000
00000010
00000000
,
10000011
00000000
00100000
00000100
,
00100000
00000100
00100000
00000000
00000001
00010000
00000001
00000000
,
01000000
01000000
00000100
00100000
,
00000010
11000001
00000100
00100000
,
00100100
00000010
01000010
00100000
,
10000101
01000000
00000010
00100000
,
00100000
00000100
10100000
01000000
,
00000101
00000010
00110000
00000000
,
00010100
00000000
00100000
00000100
,
00100000
01000000
00000010
00100000
,
00000100
00000000
00000010
00000000
01000000
00100000
01000000
00000000
,
00000010
00000100
00000010
00000000
00100000
00000000
00100000
00000000
,
00000100
00000010
00000110
00000000
,
00000000
00000000
01100000
00000000
,
00000000
00000000
01000010
00000000
,
00000000
00000000
00100100
00000000
,
00000000
00000000
00000011
00000000
,
11000000
00000000
00010100
00000000
,
00110000
00000000
00000100
00000000
,
00100000
00000000
01000000
00000000
,
11000000
00000000
00100000
00000000
,
00000100
00000000
00000010
00000000
,
00000011
00000000
01000000
00000000
,
00000010
00000000
01000010
00000000
,
00100100
00000000
10100000
01000000
,
00000101
00000010
00100000
00000100
,
00100000
00100000
00100000
00000000
00000100
00000100
00000100
00000000
,
01000000
00100000
00100000
00000010
,
01000000
01000000
00000100
00100000
,
00000100
00000010
00000010
01000000
,
00000010
00000000
00000100
00000000
00100000
00100000
00100000
00000000
,
00000100
00000100
00000100
00000000
00100000
00000000
00100000
00000000
,
01000000
00000010
00100000
00000000
,
00000100
00000000
00110000
00000000
,
00000000
00000000
10000101
00000000
,
00000000
00000000
01000010
00000000
,
00000000
00000000
00000100
00000000
,
00100000
00000000
00010100
00000000
,
00000000
00000000
10100001
00000000
,
00000000
00000000
01000010
00000000
,
00000000
00000000
00000011
00000000
,
11000000
00000000
00000010
00000010
,
00000010
00000000
01000000
01000000
,
01000000
00000000
01000010
00000000
,
00000000
00000000
01000000
01000000
,
01000000
00000000
00000010
00000010
,
00000010
00000000
11000000
00000000
,
00000011
00000000
01000010
00000000
,
00000000
00000000
00110100
00000000
;
#NOTEDATA:;
#STEPSTYPE:ds3ddx-single;
#DESCRIPTION:Power;
#DIFFICULTY:Medium;
#METER:7;
#RADARVALUES:;
#BPMS:0.000=215.924,82.000=107.962,130.000=215.924,178.000=107.962,210.000=215.924;
#STOPS:0.000=0.000;
#DELAYS:;
#NOTES:
00000000
00000000
00000000
00000000
,
00000000
00000000
00000000
00000000
,
00000000
00000000
00000000
00000000
,
00000000
00000000
00000000
00000000
,
00000000
00000000
00000000
00000000
,
00000000
00000000
00000000
00000000
,
00000000
00000000
00000000
00000000
,
00000000
00000000
00000000
00000000
,
00000000
00000000
01100000
00000000
,
00010000
00000000
00000110
00000000
,
00010000
00000000
00100100
00000000
,
10000001
00000000
00000000
00000000
01000010
00000000
00100000
00000010
,
01000000
00000010
00110000
00000000
,
01100000
00000000
00010100
00000000
,
00000110
00000000
00000110
00000000
01000000
00000010
00000100
00000000
,
00000010
00100000
00000010
01000000
,
00000101
00000000
10100000
00000000
00000010
01000000
00100000
00000000
,
01000000
00000100
01000000
00000010
,
10100000
00000101
00100000
00010000
,
00000100
00010000
00100100
00000000
,
10100101
00000000
00000000
00000000
01000001
00000000
00000010
01000000
,
00000100
00000100
01000001
00010000
00000100
00010000
00100000
00010000
,
10000010
00000000
00100001
00000000
00000100
00000010
00100000
01000000
,
00000100
10010000
00100000
00010001
00000100
00000000
01000000
00000100
,
00100010
00000100
00100010
00000100
00100010
00000000
01000000
00000100
,
01000000
00000010
00110000
00000000
01000000
00000100
10000101
00000000
,
00000010
00100000
10100001
00000000
01000100
00100000
01000100
00100000
,
01000100
00100000
01000100
00000000
00000010
00000001
01000000
10000000
,
00000100
00010000
00100010
00000000
01000000
01000000
00000010
00000010
,
00100000
00000010
01000000
00000001
00000010
00000000
00000010
10000000
,
01000000
01000000
00000010
00010000
01000000
00000010
01000010
00000000
,
00000100
00100000
00100100
00000000
00100000
00000100
00100000
01000000
,
00000100
01000000
00000010
00000100
00000110
00000000
00000000
00000000
,
00010000
00000000
01100000
00000000
,
00010000
00000000
01000010
00000000
,
10000001
00000000
00000000
00000000
00100100
00000000
00000010
00100000
,
00000100
00100000
00000011
00000000
,
01000010
00000000
11000000
00000000
,
01000010
00000000
01000010
00000000
00000100
00100000
00000010
00000000
,
00100000
00000010
01000000
00000100
,
11000000
00000000
00000011
00000000
00100000
00000100
01000000
00000000
,
00000100
01000000
00000010
00100000
,
00000011
11000000
00000010
10000000
,
01000000
00000001
01000010
00000000
,
11000011
00000000
10100001
01000000
,
10000101
00000000
00000010
00000000
00100000
00010000
00000100
10000001
,
00100000
00100000
00000100
00000100
01000000
10000000
00000010
00000001
,
01000000
00000010
00100000
00000000
00100000
00100000
00000010
00000010
,
01000000
00100000
01000000
00000000
00000100
00010000
00100000
10000000
,
00000100
00100000
00000010
01000000
00000010
00000001
01000000
10000000
,
00000010
01000000
00000100
00000000
00100000
00100000
00000010
00000010
,
00100000
00010000
00000100
00000001
00100000
00000010
00100000
00000100
,
01000000
01000000
00000010
00000010
00110000
00000000
00000000
00000000
,
00010100
00000000
01000000
10000000
,
01000000
00000000
00000010
00000001
,
00000010
00000010
00000000
01000000
,
00000100
00010000
00100000
00000001
,
00000100
10000000
01000000
00000001
,
00000010
10000000
01000000
00000100
,
00100010
00000100
00100010
00000000
,
00000000
00000000
00010100
00000000
,
00110000
00000000
00000010
00000001
,
00000010
00000000
01000000
10000000
,
01000000
01000000
00000000
00000010
,
00100000
00010000
00000100
10000000
,
00100000
00000001
00000010
10000000
,
01000000
00000001
00000010
00100000
,
01000100
00100000
01000100
00000000
,
00100000
00000000
00000110
00000000
;
#NOTEDATA:;
#STEPSTYPE:ds3ddx-double;
#DESCRIPTION:Dual;
#DIFFICULTY:Medium;
#METER:8;
#RADARVALUES:;
#BPMS:0.000=215.924,82.000=107.962,130.000=215.924,178.000=107.962,210.000=215.924;
#STOPS:0.000=0.000;
#DELAYS:;
#NOTES:
0000000000000000
0000000000000000
0000000000000000
0000000000000000
,
0000000000000000
0000000000000000
0000000000000000
0000000000000000
,
0000000000000000
0000000000000000
0000000000000000
0000000000000000
,
0000000000000000
0000000000000000
0000000000000000
0000000000000000
,
0000000000000000
0000000000000000
0000000000000000
0000000000000000
,
0000000000000000
0000000000000000
0000000000000000
0000000000000000
,
0000000000000000
0000000000000000
0000000000000000
0000000000000000
,
0000000000000000
0000000000000000
0000000000000000
0000000000000000
,
0000000000000000
0000000000000000
0000000001100000
0000000000000000
,
0000000000010000
0000000000000000
0000011000000000
0000000000000000
,
0001000000000000
0000000000000000
0000010000100000
0000000000000000
,
0001000000010000
0000000000000000
0000000000000000
0000000000000000
0000001001000000
0000000000000000
0000000000100000
0000001000000000
,
0000000001000000
0000001000000000
0000000000110000
0000000000000000
,
0000000001100000
0000000000000000
0000000000010100
0000000000000000
,
0000000000000110
0000000000000000
0000000000000110
0000000000000000
0000000001000000
0000000000000010
0000000000000100
0000000000000000
,
0000000000000010
0000000000100000
0000001000000000
0100000000000000
,
0000010100000000
0000000000000000
1010000000000000
0000000000000000
0000001000000000
0100000000000000
0010000000000000
0000000000000000
,
0100000000000000
0000010000000000
0000001000000000
0000000001000000
,
0001010000000000
0000000000110000
0000010000000000
0001000000000000
,
0000000000100000
0000000000010000
0000010000100000
0000000000000000
,
0000001001000000
0000000000000000
0000000000000000
0000000000000000
0001010000000000
0000000000000000
0000001000000000
0100000000000000
,
0000010000000000
0000010000000000
0100000100000000
0001000000000000
0000010000000000
0001000000000000
0010000000000000
0001000000000000
,
1000010000000000
0000000000000000
0001001000000000
0000000000000000
0000000001000000
0000000000100000
0000000000000100
0000000000000010
,
0000000000100000
0000000000010001
0000000000000100
0000000010010000
0000000000100000
0000000000000000
0000000001000000
0000000000000100
,
0000000000100010
0000000000100000
0000010001000000
0000010000000000
0010001000000000
0000000000000000
0100000000000000
0000010000000000
,
0100000000000000
0000001000000000
0011000000000000
0000000000000000
0100000000000000
0000010000000000
0000101000000000
0000000000000000
,
0000010000000000
0010000000000000
0100100000000000
0000000000000000
0100010000000000
0000010000000000
0000001000100000
0000000000100000
,
0000000001000100
0000000000010000
0000000000100010
0000000000000000
0000000001000000
0000000010000000
0000000000000010
0000000000000001
,
0000000000100000
0000000000010000
0000000001000100
0000000000000000
0000000000000010
0000000000000010
0000000001000000
0000000001000000
,
0000000000100000
0000010000000000
0000000000100000
0000000000010000
0000010000000000
0000000000000000
0000001000000000
1000000000000000
,
0100000000000000
0100000000000000
0000001000000000
0001000000000000
0100000000000000
0010000000000000
0110000000000000
0000000000000000
,
0000001000000000
0000010000000000
0000011000000000
0000000000000000
0000000001000000
0000010000000000
0000000000100000
0000000001000000
,
0000000000000100
0000000000000010
0000000001000000
0000000000100000
0000000001100000
0000000000000000
0000000000000000
0000000000000000
,
0000000000010000
0000000000000000
0000011000000000
0000000000000000
,
0001000000000000
0000000000000000
0000010000100000
0000000000000000
,
0000001001000000
0000000000000000
0000000000000000
0000000000000000
0000010000100000
0000000000000000
0000001000000000
0000000000100000
,
0000010000000000
0000001000000000
1100000000000000
0000000000000000
,
0100001000000000
0000000000000000
0000001100000000
0000000000000000
,
0100001000000000
0000000000000000
0100001000000000
0000000000000000
0000010000000000
0010000000000000
0000001000000000
0000000000000000
,
0010000000000000
0000010000000000
0000001000000000
0000000001000000
,
0000000000110000
0000000000000000
0000000000000101
0000000000000000
0000000000100000
0000000000000100
0000000001000000
0000000000000000
,
0000000000000100
0000000001000000
0000000000000010
0000000000100000
,
0000000000000011
0000000011000000
0000000000100000
0000000000010000
,
0000010000000000
0001000000000000
0000010000100000
0000000000000000
,
0000011000000000
0000000000000000
1010000100000000
0100000000000000
,
1000010100000000
0000000000000000
0000001000000000
0000000000000000
0010000000000000
0001000000000000
0000010000000000
1000000100000000
,
0010000000000000
0010000000000000
0000010000000000
0000010000000000
0100000000000000
1000000000000000
0000001000000000
0000000100000000
,
0100000000000000
0000001000000000
0010000000000000
0000000000000000
0000010000000000
0000010000000000
0000001000000000
0000001000000000
,
0000000001000000
0000000000100000
0000000000000100
0000000000000000
0000000000100000
0000000000010000
0000000000000100
0000000000000001
,
0000000000100000
0000000000000100
0000000001000000
0000000000000010
0000000001000000
0000000000000001
0000000000000010
0000000010000000
,
0000000001000000
0000000000000010
0000000000100000
0000000000000000
0000000000000100
0000000000000100
0000000001000000
0000000001000000
,
0000000000100000
0000000000010000
0000010000000000
0001000000000000
0000000000100000
0000001000000000
0000000000100000
0000010000000000
,
0000000001000000
0000000001000000
0000001000000000
0000001000000000
0000000000110000
0000000000000000
0000000000000000
0000000000000000
,
0001010000000000
0000000000000000
0000010000000000
0001000000000000
,
0000000001000000
0000000000000000
0000010000000000
0001000000000000
,
0000000001000000
0000000001000000
0000000000000000
0000010000000000
,
0000001000000000
0001000000000000
0010000000000000
0000000100000000
,
0000010000000000
1000000000000000
0100000000000000
0000000100000000
,
0000001000000000
1000000000000000
0100000000000000
0000010000000000
,
0000011000000000
0000001000000000
0000001001000000
0000000000000000
,
0000000000000000
0000000000000000
0001010000000000
0000000000000000
,
0000000000110000
0000000000000000
0000000000100000
0000000000010000
,
0000001000000000
0000000000000000
0000000000100000
0000000000010000
,
0000001000000000
0000001000000000
0000000000000000
0000000000100000
,
0000000001000000
0000000000010000
0000000000000100
0000000010000000
,
0000000000100000
0000000000000001
0000000000000010
0000000010000000
,
0000000001000000
0000000000000001
0000000000000010
0000000000100000
,
0000000001100000
0000000001000000
0000001001000000
0000001000000000
,
0000010000000000
0010000000000000
0110000000000000
0000000000000000
;
