#TITLE:大舌頭;
#SUBTITLE:Big Tongue;
#ARTIST:吴克群 (Kenji Wu);
#TITLETRANSLIT:dàshétou;
#SUBTITLETRANSLIT:;
#ARTISTTRANSLIT:Wúkèqún;
#CREDIT:locuuraa [from 07.mp];
#BANNER:Big Tongue.png;
#BACKGROUND:Big Tongue.png;
#LYRICSPATH:;
#CDTITLE:../CDTitles/3DDX.png;
#MUSIC:Big Tongue.mp3;
#OFFSET:0.222;
#SAMPLESTART:20.000;
#SAMPLELENGTH:10.000;
#DISPLAYBPM:105.0;
#BGCHANGES:;
#NOTEDATA:;
#STEPSTYPE:ds3ddx-single;
#DESCRIPTION:Pretty;
#DIFFICULTY:Easy;
#METER:2;
#RADARVALUES:;
#BPMS:0.000=105.008;
#STOPS:0.000=0.000;
#DELAYS:;
#NOTES:
00000000
00000000
00000000
00000000
,
00000000
00000000
00000000
00000000
,
00000000
00000000
00000000
00000000
,
00000000
00000000
00000000
00000000
,
00000000
00000000
00000000
00000000
,
00100000
00000000
00000100
00000000
,
10100000
00000000
00000101
00000000
,
10100001
00000000
00100000
00000000
,
00000100
00100000
00000100
00100100
,
00100000
00000000
00000100
00000000
,
10100000
00000000
00000101
00000000
,
10100001
00000000
00100000
00000000
,
00000100
00100000
00000100
00100100
,
00010000
00000000
00010000
00000000
,
00000010
00000000
01000000
00000000
,
00000100
00000100
00100000
00100000
,
00000101
00000000
00000000
00000000
,
00010000
00000000
00010000
00000000
,
01000000
00000000
00000010
00000000
,
00100000
00100000
00000100
00000100
,
10100000
00000000
00000000
00000000
,
00000100
00000000
00000000
00000000
,
00100000
00000000
00000000
00000000
,
00000010
00000000
00000000
00000000
,
01000000
00000000
00000000
00000000
,
00000001
00000000
10000000
00000000
00000100
00100000
00000100
00000000
,
10000000
00000000
00000001
00000000
01000000
00000010
01000000
00000000
,
00000011
00000000
11000000
00000000
,
00000010
01000000
00000100
00100000
,
00000001
00000000
10000000
00000000
00000010
01000000
00000010
00000000
,
10000000
00000000
00000001
00000000
00100000
00000100
00100000
00000000
,
00000101
00000000
10100000
00000000
,
00000100
00100000
00000010
01000000
,
00000000
00000100
00000000
01000000
,
00000000
00000100
00000000
01000000
,
00000100
00000010
00100000
01000000
,
00000010
00000000
00000010
00000000
00100000
00000010
01000000
00000000
,
00000000
00100000
00000000
00000010
,
00000000
00100000
00000000
00000010
,
00100000
01000000
00000100
00000010
,
01000000
00000000
01000000
00000000
00000100
01000000
00000010
00000000
,
10000001
00000000
00000000
00000000
;
#NOTEDATA:;
#STEPSTYPE:ds3ddx-single;
#DESCRIPTION:Power;
#DIFFICULTY:Medium;
#METER:2;
#RADARVALUES:;
#BPMS:0.000=105.008;
#STOPS:0.000=0.000;
#DELAYS:;
#NOTES:
00000000
00000000
00000000
00000000
,
00000000
00000000
00000000
00000000
,
00000000
00000000
00000000
00000000
,
00000000
00000000
00000000
00000000
,
00000000
00000000
00000000
00000000
,
01000000
00100000
00000010
00000100
,
00110000
00000000
00011010
00000000
,
00100000
00000100
01000000
00100100
,
00100000
00000100
00100000
00000000
00000100
00000000
00100100
00000000
,
00000010
00000100
01000000
00100000
,
00010100
00000000
01011000
00000000
,
00000100
00100000
00000010
00010000
,
00000100
00100000
00000100
00000000
00100000
00000000
00100100
00000000
,
00010100
00000000
01000000
01100000
,
00000010
00000000
00100000
00000000
,
00000010
00000010
00100000
00100000
,
00100000
00010000
00000010
00000001
,
00110000
00000000
00000010
00000110
,
01000000
00000000
00000100
00000000
,
01000000
01000000
00000100
00000100
,
00000100
00010000
01000000
10000000
,
00000100
00000000
00000000
00000000
,
00100000
00000000
00000000
00000000
,
00000010
00000000
00000000
00000000
,
01000000
00000000
00000000
00000000
,
00000100
00000000
10000000
00000000
00000100
01000000
00000010
00000000
,
00100000
00000000
00000001
00000000
00100000
00000010
01000000
00000000
,
00010000
00000110
00010000
01100000
,
00000100
00100000
00000010
01000010
,
01000000
00000000
00010000
00000000
00100000
01000000
00000010
00000000
,
01000000
00000000
00010000
00000000
00000010
01000000
00000010
00000000
,
00110000
00100010
00010100
01000100
,
00100000
00000010
01000000
01000010
,
00010000
00000100
00011000
01000000
,
00000010
00000010
00100000
00100000
,
00000010
00000100
01000000
00100000
,
00000010
00000000
00000010
00000000
00100000
01000000
00000100
00000000
,
00010000
00100000
00011000
00000010
,
01000000
01000000
00000100
00000100
,
01000000
00100000
00000010
00000100
,
01000000
00000000
01000000
00000000
00000100
00000010
00100000
00000000
,
00100100
00000000
00000000
00000000
;
#NOTEDATA:;
#STEPSTYPE:ds3ddx-double;
#DESCRIPTION:Dual;
#DIFFICULTY:Medium;
#METER:2;
#RADARVALUES:;
#BPMS:0.000=105.008;
#STOPS:0.000=0.000;
#DELAYS:;
#NOTES:
0000000000000000
0000000000000000
0000000000000000
0000000000000000
,
0000000000000000
0000000000000000
0000000000000000
0000000000000000
,
0000000000000000
0000000000000000
0000000000000000
0000000000000000
,
0000000000000000
0000000000000000
0000000000000000
0000000000000000
,
0000000000000000
0000000000000000
0000000000000000
0000000000000000
,
0000001000000000
0000010000000000
0000000001000000
0000000000100000
,
0001010000000000
0000000000000000
0000000001011000
0000000000000000
,
0000000000100000
0000000000000100
0000000001000000
0000000000100100
,
0000000001000000
0000000000100000
0000000001000000
0000000000000000
0000000000100000
0000000000000000
0000010000100000
0000000000000000
,
0000000001000000
0000000000100000
0000001000000000
0000010000000000
,
0000000000110000
0000000000000000
0001101000000000
0000000000000000
,
0000010000000000
0010000000000000
0000001000000000
0001000000000000
,
0000001000000000
0000010000000000
0000001000000000
0000000000000000
0000010000000000
0000000000000000
0000010000100000
0000000000000000
,
0000000001010000
0000000000000000
0000000000000010
0000000000000110
,
0000000001000000
0000000000000000
0000000000000100
0000000000000000
,
0000000001000000
0000000001000000
0000000000000100
0000000000000100
,
0000000000000100
0000000000010000
0000000001000000
0000000010000000
,
0000000000010100
0000000000000000
0000000001000000
0000000001100000
,
0000001000000000
0000000000000000
0000000000100000
0000000000000000
,
0000010000000000
0000010000000000
0000000001000000
0000000001000000
,
0000010000000000
0001000000000000
0000000001000000
0000000000010000
,
0000001000000000
0000000000000000
0000000000000000
0000000000000000
,
0000000000000010
0000000000000000
0000000000000000
0000000000000000
,
0000001000000000
0000000000000000
0000000000000000
0000000000000000
,
0000000000000010
0000000000000000
0000000000000000
0000000000000000
,
0000000000000100
0000000000000000
0000000010000000
0000000000000000
0000000000000100
0000000001000000
0000000000000010
0000000000000000
,
0000000000100000
0000000000000000
0000000000000001
0000000000000000
0000000001000000
0000000000100000
0000010000000000
0000000000000000
,
0001000000000000
0000011000000000
0000000000010000
0000000001100000
,
0000010000000000
0000001000000000
0100000000000000
0100001000000000
,
0100000000000000
0000000000000000
0001000000000000
0000000000000000
0010000000000000
0100000000000000
0000001000000000
0000000000000000
,
0100000000000000
0000000000000000
0001000000000000
0000000000000000
0000001000000000
0100000000000000
0000001000000000
0000000000000000
,
0011000000000000
0010001000000000
0001010000000000
0100010000000000
,
0010000000000000
0000001000000000
0100000000000000
0100001000000000
,
0001000000000000
0010000000000000
0001100000000000
0000001000000000
,
0000010000000000
0000010000000000
0000000000100000
0000000000100000
,
0000001000000000
0000010000000000
0000000001000000
0000000000100000
,
0000001000000000
0000000000000000
0000001000000000
0000000000000000
0000000000100000
0000000001000000
0000000000000010
0000000000000000
,
0000000000010000
0000000000000100
0000000000011000
0000000001000000
,
0000000000100000
0000000000100000
0000010000000000
0000010000000000
,
0000000001000000
0000000000100000
0000001000000000
0000010000000000
,
0000000001000000
0000000000000000
0000000001000000
0000000000000000
0000010000000000
0000001000000000
0100000000000000
0000000000000000
,
0000011000000000
0000000000000000
0000000000000000
0000000000000000
;
