#TITLE:성인식;
#SUBTITLE:Adult Ceremony;
#ARTIST:박지윤 (Park Ji-yoon);
#TITLETRANSLIT:;
#SUBTITLETRANSLIT:;
#ARTISTTRANSLIT:;
#CREDIT:locuuraa [from 34.mp];
#BANNER:Adult Ceremony.png;
#BACKGROUND:Adult Ceremony.png;
#LYRICSPATH:;
#CDTITLE:../CDTitles/3DDX.png;
#MUSIC:Adult Ceremony.mp3;
#OFFSET:0.326;
#SAMPLESTART:63.000;
#SAMPLELENGTH:10.000;
#DISPLAYBPM:99.0;
#BGCHANGES:;
#NOTEDATA:;
#STEPSTYPE:ds3ddx-single;
#DESCRIPTION:Pretty;
#DIFFICULTY:Easy;
#METER:5;
#RADARVALUES:;
#BPMS:0.000=99.060;
#STOPS:0.000=0.000;
#DELAYS:;
#NOTES:
00000000
00000000
00000000
00000000
,
00000000
00000000
00000000
00000000
,
00000000
00000000
00000000
00000100
,
00000010
00000010
00010000
01000000
,
00000010
00000100
00000000
00100000
,
00100000
00000100
00000001
10000000
,
00000001
10000000
00000000
00000100
,
00100000
00100000
00000010
01000000
,
00000100
00100000
00100100
00000000
,
00000000
10000000
00000001
10000000
,
00000001
00110000
00000100
01000000
,
00000000
00000010
00000000
00100000
,
10000011
00000000
11000001
00000000
,
10000011
00000000
11000001
00000000
,
10000011
10100000
00000101
00100000
,
00000000
01000010
00000000
01000000
,
00000010
01000000
00000010
00110000
,
00010100
01000000
00000000
00000100
,
00100000
00000101
10100000
01000000
,
00000010
10000100
01000000
00000010
,
01000000
01000010
00000000
10100000
,
00000101
01000000
00000000
01000000
,
01000000
00000011
10000100
00000000
,
00000000
01000000
01000000
00000100
,
00000100
01000001
10000100
01000001
,
00000000
00000101
10100000
00100100
,
11000011
00100000
00100000
00000100
,
01000000
01000000
01000000
00000000
00000010
00000000
01000000
00000000
,
01000000
01000010
00100000
00000100
,
00000010
10100000
00000000
00000101
,
00000000
00100000
01000000
00000100
,
00000010
00100000
00000101
00000100
,
10100000
00100000
00000100
01000000
,
01000000
00000101
10100000
00000010
,
01000000
01000010
00000000
00000000
,
00100000
00000101
01010000
00000000
;
#NOTEDATA:;
#STEPSTYPE:ds3ddx-single;
#DESCRIPTION:Power;
#DIFFICULTY:Medium;
#METER:4;
#RADARVALUES:;
#BPMS:0.000=99.060;
#STOPS:0.000=0.000;
#DELAYS:;
#NOTES:
00000000
00000000
00000000
00000000
,
00000000
00000000
00000000
00000000
,
00000000
00000000
00000000
00000100
,
00000010
00000000
00000010
00000000
10110000
00000000
01000000
00000010
,
01000000
00000000
00010100
00000001
00000000
00000000
10100000
00000000
,
00100001
00000100
00000001
10000000
,
00000001
10000000
00000000
00000100
,
00100000
00000000
00100000
00000000
00000010
00000010
01000000
01000000
,
00000100
00100000
00000100
00000000
00100100
00000000
00000000
00000000
,
00000000
11000000
00000011
11000000
,
00000011
00110000
00000100
01000000
,
00000010
00000000
01000000
00000100
,
10000011
00100000
11000001
00000100
,
10000011
00100000
11000001
00000100
,
10000011
10100000
00000101
00100000
,
00000000
01000010
00000000
00010000
,
01000010
01000001
10000010
00110000
,
00010100
00110000
01000000
00000010
,
10100000
01000000
00000101
00000010
10100000
00000000
01000000
00000000
,
00000010
10000100
01000000
00000010
,
01000000
01000010
00000000
11100000
,
00000011
00010000
00000000
01000000
00000010
00000000
01000000
00000000
,
00000000
00000011
10000100
00000000
,
00000000
01000000
01000000
00000100
,
00000100
00100000
10000010
00000000
00100001
00000000
10000010
00000000
,
00000000
11100000
00000011
00110100
,
11000011
00000000
00100000
00000100
00100000
00000000
00000100
00000000
,
01000001
01000001
01000001
00010000
00000010
00000000
01000000
01000000
,
01000000
00000111
00100000
00000100
,
00000010
10100000
00000101
10100000
,
01000010
00000100
00000010
00100000
,
01000000
00000100
01000000
10100000
,
01000000
00100000
00000111
00100000
,
00000100
10000010
01000001
00000100
,
00100000
00100100
00000000
00000000
,
00100000
00010101
00011010
00000000
;
#NOTEDATA:;
#STEPSTYPE:ds3ddx-double;
#DESCRIPTION:Dual;
#DIFFICULTY:Medium;
#METER:4;
#RADARVALUES:;
#BPMS:0.000=99.060;
#STOPS:0.000=0.000;
#DELAYS:;
#NOTES:
0000000000000000
0000000000000000
0000000000000000
0000000000000000
,
0000000000000000
0000000000000000
0000000000000000
0000000000000000
,
0000000000000000
0000000000000000
0000000000000000
0000000000000100
,
0000000000000010
0000000000000000
0000000000000010
0000000000000000
0000000000110000
0000000000000000
0000001000000000
0000000001000000
,
0000001000000000
0000010000000000
0000000000000000
1010000000000000
,
0010000100000000
0000001000000000
1000000000000000
0000000100000000
,
1000000000000000
0000000100000000
0000000000000000
0000000000100000
,
0000000000000100
0000000000000000
0000000000000100
0000000000000000
0000000001000000
0000000001000000
0000000000000010
0000000000000010
,
0000000000100000
0000010000000000
0000000000100000
0000000000000000
0000010000100000
0000000000000000
0000000000000000
0000000000000000
,
0000000000000000
1100000000000000
0000001100000000
1100000000000000
,
0000001100000000
0000010100000000
0000001000000000
0010000000000000
,
0100000000000000
0000000000000000
0100000000000000
0000010000000000
,
1000001100000000
0010000000000000
1100000100000000
0000010000000000
,
1000001100000000
0010000000000000
1100000100000000
0000010000000000
,
1000001100000000
0001010000000000
0001101000000000
0000000000100000
,
0000000000000000
0000000000000000
0000000001100000
0000000000000000
0000000000000000
0000000000000000
0000000000100000
0000000000001000
,
0000000001100000
0000000000000010
0000000001000000
0000000000110000
,
0000000000010100
0000000000110000
0000000000000010
0000000001000000
,
0000010000000000
0000001000000000
0000000000100000
0000000001000000
0000010000000000
0000000000000000
0100000000000000
0000000000000000
,
0000001000000000
1000010000000000
0000001000000000
0000000001000000
,
0000001000000000
0000001001000000
0000000000000000
0000000001110000
,
0000000000000011
0000000000010000
0000000000000000
0000000001000000
0000000000000010
0000000000000000
0000000001000000
0000000000000000
,
0000000000000000
0000010000000000
1000001000000000
0000000000000000
,
0000000000000000
0100000000000000
0100000000000000
0000010000000000
,
0000010000000000
0010000000000000
1000001000000000
0000000000000000
0010000100000000
0000000000000000
1000001000000000
0000000000000000
,
0000000000000000
0000011000000000
0000001001000000
0000010000100000
,
0000001001000000
0000000000000000
0000000000100000
0000000001000000
0000000000100000
0000000000000000
0000000000000100
0000000000000000
,
0000000001000001
0000000001000001
0000000001000001
0000000000010000
0000000000000010
0000000000000000
0000000001000000
0000000001000000
,
0000000001000000
0000000011100000
0000010000000000
0010000000000000
,
0100000000000000
0000010100000000
1010000000000000
0000010100000000
,
0100001000000000
0000010000000000
0000001000000000
0000000000100000
,
0000000001000000
0000000000000100
0000000001000000
0000000000000101
,
0000000000000010
0000000000100000
0000000011100000
0000000000100000
,
0000010000000000
0000000001000000
0000001000000000
0000010000100000
,
0000001000000000
0100001000000000
0000000000000000
0000000000000000
,
0000000000100000
0000000000010101
0000000000011010
0000000000000000
;
