#TITLE:快乐崇拜;
#SUBTITLE:Adoration to Happiness;
#ARTIST:潘瑋柏 feat. 张韶涵 (Will Pan feat. Anglea Chang);
#TITLETRANSLIT:kuàilè chóngbài;
#SUBTITLETRANSLIT:;
#ARTISTTRANSLIT:Pānwěibǎi feat. Zhāngsháohán;
#CREDIT:locuuraa [from 45.mp];
#BANNER:Adoration to Happiness.png;
#BACKGROUND:Adoration to Happiness.png;
#LYRICSPATH:;
#CDTITLE:../CDTitles/3DDX.png;
#MUSIC:Adoration to Happiness.mp3;
#OFFSET:0.142;
#SAMPLESTART:7.000;
#SAMPLELENGTH:10.000;
#DISPLAYBPM:130.0;
#BGCHANGES:;
#NOTEDATA:;
#STEPSTYPE:ds3ddx-single;
#DESCRIPTION:Pretty;
#DIFFICULTY:Easy;
#METER:7;
#RADARVALUES:;
#BPMS:0.000=129.870;
#STOPS:0.000=0.000;
#DELAYS:;
#NOTES:
00000000
00000000
00000000
00000000
,
00000000
00000000
00000000
00000000
,
00000000
00000000
00000000
00000000
,
00000000
00000000
00000000
00000000
,
00000000
00000000
00000000
00000000
,
00000000
00000000
00000000
00000000
,
00000000
00000100
00000010
01000000
,
01000000
00000101
10100000
00000010
,
00000010
00100000
00000010
00000100
,
00000010
00000000
11000000
00000000
00000011
00000000
00100000
00000100
,
00100000
00000100
01000000
00100000
,
01000000
00000101
10100000
00000010
,
01000000
01000010
00000000
00000000
,
00000000
01000010
00000000
00000000
,
00000000
00000100
00100000
00000011
,
11000000
00000000
00000100
00000000
00100000
00000000
00000100
00100000
,
00000100
01000000
00000010
10100000
,
00000101
00000000
01000000
00000000
00000010
00000000
01000000
00000010
,
01000000
00010100
11000000
00000011
,
00110000
00000000
00000010
00000000
01000000
00000000
00000010
00000100
,
00000010
01000000
00000000
00000010
,
00000000
00010100
00000000
10100000
,
00000000
00000010
01000000
00000010
,
00000000
00100100
00100100
00100100
,
00000000
00100000
00000100
00100000
,
00000000
01000010
01000010
01000010
,
00000000
01000000
00000010
01000000
,
00000000
00100100
00100100
00100100
,
00000000
00000100
00100000
00000100
,
00000000
01000010
01000010
01000010
,
01000010
00110100
00000000
00000000
,
00000000
11000000
00000000
00000011
,
00000000
10100000
00000000
00000101
,
00000000
00100100
00000000
00000000
,
00000000
00000100
00100000
00000010
,
00000010
00100000
00000100
01000000
,
01000000
00000010
01000000
00000100
,
00000100
11000000
00000000
00000011
,
00000000
01000000
01000000
00000010
,
00000010
00100000
00100000
00000100
,
00000100
00100000
00000010
01000000
,
01000000
00000000
00000010
01000000
00000010
00000000
00100000
00000100
,
00100000
00000100
00100000
00000100
,
00100000
00000011
11000000
00000011
,
11000000
00000010
01000000
00000010
,
01000000
00000101
10100000
00000101
,
10100000
00000100
00100000
00000100
,
00100000
00000011
11000000
00000011
,
11000000
00000010
01000000
00000010
,
01000000
00000000
00000010
00000100
00000010
00000000
01000000
00100000
,
01000000
00000111
00000000
00000000
;
#NOTEDATA:;
#STEPSTYPE:ds3ddx-single;
#DESCRIPTION:Power;
#DIFFICULTY:Medium;
#METER:6;
#RADARVALUES:;
#BPMS:0.000=129.870;
#STOPS:0.000=0.000;
#DELAYS:;
#NOTES:
00000000
00000000
00000000
00000000
,
00000000
00000000
00000000
00000000
,
00000000
00000000
00000000
00000000
,
00000000
00000000
00000000
00000000
,
00000000
00000000
00000000
00000000
,
00000000
00000000
00000000
00000000
,
00000000
00000000
00000100
00100000
00000010
00000010
01000000
00000010
,
01000000
00000000
00000101
00000000
10100000
00000000
00000010
01000000
,
00000010
00000000
00100000
01000000
00000010
00100000
00000100
01000000
,
00000010
00000000
01010000
00000000
00010010
00000000
00100000
00000100
,
00100000
00000000
00000100
00000010
01000000
00000100
00100000
00000010
,
01000000
00000000
00000101
00000000
10100000
00000000
00000010
01000000
,
00000010
00110100
00000000
01011010
,
00000000
00110100
00000000
00000000
,
00000000
00100010
01000100
00010010
,
01010000
00000000
00100000
00000010
00000100
00000010
00100000
00000100
,
00100000
01000100
00100010
01010000
,
00010010
00000000
00000100
01000000
00100000
01000000
00000100
00100000
,
00000100
00000000
00100000
00010000
00000100
10000000
01000000
00000001
,
00000010
10000000
01010000
00000000
00010010
00000000
01000000
00000100
,
00100000
01000000
00000100
00000000
00100000
00000000
00000010
00000000
,
01000000
00010100
00000000
10100000
,
00000000
00000000
00100000
00000100
01000000
00000010
00000100
00000010
,
01000000
01000000
00010100
01000000
00010100
01000000
00000101
00100000
,
00000101
01000000
00000100
00100000
00000010
01000000
00100000
01000000
,
00000010
00000010
00110000
00000010
00110000
00000010
10100000
00000100
,
10100000
00000010
00100000
00000100
01000000
00000010
00000100
00000010
,
01000000
00000010
01000010
00000000
01100000
00000000
00100100
00000000
,
00000110
00000000
00000100
00000010
01000000
00000000
00000100
00000010
,
01000000
01000010
00000110
00100100
,
01100000
10000011
00000000
11000001
,
00000000
00000000
00100000
00000100
01000000
00000010
01000000
00000010
,
00100000
00000100
10100001
00000000
00000000
00000000
10000101
00000000
,
00000000
00100100
00000000
00000000
,
00000000
00000000
00000000
00000000
00000100
00000000
00000000
00000000
00100000
00000000
00000000
00000000
00000010
01000000
00000100
01000000
,
00000010
00000000
00000000
00000000
00100000
00000000
00000000
00000000
00000100
00000000
00000000
00000000
01000000
00000010
00100000
00000010
,
01000000
00000000
00000000
00000000
00000010
00000000
00000000
00000000
01000000
00000000
00000000
00000000
00000100
00100000
00000010
00100000
,
00000100
11000000
00000000
00000011
,
00000000
00000000
11000000
00000000
00000000
00000010
00000000
00000010
,
00110000
00000000
00000100
00000000
00000100
11000000
00000000
00000000
,
00000000
00000000
00100000
00000000
00100000
00000011
00000000
00000000
,
00000000
00000000
00000000
00000000
00000100
00100000
00000100
00000000
01000000
00000010
01000000
00000000
10000011
00000000
00000000
00000000
,
00000000
00000000
00100000
01000000
00000010
00000000
00000100
00000010
,
01000000
00000000
00000100
10000000
00100000
00000001
00000100
10000000
,
00100000
00000001
00000100
00000010
01000000
00000000
00100000
01000000
,
00000010
00000000
01000000
00000001
00000010
10000000
01000000
00000001
,
00000010
10000000
01000000
00000010
00000100
00000000
00000100
00000010
,
01000000
00000000
00000100
10000000
00100000
00000001
00000100
10000000
,
00100000
00000001
00000010
01000000
00100000
00000000
00100000
01000000
,
00000010
01000010
01100000
00100100
,
00000110
01100110
00000000
00000000
;
#NOTEDATA:;
#STEPSTYPE:ds3ddx-double;
#DESCRIPTION:Dual;
#DIFFICULTY:Medium;
#METER:6;
#RADARVALUES:;
#BPMS:0.000=129.870;
#STOPS:0.000=0.000;
#DELAYS:;
#NOTES:
0000000000000000
0000000000000000
0000000000000000
0000000000000000
,
0000000000000000
0000000000000000
0000000000000000
0000000000000000
,
0000000000000000
0000000000000000
0000000000000000
0000000000000000
,
0000000000000000
0000000000000000
0000000000000000
0000000000000000
,
0000000000000000
0000000000000000
0000000000000000
0000000000000000
,
0000000000000000
0000000000000000
0000000000000000
0000000000000000
,
0000000000000000
0000000000000000
0000010000000000
0010000000000000
0000001000000000
0000001000000000
0000000001000000
0000000000000010
,
0000000001000000
0000000000000000
0000000000000101
0000000000000000
0000000010100000
0000000000000000
0000000000000010
0000000001000000
,
0000000000000010
0000000000000000
0000000000100000
0000000001000000
0000000000000010
0000000000100000
0000000000000100
0000000001000000
,
0000000000100000
0000000000000000
0000001000010000
0000000000000000
0000001000010000
0000000000000000
0000000001000000
0000010000000000
,
0000001000000000
0000000000000000
0000010000000000
0000000000100000
0000000001000000
0000001000000000
0010000000000000
0000001000000000
,
0100000000000000
0000000000000000
0000010100000000
0000000000000000
1010000000000000
0000000000000000
0000001000000000
0100000000000000
,
0000001000000000
1100000000000000
0000000000000000
0000000000000011
,
0000000000000000
0000001001000000
0000000000000000
0000000000000000
,
0000000000000000
0000000001000000
0100010000000000
0001001000000000
,
0101000000000000
0000000000000000
0010000000000000
0000001000000000
0000010000000000
0000000000100000
0000000001000000
0000000000000010
,
0000000001000000
0000001000100000
0010001000000000
0101000000000000
,
0001001000000000
0000000000000000
0000010000000000
0100000000000000
0010000000000000
0100000000000000
0000010000000000
0010000000000000
,
0000010000000000
0000000000000000
0010000000000000
0001000000000000
0000010000000000
1000000000000000
0100000000000000
0000000100000000
,
0000001000000000
1000000000000000
0101000000000000
0000000000000000
0001001000000000
0000000000000000
0100000000000000
0000010000000000
,
0000000001000000
0000000000000010
0000000000100000
0000000000000000
0000000000000100
0000000000000000
0000000001000000
0000000000000000
,
0000000000000010
0000000000110000
0000000000000000
1010000000000000
,
0000000000000000
0000000000000000
0010000000000000
0000010000000000
0100000000000000
0000001000000000
0000010000000000
0000001000000000
,
0100000000000000
0100000000000000
0001010000000000
0100000000000000
0001010000000000
0100000000000000
0000010100000000
0010000000000000
,
0000010100000000
0100000000000000
0000010000000000
0010000000000000
0000001000000000
0000010000000000
0000000000100000
0000001000000000
,
0000000001000000
0000000001000000
0001010000000000
0000000001000000
0001010000000000
0000000001000000
0000001000000000
0000000000110000
,
0000001000000000
0000000000110000
0000000001000000
0000000000000010
0000000000100000
0000000000000100
0000000000000010
0000000000000010
,
0000000001000000
0000000000000010
0000000001000010
0000000000000000
0000000001100000
0000000000000000
0000010000100000
0000000000000000
,
0000011000000000
0000000000000000
0000010000000000
0000001000000000
0100000000000000
0000000000000000
0010000000000000
0100000000000000
,
0000001000000000
0100001000000000
0000011000000000
0000010000100000
,
0000000001100000
0000000010000011
0000000000000000
0000000011000001
,
0000000000000000
0000000000000000
0000000000100000
0000000000000100
0000000001000000
0000000000000010
0000001000000000
0000000001000000
,
0000010000000000
0000000000100000
0001010000010000
0000000000000000
0000000000000000
0000000000000000
0001000000110000
0000000000000000
,
0000000000000000
0000001001000000
0000000000000000
0000000000000000
,
0000000000000000
0000000000000000
0000000000000000
0000000000000000
0000010000000000
0000000000000000
0000000000000000
0000000000000000
0010000000000000
0000000000000000
0000000000000000
0000000000000000
0000001000000000
0100000000000000
0000010000000000
0100000000000000
,
0000001000000000
0000000000000000
0000000000000000
0000000000000000
0000010000000000
0000000000000000
0000000000000000
0000000000000000
0000000000100000
0000000000000000
0000000000000000
0000000000000000
0000001000000000
0000000001000000
0000010000000000
0000000001000000
,
0000001000000000
0000000000000000
0000000000000000
0000000000000000
0000000001000000
0000000000000000
0000000000000000
0000000000000000
0000000000000010
0000000000000000
0000000000000000
0000000000000000
0000000000100000
0000000000000100
0000000001000000
0000000000000100
,
0000000000100000
0000000000000011
0000000000000000
0000000110000000
,
0000001000000000
0000000000000000
1100000000000000
0000000000000000
0000000000000000
0000001000000000
0000000000000000
0000001000000000
,
0011000000000000
0000000000000000
0000010000000000
0000000000000000
0000010000000000
1100000000000000
0000000000000000
0000000000000000
,
0000000000000000
0000000000000000
0010000000000000
0000000000000000
0010000000000000
0000001100000000
0000000000000000
0000000000000000
,
0000000000000000
0000000000000000
0000000000000000
0000000000000000
0000010000000000
0010000000000000
0000010000000000
0000000000000000
0100000000000000
0000001000000000
0100000000000000
0000000000000000
1000001100000000
0000000000000000
0000000000000000
0000000000000000
,
0000000000000000
0000000000000000
0010000000000000
0100000000000000
0000001000000000
0000000000000000
0000010000000000
0000001000000000
,
0100000000000000
0000000000000000
0000010000000000
1000000000000000
0010000000000000
0000000100000000
0000000000100000
0001000000000000
,
0000010000000000
0000000000010000
0000000000000100
0000000000100000
0000000000000010
0000000000000000
0000000000100000
0000000000000100
,
0000000001000000
0000000000000000
0000000001000000
0000000000000001
0000000000000010
0000000010000000
0000001000000000
0000000000010000
,
0000000001000000
0001000000000000
0100000000000000
0000001000000000
0000010000000000
0000000000000000
0000010000000000
0000001000000000
,
0100000000000000
0000000000000000
0000010000000000
1000000000000000
0010000000000000
0000000100000000
0000010000000000
1000000000000000
,
0010000000000000
0000000100000000
0000001000000000
0100000000000000
0010000000000000
0000000000000000
0010000000000000
0100000000000000
,
0000001000000000
0100001000000000
0000001001000000
0000000001000010
,
0000001001000000
0001110000111000
0000000000000000
0000000000000000
;
