#TITLE:A-YO;
#SUBTITLE:;
#ARTIST:지누션 (Jinusean);
#TITLETRANSLIT:;
#SUBTITLETRANSLIT:;
#ARTISTTRANSLIT:;
#CREDIT:locuuraa [from 60.mp];
#BANNER:A-YO.png;
#BACKGROUND:A-YO.png;
#LYRICSPATH:;
#CDTITLE:../CDTitles/3DDX.png;
#MUSIC:A-YO.mp3;
#OFFSET:-0.323;
#SAMPLESTART:18.000;
#SAMPLELENGTH:10.000;
#DISPLAYBPM:93.0;
#BGCHANGES:;
#NOTEDATA:;
#STEPSTYPE:ds3ddx-single;
#DESCRIPTION:Pretty;
#DIFFICULTY:Easy;
#METER:2;
#RADARVALUES:;
#BPMS:0.000=92.950;
#STOPS:0.000=0.000;
#DELAYS:;
#NOTES:
00000000
00000000
00000000
00000000
,
00000000
00000000
00000000
00000000
,
00000000
00000000
00000000
10000001
,
00100000
00000000
00000100
00000000
,
01000000
00000010
01000000
00000000
,
01000000
00000000
00000010
00000000
,
01000000
00000000
01000000
00000000
,
00000100
00100000
00000100
00000000
,
01000000
00000000
00000010
00000000
,
00000010
00000000
01000000
00000000
,
01000000
00000000
00000010
00000000
,
00100000
00000100
00100000
00000000
,
00000010
00000000
01000000
00000000
,
00000100
00000100
00100000
00100000
,
00000010
00000000
00000000
00000000
,
00000100
00100000
00000100
00000000
,
00100000
00000100
00100000
00000000
,
00000010
00000000
00000010
00000000
,
00100000
00000100
00100000
00000000
,
00000010
01000000
01000010
00000000
,
01000000
00000010
01000010
00000000
,
00100000
00000000
00000100
00000000
,
01000000
01000000
00000010
00000000
,
01000000
00000000
00000010
00000000
,
01000000
00000010
01000000
00000000
,
00010000
00000000
00000000
00000000
,
00000101
00000000
10100000
00000000
,
00000100
00000100
00100000
00100000
,
00000010
00000000
01000000
00000000
,
00000100
00000100
00100000
00100000
,
00000011
00000000
11000000
00000000
,
00000010
00000000
01000000
00000000
,
00000100
00000100
00100000
00100000
,
00000010
00000000
00000010
00000000
,
01000000
00000010
01000000
00000000
,
00000100
00000000
00100000
00000000
,
00000100
00100000
10000101
00000000
;
#NOTEDATA:;
#STEPSTYPE:ds3ddx-single;
#DESCRIPTION:Power;
#DIFFICULTY:Medium;
#METER:3;
#RADARVALUES:;
#BPMS:0.000=92.950;
#STOPS:0.000=0.000;
#DELAYS:;
#NOTES:
00000000
00000000
00000000
00000000
,
00000000
00000000
00000000
00000000
,
00000000
00000000
00000000
01000010
,
10110000
00100000
00010101
00000100
,
01000000
00000010
01000000
00000000
00000010
01000000
00000010
11000000
,
01000000
01000000
00000100
00000100
00000100
00000100
00100000
00000010
,
00000010
00100000
00010010
01000000
00000010
00000000
01000000
00000000
,
00010100
00000000
11000000
00000000
00010100
00000000
01000000
00000010
,
00110000
00000000
00000011
00000000
00100000
00000000
00000100
01000000
,
00000010
00100000
00000010
00000010
00100000
00000100
01000000
01000000
,
00000010
00000001
01000000
00000010
00100000
00000010
00010000
01000000
,
00000010
00000000
01000000
00000000
00000100
00000010
00100000
00100000
,
00000100
00000001
00000100
00000000
01000000
00000010
00010000
00010000
,
00100000
00000000
00000010
01000000
00000011
00000000
00100000
00000100
,
01000000
00000000
00000000
00000000
,
00000011
00110000
00000010
00100000
,
00010100
11000000
00000100
01000000
,
00000011
00000000
11000000
00000000
00000010
01000000
00000010
01000010
,
00100000
00000000
00100000
00000000
00000100
00100000
00100100
00000000
,
00000010
00000000
01000000
00000000
00010000
00010000
00000000
00000000
,
00100000
00000000
00000100
00000000
01000000
00010000
01000000
00000000
,
00010101
00000100
10110000
00100000
,
00000010
01000000
00000010
00000000
01000000
00000010
01000000
00000011
,
00000010
00000010
00100000
00100000
00100000
00100000
00000100
01000000
,
01000000
00000100
01010000
00000010
01000000
00000000
00000010
00000000
,
01000000
00000000
00000000
00000000
,
00000100
00100000
00000100
00100000
,
00000100
00000100
00100000
00100000
,
00000010
01000000
00000010
01000000
,
00000010
00100000
00000010
00000100
01000000
00000100
01000000
00010000
,
00000010
01000000
00000010
01000000
,
00000100
01000000
00000010
00100000
00000010
01000000
01000010
00000000
,
00000100
00000100
01000000
00000001
01000000
00000010
01000000
00000000
,
00000100
10000001
00000100
00000000
00100000
10000001
00100000
00000000
,
00000011
00000000
00000010
00000000
00000011
00000000
00000010
00100000
,
00100000
00100000
00000010
00000010
00000010
00100000
00000100
01000000
,
10000000
00000100
00100000
00000010
01000010
00000000
00000000
00000000
;
#NOTEDATA:;
#STEPSTYPE:ds3ddx-double;
#DESCRIPTION:Dual;
#DIFFICULTY:Medium;
#METER:3;
#RADARVALUES:;
#BPMS:0.000=92.950;
#STOPS:0.000=0.000;
#DELAYS:;
#NOTES:
0000000000000000
0000000000000000
0000000000000000
0000000000000000
,
0000000000000000
0000000000000000
0000000000000000
0000000000000000
,
0000000000000000
0000000000000000
0000000000000000
0000000001000010
,
0000000000010101
0000000000000100
0000000010110000
0000000000100000
,
0000000000000010
0000000001000000
0000000000000010
0000000000000000
0000000001000000
0000000000000010
0000000001000000
0000000000000000
,
0000000000100000
0000000000100000
0000000000100000
0000000000000000
0000010000000000
0000000000100000
0000010000000000
0000000000000000
,
0000001000000000
0000000000000000
0000001000000000
1000000000000000
0000001000000000
0000000000000000
0100000000000000
0000000000000000
,
0000010000000000
0000000000000000
0010000000000000
0000000000000000
0000010000000000
0000000000000000
0100000000000000
0100000000000000
,
0000001000000000
0000000000000000
0100000000000000
0000000000000000
0000001000000000
0000000000000000
0100000000000000
0100000000000000
,
0000010000000000
0000001000000000
0000000001000000
0000000000100000
0000000000000100
0000000000100000
0000000000000001
0000000000000001
,
0000000001000000
0000000010000000
0000000000000010
0000000001000000
0000000000000100
0000000001000000
0000000000010000
0000000000000010
,
0000000001000000
0000000000000000
0000000001000000
0000000000000000
0000000000000100
0000000000000010
0000000000100000
0000000000100000
,
0000000000000100
0000000000000001
0000000000000100
0000000000000000
0000000001000000
0000000000000010
0000000000010000
0000000000010000
,
0000000000100000
0000000000000000
0000000001000000
0000001000000000
0000010000000000
0000000000000000
0000001000000000
0000000001000000
,
0000001000000000
0000000000000000
0000000000000000
0000000000000000
,
1100000000000000
0001010000000000
0100000000000000
0000010000000000
,
0011000000000000
0000001100000000
0010000000000000
0000001000000000
,
1100000000000000
0000000000000000
0000001100000000
0000000000000000
0100000000000000
0000001000000000
0100000000000000
0100001000000000
,
0000010000000000
0000000000000000
0000010000000000
0000000000000000
0000001000000000
0000000001000000
0000001001000000
0000000000000000
,
0000000000100000
0000000000000000
0000010000000000
0000000000000000
0000000000010000
0001000000000000
0000000000000000
0000000000000000
,
0000010000000000
0000000000000000
0000000000100000
0000000000000000
0000000001000000
0000000000010000
0000000001000000
0000000000000000
,
0000000000010101
0000000000000100
0000000010110000
0000000000100000
,
0000000000000010
0000000001000000
0000000000000010
0000000000000000
0000000001000000
0000000000000010
0000000001000000
0000000000000000
,
0000000000100000
0000000000100000
0000000000100000
0000000000000000
0000010000000000
0000000000100000
0000010000000000
0000000000000000
,
0000001000000000
0000000000000000
0000001000000000
1000000000000000
0000001000000000
0000000000000000
0000000000000000
0000000000000000
,
0000000000001000
0000000000000000
0000000000000000
0000000000000000
,
0000000000000100
0000000000100000
0000000000000100
0000000000100000
,
0000000000000100
0000000000000100
0000000000100000
0000000000100000
,
0000000001000000
0000001000000000
0000000001000000
0000001000000000
,
0000000001000000
0000010000000000
0000000001000000
0000001000000000
0000010000000000
0100000000000000
0000010000000000
0000000100000000
,
0100000000000000
0000001000000000
0100000000000000
0000001000000000
,
0010000000000000
0000001000000000
0100000000000000
0000010000000000
0000001000000000
0000000001000000
0000001001000000
0000000000000000
,
0000000000100000
0000000000100000
0000000001000000
0000000000000001
0000000001000000
0000000000000010
0000000001000010
0000000000000000
,
0000000000000100
0000000010000001
0000000000000100
0000000000000000
0000000000100000
0000000010000001
0000000000100000
0000000000000000
,
0000000000000011
0000000000000010
0000000000000011
0000000000000010
,
0000000000100000
0000000000100000
0000000001000000
0000000001000000
0000001000000000
0000000001000000
0000001000000000
0000000000000000
,
0000010000000000
1000000000000000
0100000000000000
0000001000000000
0100001000000000
0000000000000000
0000000000000000
0000000000000000
;
