#TITLE:馬德里不思議;
#SUBTITLE:A wonderful in Madrid;
#ARTIST:蔡依林 (Jolin Tsai);
#TITLETRANSLIT:mǎdélǐ bùsīyì;
#SUBTITLETRANSLIT:;
#ARTISTTRANSLIT:Càiyīlín;
#CREDIT:locuuraa [from 03.mp];
#BANNER:A wonderful in Madrid.png;
#BACKGROUND:A wonderful in Madrid.png;
#LYRICSPATH:;
#CDTITLE:../CDTitles/3DDX.png;
#MUSIC:A wonderful in Madrid.mp3;
#OFFSET:0.254;
#SAMPLESTART:23.000;
#SAMPLELENGTH:10.000;
#DISPLAYBPM:118.0;
#BGCHANGES:;
#NOTEDATA:;
#STEPSTYPE:ds3ddx-single;
#DESCRIPTION:Pretty;
#DIFFICULTY:Easy;
#METER:3;
#RADARVALUES:;
#BPMS:0.000=118.000;
#STOPS:0.000=0.000;
#DELAYS:;
#NOTES:
00000000
00000000
00000000
00000000
,
00000000
00000000
00000000
00000000
,
00000000
00000000
00000000
00000000
,
00000000
01000000
00000010
00000010
,
00000000
00000100
00000100
01000000
,
01000000
00000010
00000010
00000001
,
10000000
01000000
00000000
00000010
,
00000000
01000010
00000000
00000000
,
00000000
00000001
10000000
00000001
,
00000000
01000000
00000100
00000010
,
00000000
10000000
00000000
00000001
,
00000000
01000010
00000000
00000000
,
00000000
01000000
01000000
10000000
,
00000000
00000010
00000010
00000001
,
00000000
10000001
00000000
00010000
,
00000000
10000001
00000000
00010000
,
00000000
00100000
01000000
00000100
,
00000010
01000000
00000010
01000000
,
00000000
00010000
00000000
10000000
,
00000000
00000010
01000000
10000000
,
00000000
00000000
00000000
00000000
,
00000000
11000000
00000000
00000011
,
00000000
00010000
00000001
00000001
,
00000000
00100000
00000000
00000100
,
00000000
00000010
00000010
01000000
,
00000010
11000000
00000000
00000011
,
00000000
00010000
00000001
00000001
,
00000000
00100000
00000000
00000100
,
00000000
10000000
00000000
00000001
,
00000000
01000010
00000000
01000000
,
00000010
01000010
00000000
00000000
,
00000000
00000000
01000000
00000000
00010000
10000000
00000000
00000000
,
00000000
00000001
00000000
00000010
,
01000000
00000000
00010000
10000000
00000000
00000000
00000000
00000000
,
00000000
00000010
00000000
01000000
,
00000000
00000010
00000010
01000000
,
00000010
10100000
00000000
00000101
,
00000000
01000000
01000000
01000000
,
00000000
10100000
00000000
00000101
,
00000000
01000000
00000000
00000010
,
01000000
00000001
10000000
00000001
,
10000000
00000100
00000000
00100000
,
00000000
00000011
00000000
11000000
,
00000000
00000000
00010000
10000000
00000000
00000000
00000000
00000000
,
00000000
01000000
00100000
01000000
,
00000000
00010000
00000000
00000100
,
00100000
00000100
00000000
01000000
,
00000010
01000010
00000000
00000000
;
#NOTEDATA:;
#STEPSTYPE:ds3ddx-single;
#DESCRIPTION:Power;
#DIFFICULTY:Medium;
#METER:3;
#RADARVALUES:;
#BPMS:0.000=118.000;
#STOPS:0.000=0.000;
#DELAYS:;
#NOTES:
00000000
00000000
00000000
00000000
,
00000000
00000000
00000000
00000000
,
00000000
00000000
00000000
00000000
,
00000000
00000000
00000010
00000100
00100000
01000000
00000010
00000000
,
00000000
00000100
00000100
01000000
,
01000000
00000000
01000010
00000000
01000000
00000000
00010000
10000000
,
00000000
00100000
00100000
00000010
,
00000010
01000010
00000000
00000000
,
00000000
00000001
10000000
00000001
,
10000000
11000000
00000100
00000010
,
01000000
10000000
10000000
00000100
,
00000100
00100100
00000000
00000000
,
00000000
01000000
01000000
10000000
,
00000001
00000010
00000010
00000001
,
10000000
00000000
00010000
00000000
10000001
00000000
00000001
00010000
,
10000000
10000000
00000001
10000000
,
00000001
00100000
01000000
00000100
,
00000010
01000000
00100000
00100000
,
00000100
00000000
00010000
00000000
00010000
00000000
10000000
00010000
,
00000001
00000000
00000010
00000000
01000000
00000000
00010000
10000000
,
00010000
00000001
00000010
00000010
01000000
01000000
00000010
00000000
,
00000000
11000000
01000010
00000011
,
01000010
00000000
00010011
00000000
00100001
00000001
00000101
00000000
,
00000000
00100001
00000000
00000100
,
00000000
00000000
00010000
00000000
10000001
00000000
00000100
01000000
,
00000010
11000000
01000010
00000011
,
01000010
00000000
00010011
00000000
00100001
00000001
00000101
00000000
,
00000000
00100001
00000000
00000100
,
00000000
10000001
00000000
00010000
,
00000000
10000001
00001000
00001000
,
10000001
00110000
00000000
00000000
,
00000000
00000000
01000000
00000000
00010000
10000000
00011000
00000000
,
00000000
10000000
00000000
00000010
,
01000000
00000000
00010000
00000001
00011000
00000000
00000000
00000000
,
00000000
00000010
00000000
01000000
,
00000000
00000000
00000100
00000010
00000100
00000000
00000010
01000000
,
00000010
00000000
00010100
00000010
11000000
00000000
00110000
01000000
,
00000011
01000000
01000000
01000000
,
01000000
11000011
00100000
00000100
,
00000010
00000000
00010000
00000000
00000000
00000000
00000100
00100000
,
00000100
00000011
11000000
00000001
,
10000000
00000000
00000010
00000000
01000000
00000000
00000100
00000010
,
00000100
01000000
01000000
01000010
,
01000010
00000000
00000001
00010000
00000000
00000000
00010000
00000000
,
00000000
00001000
00001000
01100000
,
00000000
00010000
00000000
00000100
,
00100000
00000000
01000000
00000000
00000011
00000000
00010000
00000001
,
00010000
01000010
00010000
00000001
00000000
00000000
00000000
00000000
;
#NOTEDATA:;
#STEPSTYPE:ds3ddx-double;
#DESCRIPTION:Dual;
#DIFFICULTY:Medium;
#METER:3;
#RADARVALUES:;
#BPMS:0.000=118.000;
#STOPS:0.000=0.000;
#DELAYS:;
#NOTES:
0000000000000000
0000000000000000
0000000000000000
0000000000000000
,
0000000000000000
0000000000000000
0000000000000000
0000000000000000
,
0000000000000000
0000000000000000
0000000000000000
0000000000000000
,
0000000000000000
0000000000000000
0000000001000000
0000000000100000
0000010000000000
0000001000000000
0000000001000000
0000000000000000
,
0000000000000000
0000000000100000
0000000000100000
0000001000000000
,
0000001000000000
0000001001000000
0000001000000000
0001000000000000
,
1000000000000000
0000010000000000
0000010000000000
0000001000000000
,
0000001000000000
0000001001000000
0000000000000000
0000000000000000
,
0000000000000000
0000000000000001
0000000010000000
0000000000000001
,
0000000010000000
0000000011000000
0000000000000100
0000000000000010
,
0000000001000000
0000000000000001
0000000010000000
0000000000100000
,
0000000000100000
0000010000100000
0000000000000000
0000000000000000
,
0000000000000000
0100000000000000
0100000000000000
1000000000000000
,
0000000100000000
0000001000000000
0000001000000000
0000000100000000
,
1000000000000000
0000000000000000
0001000000000000
0000000000000000
1000000100000000
0000000000000000
0000000100000000
0001000000000000
,
1000000000000000
1000000000000000
0000000100000000
1000000000000000
,
0000000100000000
0000010000000000
0000000001000000
0000000000000010
,
0000000000100000
0000000000000100
0000000000100000
0000000000100000
,
0000000000000100
0000000000000000
0000000000010000
0000000000000000
0000000000010000
0000000000000000
0000000010000000
0000000000010000
,
0000000000000001
0000000000000000
0000000000000010
0000000000000000
0000000001000000
0000000000000000
0000000000010000
0000000010000000
,
0000000000011000
0000000000000000
0000000000100000
0000000000100000
0000001000000000
0000001000000000
0000010000000000
0000000000000000
,
0000000000000000
1100000000000000
0100001000000000
0000001100000000
,
0100001000000000
0000000000000000
0001001100000000
0000000000000000
0010000100000000
0000000100000000
0000010100000000
0000000000000000
,
0000000000000000
0010000100000000
0000000000000000
0000010000000000
,
0000000000000000
0000000000000000
0001000000000000
0000000000000000
1000000100000000
0000000000000000
0000001000000000
0000000001000000
,
0000000000000010
0000000000000011
0000000001000010
0000000011000000
,
0000000001000010
0000000000000000
0000000000010011
0000000000000000
0000000000100001
0000000000000001
0000000000000101
0000000000000000
,
0000000000000000
0000000000100001
0000000000000000
0000000000000100
,
0000000000000000
0000000001000010
0000000000000000
0000000000010000
,
0000000000000000
0000000010000001
0000000000001000
0000000000001000
,
0000000010000001
0000000000000000
0000000010100000
0000000000010000
0000000000000000
0000000000000000
0000000000000000
0000000000000000
,
0000000000000000
0000000000000000
0000000001000000
0000000000000000
0000000000010000
0000000010000000
0000000000011000
0000000000000000
,
0000000000000000
0000000010000000
0000000000000000
0000001000000000
,
0100000000000000
0000000000000000
0001000000000000
0000000100000000
0001100000000000
0000000000000000
0000000000000000
0000000000000000
,
0000000000000000
0000001000000000
0000000000000000
0100000000000000
,
0000000000000000
0000000000000000
0000010000000000
0000001000000000
0000010000000000
0000000000000000
0000001000000000
0100000000000000
,
0000001000000000
0000000000000000
0001010000000000
0000001000000000
1100000000000000
0000000000000000
0011000000000000
0100000000000000
,
0000001100000000
0100000000000000
0100000000000000
0100000000000000
,
0100000000000000
1100001100000000
0000010000000000
0000000001000000
,
0000000000100000
0000000000000000
0000000000010000
0000000000000000
0000000000000000
0000000000000000
0000000001000000
0000000000000010
,
0000000001000000
0000000000000011
0000000011000000
0000000000000001
,
0000000010000000
0000000000000000
0000000000000010
0000000000000000
0000000001000000
0000000000000000
0000000000100000
0000000001000000
,
0000000000100000
0000000001000000
0000001000000000
0000011000000000
,
0100001000000000
0000000000000000
0000000100000000
0001000000000000
0000000000000000
0000000000000000
0001000000000000
0000000000000000
,
0000000000000000
0000100000000000
0000100000000000
0110000000000000
,
0000000000000000
0001000000000000
0000000000000000
0000010000000000
,
0010000000000000
0000000000000000
0100000000000000
0000000000000000
0000001100000000
0000000000000000
0001000000000000
1000000000000000
,
0001000000000000
0100001000000000
0000000100000000
0001000000000000
0000000000000000
0000000000000000
0000000000000000
0000000000000000
;
