#TITLE:Your Love Is Better;
#ARTIST:Newsboys;
#BANNER:Your Love Is Better - Newsboys.PNG;
#BACKGROUND:Your Love Is Better - Newsboys-bg.PNG;
#LYRICSPATH:Your Love Is Better - Newsboys.lrc;
#CDTITLE:.\CDTITLES\DP2NEWS.png;
#MUSIC:Your Love Is Better - Newsboys.mp3;
#OFFSET:-0.742;
#SAMPLESTART:46.8;
#SAMPLELENGTH:12;
#BPMS:0=160;
#BGCHANGES:0=Your Love Is Better - Newsboys.AVI=0.995=1=1=0,999=-=1=0=0=0;

//---------------dance-single - ----------------
#NOTES:
     dance-single:
     :
     Easy:
     3:
     0.190,0.198,0.090,0,0:
0000
0000
0000
0000
,
0000
0000
0000
0000
,
0000
0000
0000
0000
,
1000
0000
0000
0001
0000
0000
1000
0000
,
0000
0001
0000
0000
1000
0000
0001
0000
,
0000
0000
0000
0000
,
0000
0000
0000
0001
,
1000
0000
0000
0000
,
0001
0000
0000
0000
,
1000
0000
0000
0000
,
0001
0000
0010
0000
,
1000
0000
0000
0010
,
0001
0000
0000
0000
,
1000
0000
0000
0000
,
0010
0100
0000
0000
,
1001
0000
0100
0000
,
0010
0000
1000
0000
,
0001
0000
0010
0000
,
1000
0000
0001
0000
,
0010
0000
0100
0000
,
1000
0000
0001
0000
,
1000
0000
0100
0000
,
0010
0000
1000
0000
,
0010
0000
1000
0000
,
0001
0000
0010
0000
,
0001
0000
0100
0000
,
0010
0000
0001
0000
,
1000
0000
0010
0000
,
0001
0000
0100
0000
,
0010
0000
0001
0000
,
1000
0000
0010
0000
,
0011
0000
0100
0000
,
0010
0000
1000
0000
,
0010
0000
1000
0000
,
0001
0000
0010
0000
,
1100
0000
0000
0001
,
0010
0000
0100
0000
,
1000
0000
0010
0000
,
0001
0000
1000
0000
,
0110
0000
0001
0000
,
1000
0000
0010
0000
,
0001
0000
1000
0000
,
0010
0000
0100
0000
,
1010
0000
0100
0000
,
1000
0000
0010
0000
,
0001
0000
0100
0000
,
0010
0000
0001
0000
,
1010
0000
0100
0000
,
0010
0000
0100
0000
,
0001
0000
1000
0000
,
0010
0000
0001
0000
,
1000
0000
0010
0000
,
0001
0000
0100
0000
,
1000
0000
0001
0000
,
0010
0000
0100
0000
,
0001
0000
1000
0000
,
0010
0000
0001
0000
,
1000
0000
0010
0000
,
0001
0000
1000
0000
,
0010
0000
0100
0000
,
0001
0000
0010
0000
,
1000
0000
0001
0000
,
0010
0000
0100
0000
,
1001
0000
0010
0000
,
0001
0000
0100
0000
,
0010
0000
0001
0000
,
1000
0000
0010
0000
,
0101
0000
1000
0000
,
0010
0000
0001
0000
,
1000
0000
0100
0000
,
0001
0000
0010
0000
,
1100
0000
0001
0000
,
0010
0000
0100
0000
,
0001
0000
0010
0000
,
1000
0000
0001
0000
,
0110
0000
1000
0000
,
0001
0000
0010
0000
,
1000
0000
0001
0000
,
0010
0000
0100
0000
,
1010
0000
0100
0000
,
0001
0000
0100
0000
,
1001
0000
0010
0000
,
0001
0000
1000
0000
,
0010
0000
0001
0000
,
1000
0000
0010
0000
,
0001
0000
0100
0000
,
1000
0000
0010
0000
,
0001
0000
1000
0000
,
0010
0000
0100
0000
;

//---------------dance-single - ----------------
#NOTES:
     dance-single:
     :
     Hard:
     9:
     0.540,0.558,0.104,0,0:
0000
0001
0000
0000
1000
0000
0001
0001
,
0001
0001
0001
0001
0001
0001
0001
0001
,
0001
0001
0001
0001
0001
0001
0001
0001
,
0001
0000
0000
1000
0000
0000
0001
0000
,
0000
1000
0000
0000
0001
0000
1000
1000
,
1000
1000
1000
1000
1000
1000
1000
1000
,
1000
1000
1000
1000
1000
1000
0001
1000
,
1000
1000
1000
1000
1000
1000
1000
1000
,
1000
1000
1000
1000
1000
1000
1000
1000
,
0001
0001
0001
0001
0001
0001
0001
0001
,
0001
0001
0001
0001
0001
0001
0010
1000
,
1000
1000
1000
1000
0010
0000
0010
0000
,
0001
0001
0001
0001
0001
0001
0001
0001
,
1000
0000
0010
0100
0000
0010
0100
0000
,
0000
0010
0100
0000
0100
0000
0010
0100
,
1001
0000
0010
1000
0100
1000
0001
1000
,
0010
1000
0100
0001
1000
0000
0010
1000
,
0001
0000
1000
0001
0010
0000
0100
0001
,
1000
0000
0001
1000
0000
0010
0001
1000
,
0010
0000
0100
1000
0010
0000
0100
0001
,
1000
0000
0010
0000
0001
0000
0100
0001
,
1000
0000
0001
1000
0100
0000
0010
1000
,
0010
0000
0100
0001
1000
0000
0001
0100
,
1010
0000
0100
0001
1000
0010
0001
0000
,
0001
0010
1000
0001
0010
0000
1000
0100
,
0001
0000
1000
0001
0100
1000
0010
0000
,
0010
0000
0100
0000
0001
1000
0001
0000
,
1000
0000
1000
0001
0010
0000
0010
1000
,
0001
0000
1001
0000
0100
0000
0100
1000
,
0010
0000
0010
1000
0001
0000
0001
0010
,
1000
0000
1000
0001
0010
0100
1000
0000
,
0011
1000
0100
0001
,
0010
1000
0100
0000
1000
0000
0001
0000
,
0010
1000
0100
0001
1000
0100
0010
1000
,
0001
0010
1000
0000
0010
0000
0001
0000
,
1100
0010
0001
1000
,
0010
0001
0100
0001
,
1000
0000
0100
0001
0010
0100
1000
0010
,
0001
0010
1000
0001
,
0110
1000
0001
0010
,
1000
0100
0010
1000
,
0001
0000
0010
0100
1000
0010
0001
1000
,
0010
0001
1000
0000
0100
0000
0001
0000
,
1010
0001
0100
0001
,
1000
0100
0010
1000
,
0001
0000
0010
1000
0100
0001
1000
0100
,
0010
0001
0100
0000
0001
0000
0100
0000
,
1010
0000
0001
0010
0100
0001
1000
0100
,
0010
1000
0001
0000
0100
0000
0010
1000
,
0001
1000
0100
0001
1000
0010
0100
0001
,
0000
0100
1000
0001
0000
0000
0010
0100
,
1000
0001
0100
1000
0010
0000
1000
0010
,
0001
0000
0010
0000
0100
0000
0001
0010
,
1000
0000
0100
0010
0001
0000
1000
0001
,
0010
0000
1000
0001
0100
0000
1000
0010
,
0100
0001
0010
0001
1000
0010
0100
0000
,
0010
0100
1000
0000
0001
0000
0010
0100
,
1000
0010
0001
0000
0010
0100
1000
0010
,
0001
0000
0010
0000
1000
0000
0100
0001
,
0010
0000
1000
0001
0100
1000
0010
1000
,
0001
0000
1000
0000
0010
0000
0001
0010
,
1000
0001
0100
0010
0001
0010
1000
0000
,
0010
0000
1000
0001
0100
1000
0010
0000
,
1001
0100
0010
1000
,
0001
0010
0100
1000
,
0010
0000
0100
0010
0001
1000
0010
0001
,
1000
0010
0001
0000
0010
0000
1000
0000
,
0101
0010
1000
0001
,
0010
1000
0001
0010
,
1000
0000
0001
0010
0100
0001
1000
0010
,
0001
1000
0100
0010
0000
0000
0001
0000
,
1100
0010
0001
1000
,
0010
0001
0100
0010
,
0001
0000
1000
0001
0010
1000
0100
0001
,
1000
0010
0001
0000
0001
0000
1000
0000
,
0110
0001
1000
0100
,
0001
1000
0010
0100
,
1000
0000
0010
1000
0001
0010
1000
0100
,
0010
1000
0001
0000
0100
0000
0001
0000
,
1010
0001
0100
1000
,
0001
0010
0100
0010
,
1001
0100
0010
1000
,
0001
0010
1000
0001
,
0010
1000
0001
0001
,
1000
0100
0010
1000
,
0001
0010
0100
0001
,
1000
0100
0010
1000
,
0001
0010
1000
0100
,
0010
0000
0000
0000
;

//---------------dance-single - ----------------
#NOTES:
     dance-single:
     :
     Medium:
     5:
     0.356,0.328,0.104,0,0:
0000
1000
0000
0000
0001
0000
1000
0000
,
0000
0000
0000
0000
,
0000
0000
0000
0000
,
1000
0000
0000
0001
0000
0000
1000
0000
,
0000
0001
0000
0000
1000
0000
0001
0000
,
0000
0000
0000
0000
,
0000
0000
0000
0001
,
1000
0000
0000
0000
,
0001
0000
0000
0000
,
1000
0000
0000
0000
,
0001
0000
0010
0000
,
1000
0000
0000
0010
,
0001
0000
0000
0000
,
1000
0000
0010
0100
0000
0010
0100
0000
,
0000
0010
0100
0000
0100
0000
0010
0000
,
1001
0010
0100
0001
,
0010
0100
1000
0010
,
0001
1000
0010
0100
,
1000
0001
1000
0001
,
0010
0100
0010
0100
,
1000
0010
0001
0100
,
1000
0001
0100
0010
,
0010
0100
1000
0001
,
1010
0100
1000
0001
,
0001
1000
0010
0100
,
0001
1000
0100
0010
,
0010
0100
0001
0001
,
1000
1000
0010
0010
,
0001
0001
0100
0100
,
0010
0010
0001
0001
,
1000
1000
0010
1000
,
0011
1000
0100
0001
,
0010
0100
1000
0001
,
0010
0100
1000
0010
,
0001
1000
0010
0001
,
1100
0010
0001
1000
,
0010
0001
0100
0001
,
1000
0100
0010
1000
,
0001
0010
1000
0001
,
0110
1000
0001
0010
,
1000
0100
0010
1000
,
0001
0010
1000
0001
,
0010
1000
0100
0001
,
1010
0001
0100
0001
,
1000
0100
0010
1000
,
0001
0010
0100
1000
,
0010
0100
0001
0100
,
1010
0001
0100
1000
,
0010
0001
0100
0010
,
0001
0100
1000
0100
,
0010
1000
0001
0010
,
1000
0100
0010
1000
,
0001
0010
0100
0001
,
1000
0100
0001
1000
,
0010
1000
0100
1000
,
0101
0010
1000
0100
,
0010
1000
0001
0010
,
1000
0001
0010
1000
,
0001
0010
1000
0100
,
0010
1000
0100
0010
,
0001
1000
0010
0001
,
1000
0100
0001
1000
,
0010
1000
0100
0010
,
1001
0100
0010
1000
,
0001
0010
0100
1000
,
0010
0100
0001
0010
,
1000
0001
0010
1000
,
0101
0010
1000
0001
,
0010
1000
0001
0010
,
1000
0001
0100
1000
,
0001
0100
0010
0001
,
1100
0010
0001
1000
,
0010
0001
0100
0010
,
0001
1000
0010
0100
,
1000
0001
0001
1000
,
0110
0001
1000
0100
,
0001
1000
0010
0100
,
1000
0010
0001
1000
,
0010
0001
0100
0001
,
1010
0001
0100
1000
,
0001
0010
0100
0010
,
1001
0100
0010
1000
,
0001
0010
1000
0001
,
0010
1000
0001
0001
,
1000
0100
0010
1000
,
0001
0010
0100
0001
,
1000
0100
0010
1000
,
0001
0010
1000
0100
,
0010
0000
0000
0000
;

//---------------dance-single - ----------------
#NOTES:
     dance-single:
     :
     Challenge:
     9:
     0.617,0.558,0.231,0.112,0.026:
0000
1001
0000
0000
0110
0000
0010
1000
,
0100
0010
0100
1000
0010
1000
0100
0010
,
0001
0100
0010
0100
0001
0010
0100
0010
,
1001
0000
0000
0110
0000
0000
0101
0000
,
0000
1010
0000
0000
1001
0000
0010
1000
,
0100
1000
0010
1000
0100
0010
0001
0100
,
0010
0100
0001
0010
0100
0010
0001
0100
,
0010
1000
0100
0010
0100
1000
0010
1000
,
0100
0010
0100
0010
0100
0010
0100
1000
,
0100
1000
0100
1000
0001
1000
0001
1000
,
0001
0100
0010
0100
0001
0100
0001
0001
,
0100
0001
0100
0001
0100
0001
1000
0001
,
1000
0001
1000
0001
0100
0001
0100
0010
,
0100
0001
0100
0001
1000
0001
1000
0001
,
0100
0010
0100
0001
0100
0001
1001
0000
,
0100
0001
1000
0001
0000
0100
0001
0100
,
0000
0010
1000
0100
0000
1000
0100
1000
,
0000
0100
0010
0001
0000
0100
0010
0100
,
0000
0001
0010
0100
0000
1000
0001
0100
,
0101
0001
1000
0100
0000
0100
0010
0100
,
0000
0100
0001
0200
0000
0310
0001
0200
,
0000
0310
1000
0200
0000
0301
0100
1000
,
0001
0100
0001
1000
0100
1000
0001
0100
,
1001
0001
0000
1000
0000
0100
0000
0001
,
0100
1000
0010
0100
0000
1000
0100
0001
,
0001
1000
0000
0001
0000
1000
0000
0100
,
0010
0001
1000
0200
0000
1000
0000
1300
,
0001
0010
0001
0010
0100
1000
0100
0000
,
1000
0001
0100
0010
0000
0100
0001
0010
,
0000
0100
1000
0010
0000
0100
0001
1000
,
0000
0100
1000
0100
0010
0001
0010
0100
,
1000
0000
1000
0001
1000
0000
0100
0100
,
1000
0000
0001
1000
0001
0000
0100
0100
,
0001
0011
0000
0011
,
0100
1010
0010
1001
,
0001
0000
0001
1000
0001
0000
0100
0100
,
0001
0000
1000
0001
2000
0000
3200
0000
,
0310
0000
1100
0000
0000
0000
1100
1000
,
0001
0000
0101
0000
0001
0001
0100
0001
,
0010
0000
0010
0100
1000
0000
1000
0100
,
0001
0000
0001
0100
1000
0000
0001
0001
,
0000
1000
0100
1000
0001
1000
0200
0000
,
0010
0000
0010
0000
0310
0000
0100
0100
,
0010
0000
0010
0001
0100
0000
1000
0100
,
0001
0000
1000
0001
0010
0000
0001
0001
,
0000
1000
0100
1000
0001
1000
0100
0100
,
0010
0001
0001
0100
0100
0010
0010
0000
,
0110
0000
0020
0000
0000
1000
1030
0000
,
0200
0000
0302
0000
0000
0010
0013
0000
,
0100
0000
1000
0000
0100
0000
0000
0000
1000
0100
1000
0000
0001
0000
0000
0000
,
0100
0000
0001
0000
0100
0000
0000
0000
0001
0100
0001
0000
1000
0000
0000
0000
,
0100
0000
0010
0000
0001
0000
0000
0000
0100
0001
0100
0000
0010
0000
0000
0000
,
0100
0000
0010
0000
1000
0000
0000
0000
0001
0100
0001
0000
1000
0000
0100
0000
,
0000
1000
0001
0100
0000
0010
0100
1000
,
0000
0000
0100
0000
0010
0100
0010
0000
0010
0000
0100
0000
0010
0000
0000
0000
,
1001
1000
0001
0000
0100
0100
0001
0000
,
0010
0100
1000
0100
0000
1000
0001
0000
,
1001
0001
1000
0000
0100
0100
0010
0000
,
0001
0010
0100
1000
0001
0010
0100
0000
,
0000
1000
0001
0000
0000
0100
0001
0000
,
0000
0001
0010
0000
0000
0010
0100
0000
,
1000
0010
1000
0010
0100
0001
0100
0001
,
0010
0000
0100
0000
1000
0000
0001
0000
1000
0001
1000
0000
1000
0000
0000
0000
,
0100
0000
0010
0100
0100
0010
0001
0000
,
0100
0000
0010
0100
0100
0010
1000
0000
,
0001
0100
0001
0000
1000
0010
0100
0000
,
0001
0100
0010
1000
0100
1000
0010
0000
,
0101
0000
0001
0001
1000
0100
0010
0000
,
0100
0000
1000
1000
0002
0000
0023
0000
,
0130
0010
0001
0100
0010
0100
0001
0010
,
0100
1000
0001
1000
0100
1000
0001
0000
,
0110
0000
1000
1000
0001
0100
0010
0010
,
0100
0000
0001
0010
0100
1000
0001
0001
,
0100
0000
0001
1000
0100
0010
0100
0100
,
1000
0000
0001
0100
1000
0100
0010
0010
,
0100
0000
0001
1000
0100
0100
0010
0010
,
0001
0000
0100
0010
1000
1000
0001
0001
,
0100
0010
0100
0010
1000
0001
1000
1000
,
0001
0000
0010
0000
0001
1000
0001
0000
0001
0000
1000
0000
0010
0000
0010
0000
,
0020
0000
0000
0000
1000
0000
0030
1000
,
0100
0010
0001
0000
,
0101
0000
0010
0000
1100
0000
0001
1000
,
1100
0000
0001
0000
0110
0000
0001
0100
,
0101
0000
1000
0000
0110
0000
1000
0100
,
1001
0000
0010
0000
0101
0000
0100
0010
,
2002
0000
0000
0000
,
0000
0000
0000
0000
,
0000
0000
0000
0000
,
3003
0000
0000
0000
;
