#TITLE:What It Means;
#ARTIST:Jeremy Camp;
#BANNER:What It Means - Jeremy Camp.png;
#BACKGROUND:What It Means - Jeremy Camp-bg.png;
#LYRICSPATH:What It Means - Jeremy Camp.lrc;
#CDTITLE:.\CDTITLES\DP2JEREMY.png;
#MUSIC:What It Means - Jeremy Camp.mp3;
#OFFSET:-2.130;
#SAMPLESTART:41.20;
#SAMPLELENGTH:12;
#BPMS:0=116;
#BGCHANGES:0=What It Means - Jeremy Camp.AVI=1=1=1=0,999=-=1=0=0=0;

//---------------dance-single - ----------------
#NOTES:
     dance-single:
     :
     Easy:
     2:
     0.136,0.141,0.015,0.007,0:
0000
0000
0001
0000
,
1000
0000
0001
0000
,
1000
0000
0001
0000
,
0002
0000
0003
0000
,
1000
0000
0010
0000
,
0001
0000
0100
0000
,
1000
0000
0010
0000
,
0001
0000
1000
0000
,
0010
0000
1000
0000
,
0001
0000
1000
0000
,
0010
0000
1000
0000
,
0001
0000
1000
0000
,
0010
0000
0001
0000
,
1000
0000
0001
0000
,
0010
0000
0001
0000
,
1000
0000
0100
0000
,
0010
0000
0100
0000
,
1000
0000
0001
0000
,
0010
0000
0001
0000
,
1001
0000
0010
0000
,
1000
0000
0001
0000
,
1000
0000
0010
0000
,
0001
0000
0100
0000
,
1000
0000
0010
0000
,
0001
0000
0100
0000
,
0010
0000
0100
0000
,
1000
0000
0001
0000
,
0010
0000
0001
0000
,
1000
0000
0100
0000
,
0001
0000
1000
0000
,
0010
0000
0100
0000
,
1000
0000
0010
0000
,
0001
0000
1000
0000
,
0010
0000
0100
0000
,
1000
0000
0010
0000
,
0001
0000
0100
0000
,
0010
0000
0001
0000
,
1000
0000
0001
0000
,
0010
0000
0001
0000
,
1000
0000
0010
0000
,
0001
0000
1000
0000
,
0010
0000
0001
0000
,
1000
0000
0100
0000
,
0001
0000
0100
0000
,
0010
0000
0001
0000
,
1000
0000
0001
0000
,
0010
0000
1000
0000
,
0001
0000
1000
0000
,
0010
0000
1000
0000
,
0010
0000
0010
0000
,
1010
0000
0100
0000
,
0001
0000
0100
0000
,
1000
0000
0010
0000
,
0001
0000
0100
0000
,
1000
0000
0010
0000
,
0001
0000
0100
0000
,
0010
0000
1000
0000
,
0001
0000
1000
0000
,
0010
0000
0001
0000
,
1000
0000
0100
0000
,
0010
0000
1000
0000
,
0001
0000
1000
0000
,
0010
0000
0100
0000
,
1000
0000
0001
0000
,
0010
0000
0000
0000
;

//---------------dance-single - ----------------
#NOTES:
     dance-single:
     :
     Hard:
     6:
     0.338,0.355,0.059,0.022,0:
0000
0000
0000
0000
1000
0001
0010
0100
,
1000
0001
1000
0001
0000
0100
0010
0100
,
0000
0010
0000
0100
0000
0001
0010
1000
,
0002
0000
0000
0003
1000
0010
0000
0000
,
1000
0000
0001
0010
0000
0000
1000
0002
,
0000
0000
0000
0003
0100
0000
0001
0000
,
1000
0100
0010
1000
,
0001
0010
1000
0001
,
0010
0100
1000
0010
,
0001
0100
1000
0001
,
0010
0100
1000
0010
,
0001
0000
0010
0100
1000
0000
0100
0000
,
0010
0100
0001
0010
,
1000
0000
0010
0000
0001
1000
0100
0000
,
0010
1000
0001
0010
,
1000
0000
0001
1000
0100
0001
1000
0000
,
0010
0001
0100
0001
,
1000
0010
0001
1000
,
0020
0000
1000
0030
0001
1000
0010
0000
,
1001
0100
0010
0000
1100
0000
0010
0000
,
0101
0010
1000
0100
0001
0000
0010
0100
,
1000
0001
0010
1000
,
0001
0000
0010
0000
0100
0000
0001
0010
,
1000
0001
0100
1000
0010
0000
1000
0000
,
0001
0000
0010
0000
0100
0000
0001
1000
,
0010
0001
1000
0000
0100
0000
0001
0010
,
1000
0000
0010
0000
0001
0000
0100
0001
,
0010
0100
0001
0010
,
1000
0000
0001
0000
0100
0001
1000
0000
,
0001
1000
0010
0000
1000
0010
0001
0000
,
0010
0000
1000
0010
0100
1000
0001
0000
,
1000
0000
0100
0000
0010
0100
1000
0010
,
0001
1000
0010
0000
1000
0000
0001
1000
,
0010
0000
1000
0000
0100
1000
0001
0010
,
1000
0000
0100
0001
0010
0100
1000
0000
,
0001
0010
0100
1000
,
0010
0100
0001
0001
,
1000
0001
0001
1000
,
0010
0000
1000
0010
0001
0000
0010
0000
,
1000
0000
0100
0000
0010
0000
0100
1000
,
0001
0010
1000
0100
,
0010
0001
1000
0000
0001
1100
0011
0000
,
1000
0001
0100
1000
,
0001
1000
0010
0000
0100
0000
1000
0001
,
0010
1000
0001
0010
,
1000
0100
0001
0100
,
0010
0001
1000
0100
,
0001
0100
1000
0001
,
0010
0001
1000
0100
,
0010
1000
0010
0001
,
1010
0001
0100
0000
0011
0000
0100
0000
,
1010
0000
0001
0000
0100
0000
0000
1000
,
0010
0001
0010
1000
,
0001
0000
0010
0000
0100
0000
0001
0010
,
1000
0001
0100
0001
0010
0000
1000
0000
,
0001
0000
0010
0000
0100
0000
1000
0001
,
0010
0000
0001
0000
1000
0000
0010
1000
,
0001
0000
0100
0000
1000
0000
0001
1000
,
0010
1000
0001
0010
,
1000
0001
0100
1000
,
0010
1000
0001
0000
1000
0001
0010
0000
,
0001
1000
0100
0001
0000
1000
0001
1000
,
0000
0010
0000
0100
0000
0010
0001
0100
,
1000
0001
1000
0001
0000
0100
0010
0100
,
0000
0010
0000
0100
0000
0000
0000
0000
;

//---------------dance-single - ----------------
#NOTES:
     dance-single:
     :
     Medium:
     4:
     0.270,0.283,0.044,0.007,0:
0000
0000
0001
0010
,
1000
0001
1000
0001
,
1000
0010
0100
0010
,
0002
0000
0003
0010
,
1000
0001
0010
1000
,
0001
1000
0100
0001
,
1000
0100
0010
1000
,
0001
0010
1000
0001
,
0010
0100
1000
0010
,
0001
0100
1000
0001
,
0010
0100
1000
0010
,
0001
0010
1000
0100
,
0010
0100
0001
0010
,
1000
0010
0001
0100
,
0010
1000
0001
0010
,
1000
0001
0100
1000
,
0010
0001
0100
0001
,
1000
0010
0001
1000
,
0010
1000
0001
0010
,
1001
0010
1100
0010
,
0101
0000
0001
0000
,
1000
0001
0010
1000
,
0001
0010
0100
0001
,
1000
0100
0010
1000
,
0001
0010
0100
0001
,
0010
1000
0100
0001
,
1000
0010
0001
0100
,
0010
0100
0001
0010
,
1000
0001
0100
1000
,
0001
0010
1000
0001
,
0010
1000
0100
0001
,
1000
0100
0010
1000
,
0001
0010
1000
0001
,
0010
1000
0100
0001
,
1000
0100
0010
1000
,
0001
0010
0100
1000
,
0010
0100
0001
0001
,
1000
0001
0001
1000
,
0010
1000
0001
0010
,
1000
0100
0010
0100
,
0001
0010
1000
0100
,
0010
1000
0001
0010
,
1000
0001
0100
1000
,
0001
0010
0100
1000
,
0010
1000
0001
0010
,
1000
0100
0001
0100
,
0010
0001
1000
0100
,
0001
0100
1000
0001
,
0010
0001
1000
0100
,
0010
1000
0010
0001
,
1010
0100
0011
0100
,
1010
0000
0100
0000
,
1000
0001
0010
1000
,
0001
0010
0100
0001
,
1000
0100
0010
1000
,
0001
0010
0100
1000
,
0010
0001
1000
0010
,
0001
0100
1000
0001
,
0010
1000
0001
0010
,
1000
0001
0100
1000
,
0010
0001
1000
0010
,
0001
0100
1000
0001
,
0010
1000
0100
0001
,
1000
0010
0001
0100
,
0010
0001
0000
0000
;

//---------------dance-single - ----------------
#NOTES:
     dance-single:
     :
     Challenge:
     7:
     0.425,0.452,0.118,0.184,0:
0000
0000
0000
0000
,
1000
0010
0100
0110
0000
0100
0001
0101
,
0000
1100
0000
1001
0000
1000
0010
0000
,
0110
0000
0000
0100
0001
1000
0001
0001
,
0000
0100
0000
0100
0000
0000
0020
0200
,
0000
0000
0000
0000
0000
0000
0330
0100
,
0000
0001
0000
1000
0000
1000
0000
0002
,
0000
0000
0000
0003
0001
1000
0000
0010
,
0000
1000
0000
0010
0000
0010
0000
0100
,
0000
0001
0000
1000
0000
0001
0000
0202
,
0000
0000
0000
0000
0000
0000
0000
0303
,
0100
0010
1000
0010
0000
0010
0100
0000
,
0001
1000
0100
1000
0000
1000
0010
0000
,
0100
0010
1000
0001
0000
0001
1000
0000
,
0100
0010
0001
0010
0000
0010
0001
0000
,
0100
0010
1000
0010
0000
0010
0100
0000
,
0001
0010
0100
0010
0000
0010
0100
0000
,
0010
0001
0100
0000
0001
1000
0100
0000
,
1000
0001
0010
0000
0001
0010
0100
0000
,
0010
0001
0100
0001
0100
0001
1000
0001
,
0100
0001
0100
0010
0100
0001
0100
0001
,
0100
0001
0100
0001
1000
0001
0100
0001
,
1000
0001
0100
0001
1000
0001
0100
0010
,
0100
0001
0100
0010
0100
0001
0100
0010
,
0100
0001
0100
0010
0100
0001
1000
0100
,
0010
0100
1000
0100
0010
0100
1000
0100
,
0010
0100
1000
0100
0010
0100
1000
0010
,
0100
0010
1000
0010
0100
0010
1000
0010
,
0100
0010
1000
0100
0010
0100
1000
0001
,
1000
0001
1000
0001
1000
0001
2002
3003
,
0001
1000
0010
0100
0000
0100
0010
2000
,
0000
3002
0000
0203
0000
0301
1000
0000
,
1000
0010
0100
0010
0000
0010
1000
2000
,
0000
3002
0000
0023
0000
0031
0100
0000
,
0202
0000
0303
1000
0100
1000
1000
0010
,
0000
0000
0100
0010
0000
0100
0000
0002
,
0000
0000
0000
0000
0000
0003
1000
1000
,
0000
0010
0000
0100
0000
0100
0000
0002
,
0000
0000
0000
0003
1000
1000
0100
0100
,
0000
1000
0000
0010
0000
0010
0000
1000
,
0000
0010
0000
0100
0000
0010
0000
2020
,
0000
0000
0000
0000
0000
0000
0000
3030
,
0010
1000
0010
0000
0010
0100
0010
0000
,
1000
1000
0010
0000
0100
0001
1000
0000
,
0100
0100
0010
0000
0100
0100
1000
0000
,
0001
0001
0010
0000
0001
0001
0100
0000
,
0010
1000
0010
0000
0100
0010
0100
0000
,
0001
0100
0001
0000
1000
0001
1000
0000
,
0010
0100
0010
0000
1000
0010
0100
0000
,
0001
1000
0100
0000
1000
0001
0100
0000
,
0010
0100
0001
1000
0001
0100
0010
0100
,
0001
1000
0100
0010
0100
1000
0010
0100
,
0010
1000
0100
0010
0001
0010
0100
0010
,
0001
0100
0001
0010
0001
0100
0001
0010
,
0001
1000
0010
0100
0010
1000
0010
0100
,
0010
1000
0001
0100
0001
1000
0001
0100
,
0010
0100
0001
1000
0100
0010
0100
1000
,
0001
1000
0100
1000
0001
1000
0100
0010
,
0100
0100
0000
0010
0000
0020
0000
0002
,
0000
0000
0000
0000
0000
0000
0000
0033
,
0100
0010
0000
1000
0000
2000
0002
3003
,
0001
1000
0010
0110
0000
0100
0010
1010
,
0000
1000
0000
1001
0000
0001
0010
0000
,
0001
0100
0010
0110
0000
0100
0001
1001
,
0000
0000
0000
0000
0000
0000
0000
0000
0000
0000
0000
0000
0000
0000
0000
0000
0000
0000
0000
0000
0000
0000
0000
0000
1100
0000
0000
0000
0000
0000
0000
0000
0000
0000
0000
0000
0000
0000
0000
0000
0000
0000
0000
0000
0000
0000
0000
0000
0000
0000
0000
0000
0000
0000
0000
0000
0000
0000
0000
0000
0000
0000
0000
0000
0000
0000
0000
0000
0000
0000
0000
0000
2002
0000
0000
0000
0000
0000
0000
0000
0000
0000
0000
0000
0000
0000
0000
0000
0000
0000
0000
0000
0000
0000
0000
0000
0000
0000
0000
0000
0000
0000
0000
0000
0000
0000
0000
0000
0000
0000
0000
0000
0000
0000
0000
0000
0000
0000
0000
0000
0000
0000
0000
0000
0000
0000
0000
0000
0000
0000
0000
0000
0000
0000
0000
0000
0000
0000
0000
0000
0000
0000
0000
0000
0000
3003
0000
0000
0000
0000
0000
0000
0000
0000
0000
0000
0000
0000
0000
0000
0000
0000
0000
0000
0000
0000
0000
0000
0000
0000
0000
0000
0000
0000
0000
0000
0000
0000
0000
0000
0000
0000
0000
0000
0000
0000
0000
0000
0000
0000
0000
0000
;
