#TITLE:Welcome Home;
#SUBTITLE:(You);
#ARTIST:Brian Littrell;
#BANNER:Welcome Home (You) - Brian Littrell.PNG;
#BACKGROUND:Welcome Home (You) - Brian Littrell-bg.PNG;
#LYRICSPATH:Welcome Home (You) - Brian Littrell.lrc;
#CDTITLE:.\CDTITLES\DP2BRIAN.png;
#MUSIC:Welcome Home (You) - Brian Littrell.mp3;
#OFFSET:-0.960;
#SAMPLESTART:47.96;
#SAMPLELENGTH:12;
#BPMS:0=60;
#BGCHANGES:0=Welcome Home (You) - Brian Littrell.AVI=1=1=1=0,999=-=1=0=0=0;

//---------------dance-single - ----------------
#NOTES:
     dance-single:
     :
     Easy:
     1:
     0.123,0.112,0,0.014,0:
0000
0000
0000
0000
,
1000
0001
1000
0000
,
1000
0001
1000
0000
,
1000
0001
1000
0000
,
1000
0001
1000
0000
,
1000
0001
1000
0000
,
1000
0010
1000
0000
,
0010
0001
0010
0000
,
0001
0010
0001
0000
,
1000
0010
1000
0000
,
0001
1000
0001
0000
,
2000
0000
3000
0000
,
0010
0010
0010
0000
,
1000
1000
1000
0000
,
0001
0001
0001
1000
,
0010
0001
0010
1000
,
0010
0001
1000
0001
,
0010
1000
0010
0001
,
0010
1000
0001
0010
,
1000
0010
1000
0010
,
0001
0010
0001
1000
,
0001
1000
0010
0001
,
1000
0001
0100
1000
,
1000
0001
0100
0001
,
0001
1000
0001
0000
,
0010
1000
0001
0010
,
0010
0001
0010
1000
,
0001
0100
1000
0001
,
1000
0001
1000
0010
,
0001
1000
0001
0020
,
0000
0030
1000
0001
,
1000
0001
0010
1000
,
0001
1000
0010
0001
,
0010
1000
0001
1000
,
0010
1000
0010
0001
,
0010
1000
0010
0000
;

//---------------dance-single - ----------------
#NOTES:
     dance-single:
     :
     Hard:
     7:
     0.321,0.310,0.105,0.175,0.412:
0000
0000
0000
0000
,
0011
0000
0000
0000
1000
0000
0001
0000
0010
0000
0100
0000
1001
0000
0000
0010
0000
0000
0101
0000
0000
0010
0000
0000
,
1100
0000
0000
0000
0010
0000
0001
0000
0010
0000
0100
0000
1001
0000
0000
0010
0000
0000
0001
0000
0010
0000
0100
0000
,
1010
0000
0000
0100
0000
0000
0001
0000
0010
0000
0100
0000
0011
0000
0000
1000
0000
0000
0001
0000
0000
0010
0000
0000
,
1001
0000
0000
0010
0000
0000
0001
0000
0000
0000
0001
0000
1000
0000
0100
0000
1000
0000
0001
0000
0000
0000
0000
0000
,
1000
0000
0010
0000
1000
0000
0001
0000
0000
0010
0000
0000
2000
0000
0000
0000
0000
0000
3000
0000
0000
0000
0001
0000
,
1001
1000
0001
0100
0000
0000
1000
0001
1000
0100
0001
1000
,
0010
0000
1000
0000
0010
0000
0001
0000
1000
0000
0001
0000
0010
0000
0000
0001
0000
0000
1000
0000
0000
0000
1000
0000
,
0002
0000
0000
0000
0000
0000
0000
0000
0000
0003
0000
0000
0020
0000
0000
0000
0000
0000
0000
0000
0000
0000
0000
0000
0032
0000
0000
0000
0000
0000
0000
0000
0000
0003
0000
0000
0010
0000
0000
0000
0100
0000
0000
0000
0001
0000
0000
0000
,
2000
0000
0000
0000
0000
0000
0000
0000
0000
0000
0000
0000
3020
0000
0000
0000
0000
0000
0000
0000
0000
0000
0000
0000
2030
0000
0000
0000
0000
0000
0000
0000
0000
3000
0000
0000
0010
0000
0000
0000
1000
0000
0000
0000
0010
0000
0000
0000
,
0002
0000
0000
0000
0000
0000
0000
0000
0000
0000
0000
0000
2003
0000
0000
0000
0000
0000
0000
0000
0000
0000
0000
0000
3002
0000
0000
0000
0000
0000
0000
0000
1000
0003
0000
0000
0010
0000
0000
0000
1000
0000
0000
0000
0011
0000
0000
0000
,
2000
0000
0000
0000
0000
0000
0000
0000
0000
0000
0000
3000
0001
0000
1001
0000
,
0020
0000
0000
0030
0000
0000
0010
0000
1000
0000
0001
0000
0010
0000
0000
0000
0000
0000
0001
0000
0010
0000
0001
0000
,
1000
0000
0000
0000
0000
0000
0001
0000
1000
0001
0010
0000
0010
0000
1000
0000
0001
0000
1000
0000
0010
0001
1000
0000
,
0001
0000
0000
0000
0000
0000
0001
0000
0010
0000
1000
0000
0100
0000
0000
0001
0000
0000
1000
0000
0001
0000
1000
0000
,
0010
0000
0000
0001
0010
1000
0010
0001
0010
1000
0000
0000
,
1010
0000
0000
0100
0000
0000
0001
0000
0010
0000
0100
0000
1010
0000
0000
0100
0000
0000
0001
0000
0010
0000
0100
0000
,
0011
0000
0000
0100
0000
0000
1000
0000
0100
0000
0001
0000
0110
0000
0000
1000
0000
0000
0001
0000
0010
0000
1000
0000
,
0010
0000
0000
0001
0000
0000
1000
0000
0000
0000
0000
0000
0001
0000
0000
1000
0000
0000
0010
0000
0001
0000
0100
0000
,
1000
0100
0001
0010
0001
0010
1000
0000
0000
0010
1000
0010
,
0001
0000
1000
0000
0001
0000
0010
0000
0000
1000
0000
0000
0001
0000
0010
0000
0001
0000
1000
0000
0010
0000
1000
0000
,
0001
0000
0010
0000
0001
0000
1000
0000
0001
0000
1000
0000
0010
0000
0000
1000
0000
0000
0001
0000
0000
0001
0000
0000
,
2000
0000
0000
0000
0000
0000
0000
0000
0000
0000
0000
0000
3002
0000
0000
0000
0000
0000
0000
0000
0000
0000
0000
0000
0203
0000
0000
0000
0000
0000
0000
0000
0000
0300
0000
0000
1000
0000
0000
0000
0001
0000
0000
0000
0010
0000
0000
0000
,
2000
0000
0000
0000
0000
0000
0000
0000
0000
0000
0000
0000
3002
0000
0000
0000
0000
0000
0000
0000
0000
0000
0000
0000
0203
0000
0000
0000
0000
0000
0000
0000
0000
0300
0000
0000
0001
0000
0000
0000
1000
0000
0000
0000
0010
0000
0000
0000
,
0002
0000
0000
0000
0000
0000
0000
0000
0000
0000
0000
0000
2003
0000
0000
0000
0000
0000
0000
0000
0000
0000
0000
0000
3002
0000
0000
0000
0000
0000
0000
0000
0000
0003
0000
0000
1000
0000
0000
0000
0000
0000
0000
0000
0001
0000
0000
0000
,
0010
0001
0010
1000
0010
1000
0001
0000
0000
0010
0001
1000
,
0010
0000
0000
0001
0010
1000
0010
0000
0000
1000
0010
1000
,
0001
0000
0000
0000
0000
0000
0100
0000
0001
0000
0010
0000
1000
0000
0010
0000
1000
0000
0001
0000
1000
0001
0010
0000
,
1000
0000
0000
0001
1000
0010
1000
0000
0000
0010
1000
0010
,
0001
0000
0000
0000
0000
0000
1000
0000
0001
0000
0010
0000
0001
0000
0000
1000
0000
0000
0020
0000
0000
0000
0000
0000
,
0000
0000
0000
0000
0000
0000
0000
0000
0000
0030
0000
0000
0001
0000
0000
0000
0010
0000
0000
0000
0001
0000
0000
0000
1000
0000
0000
0000
0010
0000
0000
0000
1000
0000
0000
0000
0001
0000
0000
0000
0000
0000
0010
0000
0000
0000
0000
0000
,
1000
0000
0000
0000
0000
0000
0001
0000
1000
0000
0001
0000
0010
0000
0000
0001
0000
0000
1000
0000
0000
0010
0000
0000
,
0001
0000
0000
0000
0000
0000
1000
0000
0000
0001
0000
0000
0010
0000
0000
1000
0000
0000
0001
0000
0000
0000
1000
0000
,
0010
0000
1000
0000
0001
0000
1000
0000
0001
0000
1000
0000
0001
0000
0000
0010
0000
0000
1000
0000
0010
0000
0001
0000
,
0010
0000
0002
0000
2000
0000
0000
0000
0000
0000
0000
3000
0020
0000
0000
0000
,
0000
0030
0000
0000
1000
0000
0000
0000
0013
0000
0000
0000
0000
0000
0000
0000
;

//---------------dance-single - ----------------
#NOTES:
     dance-single:
     :
     Medium:
     4:
     0.215,0.211,0,0.168,0.168:
0000
0000
0000
0000
,
1000
0000
0000
0001
0010
0100
1000
0000
0000
0001
0000
0000
,
1000
0000
0000
0001
0010
0100
1000
0000
0000
0001
0010
0100
,
1000
0000
0000
0001
0010
0100
1000
0000
0000
0001
0000
0000
,
1000
0000
0010
0001
0000
0000
1000
0000
0100
0001
0000
0000
,
1000
0000
0000
0000
0010
0000
0001
0000
0000
0010
0000
0000
2000
0000
0000
0000
0000
0000
3000
0000
0000
0000
0000
0000
,
0001
0000
1000
0010
0000
0000
1000
0000
0001
0100
0000
0000
,
0010
0000
1000
0000
0000
0000
0001
0000
0000
0000
0000
0000
0010
0000
0000
0001
0000
0000
1000
0000
0000
0000
0000
0000
,
0002
0000
0003
0020
0000
0030
0002
0000
0003
0010
0100
0000
,
2000
0000
0000
3020
0000
0030
2000
0000
3000
0010
1000
0000
,
0002
0000
0003
2000
0000
3000
0002
0000
0003
0010
0001
0000
,
2000
0000
0000
0000
0000
0000
0000
3000
0000
0001
0000
0000
,
0010
0000
0000
0010
0001
0000
0010
0000
0000
0001
0010
0000
,
1000
0000
0000
1000
0001
0000
1000
0000
0000
0010
1000
0000
,
0001
0000
0000
0001
1000
0000
0001
0000
0000
1000
0000
0000
,
0010
0000
0000
0001
1000
0000
0010
0000
0000
1000
0000
0000
,
0010
0000
0000
0001
0010
0100
1000
0000
0000
0001
0010
0100
,
0010
0000
0000
1000
0100
0001
0010
0000
0000
0001
1000
0000
,
0010
0000
0000
1000
0000
0000
0001
1000
0000
0010
0000
0000
,
1000
0001
0000
0010
0000
0000
1000
0000
0000
0010
1000
0000
,
0001
0000
0000
0010
0000
0000
0001
0000
0010
1000
0000
0000
,
0001
0000
0000
0000
0010
0000
1000
0000
0000
0000
0000
0000
0010
0000
0000
1000
0000
0000
0001
0000
0000
0000
0000
0000
,
2000
0000
3000
0002
0000
0003
0200
0000
0300
1000
0001
0000
,
2000
0000
3000
0002
0000
0000
0203
0000
0300
0001
1000
0000
,
0002
0000
0000
2003
0000
0000
3002
0000
0003
1000
0000
0000
,
0010
0000
0001
1000
0010
0000
0001
0000
0000
0010
1000
0000
,
0010
0000
0000
0001
1000
0000
0010
0000
0000
1000
0010
0000
,
0001
0000
0000
0100
0001
0000
1000
0010
0000
0001
0000
0000
,
1000
0000
0000
0001
0010
0000
1000
0000
0000
0010
0000
0000
,
0001
0000
0000
0000
0000
0000
1000
0000
0010
0000
0000
0000
0001
0000
0000
1000
0000
0000
0020
0000
0000
0000
0000
0000
,
0000
0000
0000
0000
0030
0000
0001
0000
0000
0010
0000
0000
1000
0000
0000
0000
0000
0000
0001
0000
0000
0010
0000
0000
,
1000
0000
0001
0000
0010
0001
1000
0010
,
0001
0000
1000
0000
0010
1000
0001
0000
,
0010
0001
0000
1000
0000
0000
0001
0000
0000
1000
0001
0000
,
0010
0000
0000
0002
0000
0000
2000
0000
0000
0000
0000
0000
0000
0000
0000
0000
3000
0000
0020
0000
0000
0000
0000
0000
,
0030
1000
0013
0000
;

//---------------dance-single - ----------------
#NOTES:
     dance-single:
     :
     Challenge:
     7:
     0.396,0.422,0.377,0.538,0.426:
0000
0000
0000
0000
0000
0000
0000
0000
0000
0000
0000
0000
0011
0000
0000
0001
0000
0000
1000
0000
0100
0000
1000
0000
,
1010
0000
0000
0010
0000
0000
0100
0000
0001
0000
1000
0000
0101
0000
0000
0001
0000
0000
1000
0000
0100
0000
1000
0000
,
1010
0000
0000
0010
0000
0000
0100
0000
0001
0000
1000
0000
1100
0000
0000
1000
0000
0000
0100
0000
0010
0000
0100
0000
,
0110
0000
0000
0010
0000
0000
0001
0000
0010
0000
0001
0000
0101
0000
0000
0001
0000
0000
1001
0000
0001
0000
0010
0000
,
0011
0000
0000
0000
0010
0000
0001
0000
0000
0000
0001
0000
0100
0000
0100
0000
0010
0000
0220
0000
0000
0330
0000
0000
,
0100
0000
0001
0000
1000
0000
0100
0000
0000
0000
2000
0000
0020
0000
0000
3030
0000
0000
0100
0000
0000
0000
0000
0000
,
0001
0000
0001
1000
0000
0000
0001
0010
0001
1000
1000
0100
,
1000
0000
0010
0000
0100
0000
0010
0000
0010
0000
1000
0000
0001
0000
0010
0000
0022
0000
0000
0000
0000
0033
0000
0000
,
2002
0000
0000
0003
0000
0000
0200
0000
0000
3000
0000
0000
0020
0000
0000
0330
0000
0000
0001
0000
0010
0000
0001
0000
,
0202
0000
0000
0300
0000
0000
2000
0000
0000
0003
0000
0000
0020
0000
0000
3030
0000
0000
0100
0000
0010
0000
1000
0000
,
2002
0000
0000
0003
0000
0000
0020
0000
0000
3000
0000
0000
0200
0000
0000
0330
0000
0000
0100
0000
0001
0000
1000
0000
,
0001
0001
0001
1000
1000
1000
1010
0000
0000
0010
1000
0001
,
0011
0000
0000
0010
0001
1000
1100
0000
0000
0100
1000
0010
,
0110
0000
0000
0100
0001
1000
1001
1000
0100
1100
1000
0010
,
0110
0000
0000
0100
0001
1000
1100
0000
0000
0110
0000
0000
,
0011
0000
0000
0010
0001
0100
0001
1000
0001
0000
0000
0000
,
0010
0000
0000
0001
0000
0000
1000
0000
0100
0000
0010
0000
0110
0000
0000
0010
0000
0000
0001
0000
1000
0000
0001
0000
,
0101
0000
0000
0100
0000
0000
0010
0000
0100
0000
0001
0000
1001
0000
0000
1000
0000
0000
0100
0000
1000
0000
0010
0000
,
0110
0000
0100
0101
0000
0000
0001
1000
0100
1100
0000
0000
,
1000
0000
0010
0000
0100
0000
0010
0000
0000
0010
0000
0000
0200
0000
0000
0000
0000
0000
0301
0000
1000
0000
1000
0000
,
0010
0000
0010
0110
0000
0000
0100
0001
1000
1001
0100
0100
,
0001
0000
0010
0000
0001
0000
1000
0000
1000
0000
0100
0000
1000
0000
0010
0000
0220
0000
0000
0000
0000
0330
0000
0000
,
0202
0000
0000
0300
0000
0000
2000
0000
0000
0003
0000
0000
0020
0000
0000
3030
0000
0000
1000
0000
0001
0000
0010
0000
,
0022
0000
0000
0030
0000
0000
2000
0000
0000
0003
0000
0000
0020
0000
0000
3030
0000
0000
0100
0000
0001
0000
1000
0000
,
2200
0300
0002
3000
0020
0033
0010
0001
,
0010
0010
0010
0001
0001
0001
1000
1000
1000
0001
0001
0001
,
0022
0000
0000
0033
0000
0000
0010
0000
0001
0000
1000
0000
2200
0000
0000
3300
0000
0000
1000
0000
0010
0000
0100
0000
,
0220
0000
0000
0330
0000
0000
0100
0000
0001
0000
1000
0000
0001
0000
0010
0000
0001
0000
1000
0000
0100
0000
1000
0000
,
2002
0000
0000
3003
0000
0000
1000
0000
0010
0000
0100
0000
0220
0000
0000
0330
0000
0000
0202
0000
0000
0303
0000
0000
,
2020
0000
0000
3030
0000
0000
0010
0000
0100
0000
0010
0000
1000
0000
0002
0000
2000
0000
0000
0000
0000
3003
0000
0000
,
0220
0330
2020
3030
2002
3003
0202
0303
,
2020
3030
0220
0330
0202
0303
2020
3030
,
2002
3003
2200
3000
2000
0300
0020
3000
,
0200
0031
0001
0302
0010
0010
0023
0100
0100
0230
1000
1300
,
2002
0000
0000
0000
,
0000
0000
3003
0000
;
