#TITLE:We Win;
#ARTIST:Israel & New Breed;
#BANNER:We Win - Israel & New Breed.PNG;
#BACKGROUND:We Win - Israel & New Breed-bg.PNG;
#LYRICSPATH:We Win - Israel & New Breed.lrc;
#CDTITLE:.\CDTITLES\DP2ISRAEL.png;
#MUSIC:We Win - Israel & New Breed.mp3;
#OFFSET:-1.855;
#SAMPLESTART:51.7;
#SAMPLELENGTH:14.0;
#BPMS:0=119;

//---------------dance-single - ----------------
#NOTES:
     dance-single:
     :
     Easy:
     2:
     0.166,0.244,0.107,0.067,0:
0000
2000
0000
0000
,
0010
0000
0000
3000
0001
0000
0000
0000
,
1000
0000
0010
0000
,
0001
0000
0100
0020
,
0000
2030
0000
0000
,
3000
0001
0000
1000
,
0000
0010
0000
0001
,
0000
2000
0000
0000
,
0000
0000
0000
0000
,
3000
0010
0000
0001
,
0000
1000
0000
0010
,
0000
0001
0000
1000
,
0000
0010
0000
0001
,
0000
1000
0000
0010
,
0000
0001
0000
0100
,
0000
0010
0000
0100
,
0000
1000
0011
1010
,
0000
0001
0000
1000
,
0000
0010
0000
0001
,
0000
1000
0000
0001
,
0000
0010
0000
1000
,
0000
0001
0000
0010
,
0000
1000
0000
0100
,
0000
0000
0010
0000
0000
0000
1000
0002
,
0000
0000
0000
0000
0000
0003
0010
0100
,
0000
0000
1000
0000
0000
0011
0000
1100
,
0000
0000
0010
0000
0000
0101
0000
1010
,
0000
0000
0001
0000
0000
0011
0000
1010
,
0000
0000
1000
0000
0000
0000
0001
1000
,
0000
0000
0010
0000
0000
0101
0000
1100
,
0000
0000
0010
0000
0000
1001
0000
0110
,
0000
0000
1000
0000
0000
0000
0010
0002
,
0000
0000
0000
0000
,
0003
0000
0020
0000
0000
0000
0000
0030
,
2000
0000
0000
3000
0000
0000
0001
0000
,
0000
0010
0000
1000
,
0000
0001
0000
0010
,
0000
2000
0000
0000
,
3000
0000
0010
0000
0000
1100
0000
0011
,
0000
0100
0000
0001
,
0000
1000
0000
0010
,
0000
1000
0000
0100
,
0000
0001
0000
0100
,
0000
0001
0000
0100
,
0000
0010
0000
1000
,
0000
0001
0000
0010
,
0000
1000
0000
0100
,
0000
0010
0000
0001
,
0000
1000
0011
0101
,
0000
0000
0001
0000
0000
0000
0000
0020
,
0000
0000
0000
0030
,
0000
1000
0000
0010
,
0000
0001
0000
0100
,
0000
0010
0000
0001
,
0000
1000
0000
0010
,
0000
0001
0000
0100
,
0000
0010
0000
0001
,
0000
1000
0000
0010
,
0000
0001
0000
0100
,
0000
0010
0000
0001
,
0000
1000
0000
1000
,
0000
0010
0000
0100
,
0000
0001
0000
0010
,
0000
1000
0000
0001
,
0000
0010
0000
1000
,
0000
0001
0000
0010
,
0000
1000
0000
0100
,
0000
0010
0000
1000
,
0000
0001
0000
0010
,
0000
1000
0000
0100
,
0000
0001
0000
0010
,
0000
1000
0000
0100
,
0000
0010
0000
0100
;

//---------------dance-single - ----------------
#NOTES:
     dance-single:
     :
     Hard:
     6:
     0.365,0.342,0.201,0.134,0.007:
0000
2000
0000
0000
,
0000
3000
0010
0000
0100
1000
0001
0020
,
0000
0030
1000
0000
0001
1000
0010
0000
,
1000
0010
0001
1000
0100
0001
0020
0000
,
0000
2030
0000
0000
,
3002
0000
0003
0020
0030
1000
0000
0002
,
0000
0000
0003
0010
1000
0010
0001
0020
,
0000
0130
2000
0000
0000
0000
0000
0000
,
0000
0000
0000
0000
0000
0000
0000
0000
0000
0000
3000
0000
0010
0100
0000
0000
,
0001
1000
0010
0000
1000
0010
0001
0000
,
0010
1000
0100
0010
,
0100
1000
0001
1000
0010
0001
1000
0001
,
0100
0010
1000
0001
,
0010
0100
1000
0010
0001
1000
0010
0002
,
0000
1003
0001
0010
0000
0000
0100
0000
,
0001
0010
1000
0100
,
0010
1000
0011
1010
,
0100
0010
0001
1000
0010
0100
1000
0000
,
0001
0000
0010
1000
1000
0000
0001
0000
,
0010
0001
1000
0001
0100
1000
0001
0000
,
1000
0010
0001
1000
,
0010
0001
1000
0010
1000
0000
0010
0001
,
0100
0001
1000
0000
0001
0000
0100
0000
,
0001
1000
0010
0000
0100
0000
1000
0002
,
0000
0000
0000
0000
0000
0003
0010
0100
,
0000
1000
0000
0100
0000
0011
0000
1100
,
0000
0010
0000
1000
0000
0101
0000
1010
,
0000
0100
0000
1000
0000
0011
0000
1010
,
0000
0100
0000
2000
0000
3000
0001
1000
,
0000
0010
0000
1000
0000
0101
0000
1100
,
0000
0010
0000
0100
0000
1001
0000
0110
,
0000
0001
0000
0000
0100
0000
0010
0002
,
0000
0000
0000
0000
0000
0000
0000
0003
,
1000
0000
0020
0000
0000
0000
0000
0030
,
2000
0000
0000
3000
0010
0000
0001
2000
,
0000
3000
0010
1000
0001
0010
1000
0001
,
0010
1000
0001
1000
0100
0002
0000
0000
,
0000
0003
2000
0000
0000
0000
0000
0000
,
0000
3000
0010
0000
0000
1100
0000
0011
,
0000
0000
0100
0001
0010
1000
0001
0110
,
0000
0000
0000
0000
1000
0000
0000
0000
0001
0000
0000
0000
0010
0001
0000
0000
,
0100
0000
1000
0010
0001
1000
0100
1000
,
0010
0001
1000
0100
,
0010
1000
0001
0010
1000
0001
0100
0000
,
1000
0001
0001
0001
,
0001
0010
0001
0010
1000
0001
0010
0000
,
0101
0010
1000
0000
0001
0000
0100
1000
,
0001
0000
0010
0001
1000
0000
0001
0000
,
0010
1000
0011
0101
,
1000
0010
0001
1000
0100
0001
0100
0020
,
0000
0000
0000
0030
,
0100
0001
1000
0010
0001
1000
0010
0001
,
0100
0001
1000
0100
,
0001
1000
0010
0001
1000
0010
0001
0000
,
0010
0001
1000
0000
0100
0000
0010
0000
,
1000
0010
0001
1000
0010
0000
0100
0000
,
0001
0010
1000
0001
,
0010
0000
1000
0000
0010
0000
0100
0001
,
0000
0010
0000
1100
0000
0011
0000
1100
,
0000
1010
0000
0010
0000
1000
0000
0110
,
0000
1001
0000
0100
0000
0010
0000
0011
,
0000
1100
0000
0002
0003
0000
1100
0110
,
0000
0001
0000
1000
0000
0101
0000
1010
,
0000
0100
0000
0010
0000
0001
0000
1000
,
0001
1000
0010
0000
0100
0000
1000
0100
,
0010
0000
0001
0000
0010
0000
0100
0010
,
0000
0001
0000
1000
0000
0001
0000
0100
,
0000
1000
0000
0010
0000
0100
0000
1000
,
0000
0010
0000
0001
0000
1000
0000
0010
,
0000
0100
0000
1000
0000
0000
0100
0100
,
0000
0001
0000
1000
0000
0010
0000
0001
,
0000
1000
0000
0001
0000
0100
0000
0001
,
1000
0010
0000
0001
0000
0000
0001
0010
;

//---------------dance-single - ----------------
#NOTES:
     dance-single:
     :
     Medium:
     4:
     0.293,0.342,0.201,0.087,0:
0000
0000
2000
0000
0000
0000
0000
3000
,
0010
0100
0001
0010
,
1000
0001
0010
1000
,
0001
0100
0001
0020
,
0000
2030
0000
0000
,
3002
0000
0000
0003
0010
0000
1000
0000
,
0001
0010
1000
0001
,
0010
2000
0000
0000
,
0000
0000
0000
0000
0000
0000
0000
3000
,
0001
0010
1000
0001
,
0010
1000
0100
0010
,
0100
0001
0010
1000
,
0100
0010
1000
0001
,
0010
1000
0001
0010
,
1100
0001
0010
0100
,
0001
0010
1000
0100
,
0010
1000
0011
1010
,
0100
0001
0010
1000
,
0001
0010
0100
0001
,
0010
1000
0100
0001
,
1000
0010
0001
1000
,
0010
0001
1000
0010
,
0100
1000
0001
0100
,
0001
0000
0010
0000
0100
0000
1000
0002
,
0000
0000
0000
0000
0000
0003
0010
0100
,
0000
1000
0000
0100
0000
0011
0000
1100
,
0000
0010
0000
1000
0000
0101
0000
1010
,
0000
0001
0000
0001
0000
0011
0000
1010
,
0000
1000
0000
0010
0000
0000
0001
1000
,
0000
0010
0000
1000
0000
0101
0000
1100
,
0000
0010
0000
0001
0000
1001
0000
0110
,
0000
1000
0000
0000
0100
0000
0010
0002
,
0000
0000
0000
0000
,
0003
0000
0020
0000
0000
0000
0000
0030
,
2000
0000
3000
0000
0010
0000
0001
2000
,
0000
3000
0010
0000
0001
0000
1000
0000
,
0010
0001
0100
0010
,
0001
2000
0000
0000
,
3000
0000
0010
0000
0000
1100
0000
0011
,
0000
0100
0010
0001
,
0100
1000
0001
0010
,
0100
1000
0001
0100
,
0010
0001
1000
0100
,
0010
0001
1000
0100
,
1000
0010
0100
1000
,
0010
0001
1000
0010
,
0101
1000
0001
0100
,
0001
0010
1000
0001
,
0010
1000
0011
0101
,
1000
0000
0001
0000
0100
0000
0000
0020
,
0000
0000
0000
0030
,
0100
1000
0001
0010
,
0100
0001
1000
0100
,
0001
0010
1000
0001
,
0010
1000
0100
0010
,
1000
0001
0010
0100
,
0001
0010
1000
0001
,
0010
0000
1000
0000
0010
0000
0100
0001
,
0000
0010
0000
1100
0000
0011
0000
1100
,
0000
1010
0000
0010
0000
1000
0000
0110
,
0000
1001
0000
0100
0000
0010
0000
0011
,
0000
1100
0000
0002
0003
0000
1100
0110
,
0000
0001
0000
1000
0000
0101
0000
1010
,
0000
0100
0000
0010
0000
0001
0000
1000
,
0000
0010
0100
1000
,
0010
0000
0001
0000
0010
0000
0100
0010
,
0000
0001
0000
1000
0000
0001
0000
0100
,
0000
1000
0000
0010
0000
0100
0000
1000
,
0000
0010
0000
0001
0000
1000
0000
0010
,
0000
0100
0000
1000
0000
0000
0100
0100
,
0000
0001
0000
1000
0000
0010
0000
0001
,
0000
1000
0000
0001
0000
0100
0000
1000
,
0000
0010
0000
0001
0000
0000
0010
0100
;

//---------------dance-single - ----------------
#NOTES:
     dance-single:
     :
     Challenge:
     7:
     0.531,0.588,0.423,1,0.007:
0000
0011
0000
0000
,
1000
0010
0100
0000
0010
1000
0010
0100
,
0000
0010
1000
0001
0010
0001
0011
0000
,
0000
0001
1000
0010
0100
0010
2020
0000
,
3030
2200
0000
3300
,
1000
0001
0010
0001
1000
0001
0010
0022
,
0000
0000
0033
0001
1000
0100
1000
1100
,
0000
2000
0020
0000
0000
0000
0000
0000
,
0000
0000
0000
0000
0000
0000
0000
0000
3030
0000
0000
0000
1000
0100
0000
0000
,
1100
0100
1000
0010
0100
0010
1000
0022
,
0000
0033
1100
0110
,
0000
0010
0001
0100
0010
1000
0010
0220
,
0000
0330
1010
1100
,
0000
1000
0001
0010
0001
1000
0100
2200
,
3300
1000
0010
0220
0330
0100
0010
2020
,
3030
1000
0001
0022
0033
0010
0001
2002
,
3003
0001
1001
2200
,
3300
0010
0001
0010
0001
0100
0010
2020
,
0000
3030
0101
0011
,
0000
0010
0100
0010
0001
1000
0001
0100
,
0000
0202
0000
0303
0100
0000
0010
0000
,
0000
0100
0010
1000
0010
0100
0010
2020
,
3030
1000
0001
0202
0303
0001
1000
2200
,
3300
1000
0010
2020
3030
0010
0100
0202
,
0303
0001
0010
0000
0101
0000
0200
0002
,
0300
2000
0003
0002
3000
0200
0003
0002
,
0300
0200
0003
0020
0300
2000
0030
0200
,
3000
0020
0300
0002
0030
2000
0003
0020
,
3000
2000
0030
0002
3000
0000
2003
0200
,
3000
0020
0300
0200
0030
0020
0300
0002
,
0030
2000
0003
0020
3000
2000
0030
0001
,
0001
3001
0000
1000
0000
0000
0010
2020
,
3030
0010
1000
0000
,
1000
0010
2020
0000
0000
0000
3030
0000
,
0010
0000
0010
0000
0100
0010
0100
0101
,
0000
1000
0100
1000
0001
0001
0011
0001
,
1000
0010
1000
0010
1000
0202
0000
0000
,
0303
2200
0000
3300
,
1000
0000
1000
0000
0010
0100
0010
2020
,
0000
3030
0000
0010
1000
0001
0010
0011
,
0000
0000
0020
0000
0002
0000
0000
0000
0000
0000
0033
0000
1000
0001
0000
0000
,
1100
1000
0010
1000
0010
0100
0010
0220
,
0000
0330
0101
1100
,
0000
0100
1000
0001
0010
0001
1000
2200
,
0000
3300
0010
0100
,
0000
0010
1000
0001
0010
0001
0010
0022
,
0033
0010
0001
2200
3300
1000
0010
0220
,
0330
0100
0010
2020
3030
1000
0001
0220
,
0330
0010
0101
1001
,
0000
0001
1000
0010
1000
0100
1000
2200
,
0000
0000
0300
0002
,
3003
0001
0010
0001
0010
0001
0100
0101
,
0000
0110
0000
0000
0001
0000
0010
0000
,
0001
1000
0100
0010
0100
0010
0001
0022
,
0033
0001
1000
2200
3300
1000
0010
0220
,
0330
0100
0001
0202
0303
0001
1000
2200
,
3300
1000
0001
0000
0011
0000
0101
0000
,
0101
0000
1010
0000
0010
0000
2000
0020
,
3000
0200
0030
0020
0300
2000
0030
0002
,
3000
0200
0003
0020
0300
2000
0030
0002
,
3000
0200
0003
0020
0300
2000
0030
0002
,
3000
0020
0003
0200
0000
0330
0020
0200
,
0030
0020
0300
0002
0030
2000
0003
0020
,
3000
0200
0030
0002
0300
0020
0003
0100
,
0100
0130
0000
1000
0000
0000
0001
2002
,
0000
0000
3003
0000
0000
0000
0002
0200
,
0003
0020
0300
0200
0030
0020
0300
2000
,
0030
0020
3000
2000
0030
0200
3000
2000
,
0300
0020
3000
0200
0030
0002
0300
0020
,
0003
0002
0030
2000
0000
3003
0200
0020
,
0300
0200
0030
0002
0300
2000
0003
0200
,
3000
0020
0300
0002
0030
0200
0003
0010
,
0010
0020
0000
0000
0000
0000
0000
0000
,
0330
0000
0000
0000
;
