#TITLE:The Show;
#ARTIST:Hawk Nelson;
#BANNER:The Show - Hawk Nelson.PNG;
#BACKGROUND:The Show - Hawk Nelson-bg.PNG;
#LYRICSPATH:The Show - Hawk Nelson.lrc;
#CDTITLE:.\CDTITLES\DP2HAWK.png;
#MUSIC:The Show - Hawk Nelson.mp3;
#OFFSET:-1.418;
#SAMPLESTART:27.0;
#SAMPLELENGTH:12;
#BPMS:0=136.55;
#BGCHANGES:-0.27=The Show - Hawk Nelson.AVI=1.008=1=1=0,999=-=1=0=0=0;

//---------------dance-single - ----------------
#NOTES:
     dance-single:
     :
     Easy:
     2:
     0.193,0.223,0.100,0.033,0.007:
0000
0000
0000
0000
,
1000
0000
0010
0000
,
0001
0000
0100
0000
,
1000
0000
0010
0000
,
0001
0000
0010
0000
,
1000
0000
0100
0000
,
0001
0000
0010
0000
,
1000
0001
1000
0000
,
0001
1000
0001
0000
,
0010
0100
0010
0000
,
0010
0001
0010
0000
,
1000
0100
1000
0000
,
0001
0010
0001
0000
,
0010
1000
0010
0000
,
1000
0001
1000
0000
,
2020
0000
3030
0000
,
0001
0100
0001
0000
,
0011
0000
1000
0000
,
0001
0010
0100
0000
,
1001
0000
0010
0000
,
0001
0010
0001
0000
,
1100
0000
0001
0000
,
0010
1000
0010
0000
,
0100
0000
0001
0000
,
0100
0000
1000
0000
,
0010
0000
0001
0000
,
1000
0000
0010
0000
,
0001
0010
0001
0000
,
0010
0000
0100
0000
,
1000
0100
1000
0000
,
0001
0000
1000
0000
,
0010
0001
0010
0000
,
1000
0000
0010
0000
,
0001
1000
0001
0000
,
0010
0000
1000
0000
,
0022
0000
0033
0000
,
1000
0100
1000
0000
,
1010
0000
0100
0000
,
1000
0001
1000
0000
,
0101
0000
0010
0000
,
0010
0001
0010
0000
,
1100
0000
0010
0000
,
0001
0100
0001
0000
,
0020
0000
0000
0000
,
0030
0000
0000
0000
,
0001
0000
1000
0000
,
0010
0000
1000
0000
,
0001
0000
0010
0000
,
1000
0000
0001
0000
,
0010
0000
1000
0000
,
0001
0000
0010
0000
,
1000
0000
0001
0000
,
0010
0000
0001
0000
,
1000
0000
0010
0000
,
0001
0000
1000
0000
,
0010
0000
0001
0000
,
1000
0000
0010
0000
,
0001
0000
1000
0000
,
0010
0000
0001
0000
,
1000
0000
0010
0000
,
0001
0000
1000
0000
,
0010
0000
1000
0000
,
0001
0000
0010
0000
,
1000
0000
0001
0000
,
0010
0000
0001
0000
,
1000
0000
0010
0000
,
1000
0000
0010
0000
,
0001
0000
1000
0000
,
0001
0000
0001
0000
0001
0000
0001
0000
0000
0000
0000
0000
,
0110
0000
0001
0000
,
1000
0000
0100
0000
,
1010
0000
0100
0000
,
0001
0000
1000
0000
,
0011
0000
0100
0000
,
1000
0000
0001
0000
,
0110
0000
1000
0000
,
0001
0000
0100
0000
,
1001
0000
0100
0000
,
0010
0000
0001
0000
,
1100
0000
0010
0000
,
0001
0000
1000
0000
,
0101
0000
1000
0000
,
0010
0000
0001
0000
,
1000
0000
0100
0000
;

//---------------dance-single - ----------------
#NOTES:
     dance-single:
     :
     Hard:
     7:
     0.469,0.445,0.180,0.020,0.007:
0000
0000
0000
0000
,
0010
1000
0100
0001
1000
0010
0000
0001
,
0000
0010
0000
1000
0100
0000
0000
0000
,
1000
0000
0001
0000
0010
0000
0000
0001
,
0000
1000
0000
0100
0000
0010
0001
0100
,
1000
0010
0001
0010
0100
0000
0000
0001
,
0000
1000
0000
0100
0010
0001
0001
0000
,
1000
0010
0001
0100
1000
0000
0010
1000
,
0001
0000
1000
0000
0001
1000
0001
0010
,
0000
1000
0100
1000
0010
0000
1000
0000
,
0010
0000
0001
0000
0010
1000
0001
0000
,
1000
0001
0100
0001
1000
0000
0010
1000
,
0001
0000
0010
0000
0001
0010
1000
0000
,
0010
0001
1000
0001
0010
0000
0001
0000
,
1000
0000
0001
0000
1000
0001
0100
0000
,
2020
0000
0000
0000
3030
0000
0100
1000
,
0001
1000
0100
1000
0010
0000
1000
0000
,
0011
0000
0100
0001
1000
0000
0010
1000
,
0001
1000
0010
1000
0100
0000
0010
0000
,
1001
0100
0010
0100
,
0001
1000
0010
1000
0101
0000
0010
0000
,
1100
0000
0010
1000
0001
0000
1000
0001
,
0010
0001
1000
0001
0010
0000
0001
0000
,
1100
0000
0010
0000
0001
0000
0000
1100
,
0000
0000
0011
0000
1100
0010
0001
1000
,
0010
0001
1000
0100
0001
0010
0001
0000
,
1000
0100
0001
1000
0010
0001
1100
0000
,
0001
1000
0010
1000
0001
0000
1000
0001
,
0010
0001
0100
0001
,
1000
0000
0100
0001
1000
0000
0010
0000
,
0001
0000
0010
0000
1000
0100
0001
0000
,
0010
1000
0001
1000
0010
0000
0001
0010
,
1000
0000
0001
0000
0010
1000
0100
1000
,
0000
0010
1000
0010
0001
0000
1000
0000
,
0010
0000
0001
0000
1000
0001
0100
0000
,
0011
0000
1000
0000
0000
0000
0100
0001
,
1000
0001
0100
0010
1001
0000
0100
0000
,
1010
0000
0001
0000
0100
0000
0001
0010
,
1000
0100
0001
0010
1000
0000
0010
0000
,
0101
1000
0010
1000
,
0010
1000
0001
1000
0110
0000
0001
0000
,
1100
0000
0001
0000
0010
0000
1000
0010
,
0001
0010
0100
1000
0001
0000
0100
0000
,
0020
1000
1000
1000
,
1000
0000
1000
0000
1000
0000
1000
0030
,
0001
0000
0010
0100
1000
0010
0001
1000
,
0010
0100
0001
0010
1000
0000
0010
0000
,
0001
0000
1000
0001
0010
1000
0100
0001
,
1000
0001
0010
1000
0001
0000
1000
0000
,
0010
0000
0001
0010
1000
0100
0010
1000
,
0001
0010
1000
0100
0010
0000
0001
0000
,
1000
0000
0010
1000
0001
0010
1000
0100
,
0010
1000
0100
0000
0001
0000
0100
0000
,
1010
0000
0001
1000
0010
1000
0100
1000
,
0001
0010
0100
0000
1000
0000
0001
0000
,
0010
0000
0100
1000
0001
1000
0010
0010
,
1000
0010
0001
0000
0010
0000
0100
0000
,
0001
0000
0010
0001
1000
0001
0100
0001
,
0010
0001
0100
0000
0001
0000
0001
0010
,
0000
1000
0001
1000
0010
1000
0100
1000
,
0001
1000
0010
0000
1000
0000
0001
0000
,
0010
0000
0001
0010
1000
0010
0100
0010
,
0001
0010
1000
0100
0000
0000
0001
0000
,
1000
0000
0010
0100
0001
0100
1000
0100
,
0010
0001
0100
0000
0001
0000
0010
0000
,
1000
0000
0001
1000
0010
1000
0100
0010
,
1000
0100
0001
0000
0010
0000
0100
0000
,
0001
0000
1000
1000
1000
1000
0010
0100
,
0001
0000
0001
0000
0001
0000
0001
0000
0000
1000
0000
0000
,
0110
0000
1000
0000
0001
0000
0010
0100
,
1000
0010
0001
0100
1010
0000
0001
0000
,
1010
0000
0001
0000
0100
0000
0010
1000
,
0001
0010
0100
0001
1000
0000
0100
0000
,
0011
0000
1000
0000
0100
0000
0001
0010
,
1000
0100
0010
0100
0101
0000
1000
0000
,
0110
0000
0001
0000
1000
0000
0010
1000
,
0001
1000
0010
1000
0100
0000
0010
0000
,
1001
0010
0100
1000
,
0010
1000
0100
1000
0011
0000
0010
0000
,
1100
0000
0001
0000
0010
0000
1000
0010
,
0001
1000
0010
0001
1000
0000
0010
0000
,
0101
0010
1000
0001
,
0010
0100
1000
0010
0001
0100
0010
0000
,
1000
0001
0100
0000
;

//---------------dance-single - ----------------
#NOTES:
     dance-single:
     :
     Medium:
     5:
     0.329,0.306,0.140,0.033,0.007:
0000
0000
0000
0000
,
1000
0000
0001
0000
0010
0000
0000
0001
,
0000
0001
0000
0010
0100
0000
0000
0000
,
1000
0000
0001
0000
0010
0000
0000
0001
,
0000
1000
0000
0100
0000
0010
0000
0000
,
1000
0000
0001
0000
0100
0000
0000
0001
,
0000
1000
0000
0100
0010
0000
0000
0000
,
1000
0001
1000
0010
,
0001
1000
0001
1000
,
0010
0100
0010
1000
,
0010
0001
0010
0001
,
1000
0100
1000
0010
,
0001
0010
0001
1000
,
0010
1000
0010
0001
,
1000
0001
1000
0100
,
2020
0000
3030
0100
,
0001
0100
0001
1000
,
0011
0100
1000
0010
,
0001
0010
0100
0010
,
1001
0100
0010
0100
,
0001
0010
0001
0010
,
1100
0010
0001
1000
,
0010
1000
0010
0001
,
1100
0000
0010
0000
0001
0000
0000
1100
,
0000
0011
1100
0001
,
0010
1000
0001
0010
,
1000
0001
0010
1100
,
0001
0010
0001
1000
,
0010
0001
0100
0001
,
1000
0100
1000
0010
,
0001
0010
1000
0001
,
0010
0001
0010
0001
,
1000
0001
0010
0100
,
0001
1000
0001
1000
,
0010
0001
1000
0100
,
0022
0000
0033
0100
,
1000
0100
1000
0100
,
1010
0001
0100
0001
,
1000
0001
1000
0010
,
0101
1000
0010
1000
,
0010
0001
0010
0001
,
1100
0001
0010
1000
,
0001
0100
0001
0100
,
0020
0000
0000
0000
,
0030
1000
1000
1000
,
0001
0010
1000
0001
,
0010
0001
1000
0010
,
0001
1000
0010
0100
,
1000
0010
0001
1000
,
0010
0001
1000
0010
,
0001
1000
0010
0001
,
1000
0010
0001
1000
,
0010
0100
0001
0100
,
1010
0001
0010
0100
,
0001
0100
1000
0001
,
0010
0100
0001
0010
,
1000
0001
0010
0100
,
0001
0010
1000
0100
,
0010
0100
0001
0010
,
1000
0001
0010
0100
,
0001
0010
1000
0001
,
0010
0001
1000
0100
,
0001
1000
0010
0001
,
1000
0010
0001
1000
,
0010
0100
0001
0010
,
1000
0001
0010
0100
,
1000
0001
0010
0100
,
0001
1000
1000
0010
,
0001
0000
0001
0000
0001
0000
0001
0000
0000
1000
0000
0000
,
0110
1000
0001
0010
,
1000
0001
0100
0001
,
1010
0001
0100
0010
,
0001
0100
1000
0100
,
0011
1000
0100
0001
,
1000
0010
0001
1000
,
0110
0001
1000
0010
,
0001
0010
0100
0010
,
1001
0010
0100
1000
,
0010
0100
0001
0010
,
1100
0001
0010
1000
,
0001
0010
1000
0010
,
0101
0010
1000
0001
,
0010
1000
0001
0010
,
1000
0001
0100
0000
;

//---------------dance-single - ----------------
#NOTES:
     dance-single:
     :
     Challenge:
     8:
     0.520,0.532,0.380,0.013,0.007:
0000
0000
0000
0000
,
0000
0000
0010
0000
0001
0000
0000
1000
,
0000
1000
0000
0001
0010
0000
0000
0000
,
0000
0000
0011
0000
1001
0000
0000
1000
,
0000
1000
0000
0010
0000
0010
0100
0000
,
0001
1000
0001
1000
0001
0000
0001
0100
,
0000
0100
0010
0000
0110
0000
0100
0100
,
0001
0001
1000
0001
0100
0000
0000
0100
,
0001
0000
1000
0100
1000
1000
0010
0010
,
0000
0010
0100
0001
0100
0000
0001
0000
,
1000
0100
1000
0000
1000
0001
0000
0001
,
0000
0010
0001
1000
1000
0000
1000
0000
,
0010
0000
0010
0000
0100
0001
0000
1000
,
0000
0001
1000
0001
1000
0000
0100
0000
,
1000
0000
0010
0000
0100
0010
0000
0101
,
0000
0001
1000
0001
1001
0000
1000
0010
,
0100
0010
1000
0001
1000
0010
0000
1001
,
0000
0010
0001
0001
1001
0000
1000
0010
,
0100
0010
1000
0001
0011
0010
0000
0011
,
0000
0001
0001
0001
1001
0000
1000
0010
,
0100
0010
1000
0010
1010
0010
0000
0110
,
0000
0100
0001
1000
1001
0000
1000
0010
,
0100
0010
1000
0001
0011
0010
0000
0011
,
0000
0000
1001
0000
0011
0000
0000
1001
,
0000
0000
0011
0000
0011
0010
0001
1000
,
0100
0100
0100
1000
1010
0000
0010
0010
,
0000
0100
0010
1000
1001
0000
0101
0000
,
0011
0010
0001
0001
0001
0000
0000
1000
,
1000
0000
0100
0000
1000
0010
0000
0010
,
0000
0100
0010
0100
0001
0000
1000
0000
,
0001
0000
0001
0000
0010
0001
0000
1000
,
0000
1000
0100
1000
0010
0000
0100
0000
,
0010
0000
0010
0000
1000
0001
0000
0010
,
0000
0010
0100
0100
0100
0000
0010
0000
,
0100
0000
1000
0000
0001
0001
1000
1010
,
0000
1000
0010
0100
0110
0000
0100
0001
,
1000
0001
0100
0001
0101
0100
0000
0110
,
0000
0100
0001
1000
1001
0000
1000
0010
,
0100
0010
1000
0001
1001
1000
0000
1100
,
0000
0100
0010
0100
0110
0000
0010
0001
,
0010
0100
0010
0001
0011
0001
0000
0101
,
0000
0001
1000
0100
1100
0000
1000
0010
,
0100
0010
1000
0001
1001
0001
0000
0011
,
0000
0001
0001
1000
,
1000
0000
0001
0000
0001
0000
1000
0010
,
0000
0000
1000
0010
0100
0010
1000
0010
,
1000
0010
1000
0010
0000
0000
0100
0010
,
0000
0000
0100
0001
1000
0001
0100
0001
,
0001
0010
0001
0010
0000
0000
0100
0010
,
0000
0010
0001
0100
0010
0100
0001
1000
,
0001
1000
0100
0100
0000
0000
1000
0010
,
0000
0010
0100
0010
1000
0001
1000
0001
,
1000
0100
1000
0100
0000
0100
1000
0010
,
0000
0010
1000
0010
0100
0010
1000
0001
,
0001
0010
0001
0010
0000
0000
0100
0010
,
0000
0000
0001
1000
1000
0100
1000
0010
,
0100
0010
0100
0001
0000
0000
1000
0100
,
0000
0000
1000
0001
0010
0010
0001
0010
,
0001
1000
0100
1000
0000
0000
1000
0010
,
0000
0000
0010
0100
0010
1000
0001
1000
,
1000
0000
1000
0010
0000
0000
0010
0100
,
0000
0000
0100
0001
1000
0001
0010
0001
,
0001
0010
0001
0100
0000
0000
0010
0100
,
0000
0000
0100
0001
1000
0100
0100
1000
,
0010
0100
0010
1000
0000
0000
0011
0001
,
0000
0000
0100
0010
1000
0100
0010
0100
,
1000
0010
0100
0110
0000
0000
0101
1000
,
0000
0000
0001
0010
0001
0100
0010
0100
,
0110
0000
1001
0000
0101
0000
1010
0000
0000
0101
0000
0000
,
0001
0100
0010
0100
1001
0000
1000
0100
,
1000
0010
0100
0010
0110
0100
0000
0101
,
0000
0001
1000
0001
0101
0000
0001
0100
,
0010
0100
0001
1000
0011
0001
0000
0011
,
0000
0010
0001
0100
0101
0000
0001
1000
,
0001
0100
0010
0100
0110
0100
0000
0101
,
0000
1000
0100
1000
1100
0000
1000
0010
,
0100
0010
1000
0100
0110
0010
0010
0011
,
0000
0010
0001
0100
0010
0100
0001
0100
,
0001
1000
0001
0100
0001
0100
0001
0100
,
0010
0100
0010
0100
0010
1000
0010
1000
,
0010
0100
0010
1000
0100
0010
0100
0010
,
0001
0010
0001
0010
0100
0010
0100
0010
,
0001
0100
0010
0200
0002
0000
0000
0000
,
0000
0000
0000
0000
,
0303
0000
0000
0000
;
