#TITLE:Sunrise;
#ARTIST:Nichole Nordeman;
#BANNER:Sunrise - Nichole Nordeman.PNG;
#BACKGROUND:Sunrise - Nichole Nordeman-bg.PNG;
#LYRICSPATH:Sunrise - Nichole Nordeman.lrc;
#CDTITLE:.\CDTITLES\DP2NICH.png;
#MUSIC:Sunrise - Nichole Nordeman.mp3;
#OFFSET:-1.571;
#SAMPLESTART:71.86;
#SAMPLELENGTH:15.8;
#BPMS:0=118;

//---------------dance-single - ----------------
#NOTES:
     dance-single:
     :
     Easy:
     2:
     0.204,0.218,0.007,0.068,0:
0000
0000
0000
0000
,
1000
0001
1000
0000
,
1000
0001
1000
0000
,
1000
0001
1000
0000
,
1000
0001
1000
0000
,
1000
0001
1000
0000
,
1000
0001
1000
0000
,
0020
0030
0001
0000
,
1000
0010
1000
0000
,
0001
0010
0001
0000
,
1000
0010
1000
0000
,
0001
0010
0001
0000
,
1000
0010
1000
0000
,
0001
0010
0001
0000
,
1000
0010
1000
0000
,
0010
0001
0100
0000
,
1000
0010
1000
0000
,
0001
1000
0001
0000
,
0010
0001
0010
0000
,
1000
0010
1000
0000
,
0001
1000
0001
0000
,
0010
0001
0010
0000
,
1000
0010
1000
0000
,
0001
1000
0001
0000
,
1001
0100
1000
0020
,
0000
0030
1000
0000
0001
0000
0020
0000
,
0000
0030
0000
0000
0000
0000
0000
0000
,
1000
0010
0001
0000
,
0000
0000
0001
0010
,
1000
0000
1000
0010
,
0001
0000
0001
0010
,
1000
0000
1000
0010
,
0001
0000
0001
0010
,
1000
0000
1000
0010
,
0001
0000
0001
1000
,
0010
0000
0001
1000
,
0100
0000
0010
0001
,
0100
0000
0010
1000
,
0100
0000
0010
0001
,
1000
0000
0010
1000
,
0100
0000
1000
0002
,
0000
0000
0000
0000
,
0000
0003
0000
0000
0010
0000
1000
0000
,
0001
0000
0010
0001
,
0100
0000
0010
1000
,
0100
0000
0001
1000
,
0010
0000
0001
1000
,
0010
0000
1000
0001
,
0100
0000
0010
0001
,
1000
0000
1000
0010
,
0001
0000
0001
1000
,
0100
0000
0010
0001
,
1000
0000
1000
0010
,
0001
0000
0001
0020
,
0000
0030
1000
0010
,
1000
0000
0001
1000
,
0100
0000
0010
1000
,
0010
0000
0010
0002
,
0000
0003
0010
1000
,
0100
0000
1000
0001
,
0200
0000
0300
1000
,
0001
0000
0001
1000
,
0010
0000
0010
0002
,
0000
0003
0010
2000
,
0000
3000
1000
0001
,
0100
0000
0001
1000
,
0010
0000
1000
0010
,
0200
0000
0000
0300
0001
0000
0010
0000
,
0100
0000
1000
0010
,
0001
0000
0001
0010
,
1000
0000
1000
0010
,
0100
0000
0001
0010
;

//---------------dance-single - ----------------
#NOTES:
     dance-single:
     :
     Hard:
     6:
     0.309,0.291,0.243,0.101,0:
0000
0000
0000
0000
,
0010
0101
1000
0010
,
1000
0011
1000
0010
,
1000
0101
1000
0100
,
1000
0011
1000
0010
,
1000
0101
1000
0100
,
1000
0011
1000
0001
,
0020
1030
0001
0100
,
1000
0011
1000
0100
,
0001
1010
0001
0100
,
1000
0011
1000
0000
,
0001
1010
0001
0100
,
1000
0011
1000
0000
,
0001
1010
0001
0100
,
1000
0011
1000
0100
,
0010
1001
0100
0001
,
1000
0011
1000
0010
,
0001
1100
0001
1000
,
0010
0101
0010
0000
,
1000
0110
1000
0010
,
0001
1100
0001
1000
,
0010
0011
0010
0100
,
1000
0011
1000
0000
,
0001
1010
0001
0100
,
1001
0110
1000
0020
,
0000
0030
1000
0000
0001
0000
0020
0000
,
1000
0000
0000
0030
0000
0000
0000
0000
,
1000
0010
0001
1000
,
0010
1000
0001
0010
,
2000
3000
0100
0020
,
0001
0030
1000
0000
0001
0100
0010
0000
,
1000
0001
1000
0020
,
0000
0030
1000
0000
0001
0000
0010
0000
,
1000
0001
1000
0010
,
0001
0000
1000
0000
0001
0000
1000
0001
,
0010
0000
0100
0010
0001
0000
1000
0000
,
0100
0001
0010
0001
,
0100
0000
0002
0000
0010
0000
1000
0003
,
0100
1000
0010
0001
,
1000
0001
0010
1000
,
0100
0001
1000
0002
,
1000
0010
1000
0010
,
1000
0000
0000
0003
0010
0000
1000
0000
,
0011
0000
0010
0001
,
1100
0000
0010
1000
,
0101
0000
0000
0000
0001
0000
1000
0001
,
0110
2000
0001
3000
,
0011
0000
1000
0001
,
0110
1000
0010
0001
,
1001
0000
1000
0010
,
0101
1000
0001
1000
,
0101
1000
0010
0001
,
1100
0001
1000
0010
,
0101
1000
0001
0020
,
1000
0000
0000
0030
1000
0000
0010
0000
,
1000
0100
0001
1000
,
0100
0001
0010
1000
,
0010
1000
0010
0002
,
1000
0003
0010
1000
,
0100
0001
1000
0001
,
0200
0000
0001
0000
0300
0000
1000
0010
,
0001
1000
0100
0000
0001
0000
1000
0000
,
0110
1000
0010
0002
,
1000
0003
0010
2000
,
0001
3000
0000
0000
1000
0000
0001
0000
,
0100
0010
0001
1000
,
0010
0001
1000
0010
,
0200
0000
0000
0300
0001
0000
0010
1000
,
0100
0000
0001
0000
1000
0000
0010
1000
,
0001
1000
0001
0010
,
1000
0001
1000
0010
,
0100
1000
0001
0010
;

//---------------dance-single - ----------------
#NOTES:
     dance-single:
     :
     Medium:
     4:
     0.270,0.266,0.243,0.081,0:
0000
0000
0000
0000
,
1000
0101
1000
0000
,
1000
0011
1000
0000
,
1000
0101
1000
0000
,
1000
0011
1000
0000
,
1000
0101
1000
0000
,
1000
0011
1000
0000
,
0020
1030
0001
0000
,
1000
0011
1000
0000
,
0001
1010
0001
0000
,
1000
0011
1000
0000
,
0001
1010
0001
0000
,
1000
0011
1000
0000
,
0001
1010
0001
0000
,
1000
0011
1000
0000
,
0010
1001
0100
0000
,
1000
0011
1000
0000
,
0001
1100
0001
0000
,
0010
0101
0010
0000
,
1000
0110
1000
0000
,
0001
1100
0001
0000
,
0010
0011
0010
0000
,
1000
0011
1000
0000
,
0001
1010
0001
0000
,
1001
0110
1000
0020
,
0000
0030
1000
0000
0001
0000
0020
0000
,
1000
0000
0000
0030
0000
0000
0000
0000
,
1000
0010
0001
1000
,
0000
0000
0001
0010
,
2000
0000
0000
3000
0100
0000
0010
0000
,
0001
1000
0001
0010
,
1000
0001
1000
0020
,
0000
0030
1000
0000
0001
0000
0010
0000
,
1000
0001
1000
0010
,
0001
1000
0001
1000
,
0010
0100
0001
1000
,
0100
0001
0010
0001
,
0100
0001
0010
1000
,
0100
1000
0010
0001
,
1000
0001
0010
1000
,
0100
0001
1000
0002
,
1000
0000
1000
0000
,
1000
0003
0000
0000
0010
0000
1000
0000
,
0011
0000
0010
0001
,
1100
0000
0010
1000
,
0101
0000
0001
1000
,
0110
0000
0001
1000
,
0011
0000
1000
0001
,
0110
0000
0010
0001
,
1001
0000
1000
0010
,
0101
0000
0001
1000
,
0101
0000
0010
0001
,
1100
0000
1000
0010
,
0101
0000
0001
0020
,
1000
0000
0000
0030
1000
0000
0010
0000
,
1000
0100
0001
1000
,
0100
0001
0010
1000
,
0010
1000
0010
0002
,
1000
0000
0000
0003
0010
0000
1000
0000
,
0100
0001
1000
0001
,
0200
0001
0300
1000
,
0001
0100
0001
1000
,
0110
0000
0010
0002
,
1000
0003
0010
2000
,
0001
3000
1000
0001
,
0100
0010
0001
1000
,
0010
0001
1000
0010
,
0200
0300
0001
0010
,
0100
0001
1000
0010
,
0001
1000
0001
0010
,
1000
0001
1000
0010
,
0100
1000
0001
0010
;

//---------------dance-single - ----------------
#NOTES:
     dance-single:
     :
     Challenge:
     7:
     0.489,0.438,0.351,0.027,0:
0000
0000
1000
0001
,
0010
0000
0001
1000
0000
1000
0010
0000
,
1000
0010
0100
0100
0000
0100
0010
0000
,
0100
0001
1000
1000
0000
0001
1000
0001
,
0010
0001
0001
1000
0000
1000
0100
0000
,
0100
1000
0010
0010
0000
0010
0100
0000
,
0100
0001
0001
1000
0000
1000
0001
0000
,
0010
0001
1000
0001
1000
0001
1000
0001
,
1000
0001
1000
0001
1000
0001
1000
0000
,
0010
0100
0010
0100
0010
0100
0010
0100
,
0010
0100
0010
0100
0010
0100
0010
0000
,
0100
0001
0100
0001
0100
0001
0100
0001
,
0100
0001
0100
0001
0100
0001
0100
0000
,
0001
1000
0001
1000
0001
0100
0001
0100
,
0001
1000
0001
1000
0100
1000
0100
1000
,
1001
0000
1000
0000
1010
0010
0010
0000
,
0110
0000
0100
0000
0101
0001
0001
0000
,
1001
0000
1000
0000
1001
0010
0010
0000
,
0011
0000
0001
0000
0101
0001
0001
0000
,
0101
0000
1000
0000
1010
0010
0010
0000
,
0110
0000
0100
0000
0110
0010
0010
0000
,
1010
0000
1000
0000
1100
1000
1000
0000
,
1100
0000
1000
0000
1001
0001
0001
0000
,
0010
0001
0010
0000
0010
0001
0100
0000
,
0001
1000
0001
0001
1000
0010
0110
0000
,
0010
1000
0010
0010
0100
0010
1001
0000
,
0001
0001
0100
0001
1000
0100
1100
0000
,
1000
0010
0010
0100
0010
1000
1001
0000
,
0001
0010
0001
0001
0100
0010
0110
0000
,
0100
0001
1000
1000
0100
0010
0110
0000
,
0010
0001
0100
0100
0001
0010
0011
0000
,
0010
0001
0100
0001
1000
0001
0101
0000
,
0100
0010
0100
0100
0010
1000
1010
0000
,
1000
0100
1000
1000
1000
0001
0101
0000
,
0001
1000
0001
0001
0010
0001
0011
0000
,
0001
0100
0001
0001
1000
0100
1001
0000
,
0001
0010
0010
0001
0100
0010
0110
0000
,
0100
0001
1000
1000
0100
0010
0110
0000
,
0010
0001
0100
0001
0001
1000
1001
0000
,
0001
0010
0010
0001
0100
0010
0010
1000
,
0010
0100
0100
0010
1000
0010
0110
0000
,
0001
0000
1000
0001
1000
0000
0010
0100
,
0010
0000
1000
0001
1000
0000
0010
0000
,
0100
0000
0001
1000
0001
0000
0010
0001
,
0010
0000
0001
1000
0001
0000
0100
0000
,
0010
0100
0100
0000
0001
1000
1000
0000
,
0001
0010
0010
0000
0001
0100
0100
0000
,
0001
1000
1000
0000
0001
0010
0010
0000
,
0100
0010
0010
0000
0001
0100
0100
0000
,
0010
1000
0010
0100
0010
1000
0010
0100
,
0010
1000
0010
0100
0010
1000
0010
0000
,
0100
0001
1000
0001
0100
0001
1000
0001
,
0100
0001
1000
0001
0100
0001
1000
0000
,
0001
0001
0100
0001
0001
0010
0001
0000
,
0100
0100
0010
1000
0010
0010
0100
0000
,
0001
0001
1000
0100
0100
1000
0010
0000
,
1000
1000
0100
0010
0010
0100
0010
0000
,
0100
0100
0010
0001
0001
0010
0001
0000
,
0100
0010
0100
0010
1000
0001
0001
0000
,
0100
0010
1000
0100
0010
0010
0100
0000
,
1000
0001
1000
0100
0010
0010
0100
0000
,
1000
0001
0001
1000
0100
0010
0100
0000
,
2002
0000
3003
0010
0000
0010
0100
0000
,
0110
0000
0100
0001
0000
0001
1000
0000
,
1001
0000
0001
0010
0000
0010
0001
0000
,
0101
0010
0100
0001
1000
0001
0100
0000
,
1001
0000
0001
1001
0000
1000
1010
0000
,
1010
0000
0010
0110
0000
0100
0101
0000
,
1001
0000
0001
0101
0000
0100
0110
0000
,
0101
0000
0001
1001
0000
1000
1001
0000
,
0011
0000
0010
0011
0000
0001
0101
0000
,
2002
0000
0000
0000
,
3003
0000
0000
0000
;
