#TITLE:Rescue Me;
#ARTIST:Inhabited;
#BANNER:Rescue Me - Inhabited.PNG;
#BACKGROUND:Rescue Me - Inhabited-bg.PNG;
#LYRICSPATH:Rescue Me - Inhabited.lrc;
#CDTITLE:.\CDTITLES\DP2IN.png;
#MUSIC:Rescue Me - Inhabited.mp3;
#OFFSET:-2.235;
#SAMPLESTART:42.2;
#SAMPLELENGTH:12;
#BPMS:0=102.02;
#BGCHANGES:0=Rescue Me - Inhabited.AVI=1=1=1=0,999=-=1=0=0=0;

//---------------dance-single - ----------------
#NOTES:
     dance-single:
     :
     Easy:
     2:
     0.171,0.188,0.043,0.022,0:
0000
0000
0000
0000
,
1001
0000
0100
0000
,
0010
0000
0001
0000
,
1000
0000
0010
0000
,
0001
0000
1000
0000
,
0010
0000
0001
0000
,
1000
0000
0010
0000
,
0001
0000
1000
0000
,
0010
0000
0100
0000
,
1000
0001
1000
0000
,
0001
1000
0001
0000
,
0010
1000
0010
0000
,
0001
1000
0001
0000
,
0010
0010
0010
0000
,
0001
1000
0001
0000
,
1000
0001
1000
0000
,
0001
0000
0000
0000
,
1010
0100
0000
0000
,
0001
0001
1100
0001
,
0010
0010
0010
0000
,
0001
0001
0001
0000
,
0010
0010
0010
0000
,
1000
1000
1000
0000
,
0010
1000
0010
0000
,
1000
0001
1000
0000
,
0010
0001
1100
0010
,
0002
0000
0003
0000
,
0010
1000
0000
0000
,
0001
1000
0001
0000
,
0010
0001
0010
0000
,
1000
0001
1000
0000
,
0010
1000
0010
0000
,
1000
0001
1000
0000
,
0010
1000
0010
0000
,
0001
1000
0001
0000
,
0010
0001
0010
0000
,
1000
0001
1000
0000
,
0001
1000
0011
0100
,
0010
0001
0010
0000
,
1000
0001
1000
0000
,
0010
1000
0010
0000
,
0001
1000
0001
0000
,
0010
0001
0010
0000
,
1000
0001
1000
0000
,
0010
1000
0011
0100
,
0002
0000
0003
0000
,
0010
0100
0000
0000
,
1000
0001
1000
0000
,
0010
1000
0010
0000
,
0001
1000
0001
0000
,
0010
0001
0010
0000
,
1000
0001
1000
0000
,
0010
1000
0010
0000
,
0001
1000
0001
0000
,
0010
0001
0010
0000
,
1000
0010
1000
0000
,
0001
1000
0001
0000
,
0020
0000
0000
0030
;

//---------------dance-single - ----------------
#NOTES:
     dance-single:
     :
     Hard:
     6:
     0.402,0.376,0.116,0.022,0:
0000
0000
0000
0000
,
1001
0100
0010
0001
1100
0001
0010
0000
,
0010
1000
0100
1000
0001
1000
0010
0000
,
1000
0010
0001
1000
0010
0001
0100
0000
,
0001
1000
0010
0001
1000
0001
0100
0000
,
0010
1000
0100
1000
0001
0010
1000
0000
,
0001
0010
1000
0001
0010
0001
0100
0000
,
0010
1000
0100
0001
1000
0010
0001
0000
,
0010
1000
0001
0010
0100
0010
0001
0000
,
1000
0010
0001
0010
1000
0010
0001
0000
,
0001
0100
1000
0100
0001
0100
1000
0000
,
0010
0001
1000
0001
0010
0001
1000
0000
,
0001
0010
1000
0010
0001
0010
1000
0000
,
0010
1000
0010
0001
0010
1000
0010
0000
,
0001
0100
1000
0010
0001
0100
1000
0000
,
1000
0001
1000
0001
1000
0001
1000
0000
,
0001
0000
0000
0000
,
1010
0001
0110
1000
0011
0000
1000
0011
,
1000
0110
0001
0000
1100
0001
1100
0000
,
0010
0010
0010
0000
0010
0010
0010
0000
,
0001
1000
0001
0000
0001
1000
0001
0000
,
0010
0100
0010
0000
0010
0100
0010
0000
,
1000
0010
1000
0000
1000
0010
1000
0000
,
0010
0100
1000
0001
0010
0100
1000
0000
,
1000
0010
0001
0010
1000
0010
0001
0000
,
0010
1000
0001
0010
1100
0001
1010
0100
,
0002
0000
0010
0000
0000
0003
1000
0001
,
0010
0100
1000
0001
0010
0000
1000
0000
,
0001
0100
1000
0100
0001
0100
1000
0000
,
0010
1000
0001
1000
0010
1000
0001
0000
,
1000
0010
0001
0010
1000
0010
0001
0000
,
0010
0100
1000
0100
0010
0100
1000
0000
,
1000
0001
1000
0001
1000
0001
1000
0000
,
0010
0100
0010
0100
0010
0100
0010
0000
,
0001
0100
1000
0100
0001
0100
1000
0000
,
0010
1000
0001
1000
0010
1000
0001
0000
,
1000
0010
0001
0010
1000
0010
0001
0000
,
0101
0010
1000
0100
0011
0100
0011
0000
,
0010
1000
0001
1000
0010
1000
0001
0000
,
1000
0100
0001
0100
1000
0100
0001
0000
,
0010
0001
1000
0001
0010
0001
1000
0000
,
0001
0010
1000
0010
0001
0010
1000
0000
,
0010
1000
0001
1000
0010
1000
0001
0000
,
1000
0010
0001
0010
1000
0010
0001
0000
,
0010
0001
1000
0100
0011
0100
0011
0100
,
0002
0000
0003
0000
,
0010
0100
0010
0000
,
1000
0010
0001
0010
1000
0010
0001
0000
,
0010
0100
1000
0100
0010
0100
0010
0000
,
0001
0010
1000
0010
0001
0010
1000
0000
,
0010
1000
0001
1000
0010
1000
0001
0000
,
1000
0100
0001
0100
1000
0100
0001
0000
,
0010
0001
1000
0001
0010
0001
1000
0000
,
0001
0010
1000
0010
0001
0010
1000
0000
,
0010
1000
0001
1000
0010
1000
0001
0000
,
1000
0001
0010
0001
1000
0001
0010
0000
,
0001
0010
1000
0010
0001
0010
1000
0000
,
0020
0000
0000
0030
;

//---------------dance-single - ----------------
#NOTES:
     dance-single:
     :
     Medium:
     3:
     0.236,0.230,0.080,0.022,0:
0000
0000
0000
0000
,
1001
0010
0100
0001
,
0010
0100
0001
0010
,
1000
0001
0010
0100
,
0001
0010
1000
0100
,
0010
0100
0001
1000
,
0001
1000
0010
0100
,
0010
0100
1000
0001
,
0010
0001
0100
0001
,
1000
0001
1000
0001
,
0001
1000
0001
1000
,
0010
1000
0010
1000
,
0001
1000
0001
1000
,
0010
0010
0010
0010
,
0001
1000
0001
1000
,
1000
0001
1000
0001
,
0001
0000
0000
0000
,
1010
0100
0011
1000
,
0001
0001
1100
0011
,
0010
0010
0010
0010
,
0001
0001
0001
0001
,
0010
0010
0010
0010
,
1000
1000
1000
1000
,
0010
1000
0010
1000
,
1000
0001
1000
0001
,
0010
0001
1100
1010
,
0002
0000
0000
0000
0000
0003
0000
0000
,
0010
1000
0010
1000
,
0001
1000
0001
1000
,
0010
0001
0010
0001
,
1000
0001
1000
0001
,
0010
1000
0010
1000
,
1000
0001
1000
0001
,
0010
1000
0010
1000
,
0001
1000
0001
1000
,
0010
0001
0010
0001
,
1000
0001
1000
0001
,
0001
1000
0011
1100
,
0010
0001
0010
0001
,
1000
0001
1000
0001
,
0010
1000
0010
1000
,
0001
1000
0001
1000
,
0010
0001
0010
0001
,
1000
0001
1000
0001
,
0010
1000
0011
1100
,
0002
0000
0003
0000
,
0010
0100
0010
0000
,
1000
0001
1000
0001
,
0010
1000
0010
0000
,
0001
1000
0001
1000
,
0010
0001
0010
0001
,
1000
0001
1000
0001
,
0010
1000
0010
1000
,
0001
1000
0001
1000
,
0010
0001
0010
0001
,
1000
0010
1000
0010
,
0001
1000
0001
1000
,
0020
0000
0000
0030
;

//---------------dance-single - ----------------
#NOTES:
     dance-single:
     :
     Challenge:
     6:
     0.391,0.397,0.188,0.116,0.029:
0000
0000
0000
0000
,
0010
0000
1000
0000
0001
0010
0001
0000
,
1000
0000
0100
0000
1000
0010
1000
0000
,
0010
0000
0100
0000
0001
1000
0001
0000
,
1000
0000
0100
0000
1000
0001
1000
0000
,
0010
0000
0100
0000
0010
1000
0001
0000
,
1000
0000
0001
0000
0100
0001
0010
0000
,
0001
0000
0010
0000
0100
0010
0001
0000
,
0010
0000
0001
0000
1000
0001
0100
0000
,
0010
0000
1000
0000
0001
0100
0001
0100
,
0001
0000
1000
0000
0100
1000
0100
1000
,
0010
0000
0100
0000
0010
1000
0001
0001
,
1000
0100
1000
0010
0020
0000
0200
0330
,
0100
0000
0001
0000
1000
0100
1000
0000
,
0010
0000
0100
0000
0010
1000
0001
0000
,
0010
0001
0010
0001
1000
0100
1000
0000
,
0100
1000
0001
1000
0002
0000
0200
0303
,
0100
0010
1000
0001
0001
0000
1000
1000
,
0000
0000
0100
1000
0000
1000
0001
0000
,
0010
0001
0010
0100
0010
0100
0010
0001
,
1000
1000
0100
1000
0001
0001
0010
0001
,
0010
0001
0010
0001
0010
0000
0010
0000
0001
0000
0001
0000
1000
0000
0100
0000
,
0100
1000
1001
0000
0001
0001
0011
0000
,
0001
1000
0001
1000
0100
0100
1000
0000
,
0010
0010
0110
0000
0010
0010
1010
0000
,
0001
0001
1000
1000
0001
0100
0020
0000
,
0200
0030
0002
0300
,
2000
0003
0002
3000
,
1003
0000
0010
0100
0010
0010
1000
0000
,
0001
0000
0010
0010
0001
1000
0100
0000
,
1000
1000
0010
0000
0100
0100
0010
0000
,
1000
0000
0000
1000
0000
0000
0001
0000
0001
0000
0000
0000
0011
0000
0000
0000
,
0001
0001
1000
0100
1000
1000
0001
0000
,
0010
0001
0010
0010
0001
1000
0100
0000
,
1000
1000
0010
0010
1000
0001
0010
0000
,
0001
0001
0100
0100
0001
0010
0001
0000
,
1000
0001
1000
0001
1000
0010
1000
0001
,
0001
0010
0001
0001
0000
0001
0100
0001
,
0100
0010
0010
0100
0010
0100
0001
0001
,
1000
0001
0100
0100
0010
0100
0001
1000
,
0100
1000
0100
1000
0100
0000
1000
0000
1000
0000
0010
0000
0100
0000
0010
0000
,
0010
1000
1001
0000
0001
0001
0011
0000
,
0001
1000
0100
0100
2000
0000
0002
3003
,
0010
0010
1001
0000
1000
1000
1010
0000
,
0100
0010
1000
1000
0002
0000
0020
0003
,
0200
0030
0010
0000
0000
0000
0010
0000
,
0000
0010
0000
0010
,
0301
1000
0000
0000
1000
0000
0100
0000
0100
0000
1000
0000
1001
0000
0000
0000
,
0100
0000
0100
0010
0010
0100
0101
0000
,
0001
1000
0000
0000
1000
0000
0100
0000
1000
0000
0010
0000
0110
0000
0000
0000
,
0010
0000
1000
0001
1000
0001
0101
0000
,
1000
0001
0000
0000
1000
0000
0100
0000
1000
0000
0010
0000
0110
0000
0000
0000
,
0010
0000
1000
0001
1000
0010
1010
0000
,
0010
0000
0100
0010
1000
0001
0010
0001
,
0011
0000
0001
0010
0001
0100
0101
0000
,
0011
0011
0110
0110
,
0011
0011
1001
1100
,
2020
0000
0000
3030
;
