#TITLE:Praise You In This Storm;
#ARTIST:Casting Crowns;
#BANNER:Praise You In This Storm - Casting Crowns.png;
#BACKGROUND:Praise You In This Storm - Casting Crowns-bg.png;
#LYRICSPATH:Praise You In This Storm - Casting Crowns.lrc;
#CDTITLE:.\CDTITLES\DP2CROWN1.png;
#MUSIC:Praise You In This Storm - Casting Crowns.mp3;
#OFFSET:-2.286;
#SAMPLESTART:61.94;
#SAMPLELENGTH:12;
#BPMS:0=82;
#BGCHANGES:-0.75=Praise You In This Storm - Casting Crowns.AVI=0.956=1=1=0,999=-=1=0=0=0;

//---------------dance-single - ----------------
#NOTES:
     dance-single:
     :
     Easy:
     1:
     0.108,0.133,0.064,0.043,0.000:
0000
0000
0100
0000
,
0011
0000
1000
0000
,
0110
0000
0001
0000
,
1100
0000
0001
0000
,
0010
0000
1000
0000
,
0001
0000
0100
0000
,
0010
0000
0001
0000
,
1000
0000
0010
0000
,
0001
0000
0100
0000
,
0010
0000
0001
0000
,
1000
0000
0100
0000
,
0001
0000
1000
0000
,
0010
0000
0100
0002
,
0000
0003
1000
0000
,
0001
0000
0010
0000
,
1000
0000
0001
0000
,
0010
0000
1000
0000
,
0010
0000
0100
0000
,
0001
0000
0010
0000
,
1000
0000
0001
0000
,
0110
0000
1000
0000
,
0110
0000
1000
0000
,
1001
0000
0010
0000
,
1000
0000
0100
0000
,
0011
0000
0010
0000
,
1100
0000
0001
0000
,
1010
0000
0100
0000
,
0010
0000
0001
0000
,
2000
0000
0000
3000
,
0001
0000
1000
0000
,
0020
0000
0000
0000
,
2030
3000
0010
0000
,
0001
0000
1000
0000
,
0010
0000
0001
0000
,
1000
0000
0010
0000
,
0001
0000
0100
0000
,
1000
0000
0010
0000
,
0001
0000
1000
0000
,
0010
0000
0001
0000
,
1000
0000
0100
0000
,
0001
0000
2000
3000
,
0010
0000
0001
0000
,
0010
0000
0010
0000
,
1000
0000
0100
0000
,
0001
0000
0200
0300
,
0010
0000
0100
0000
,
0001
0000
0100
0000
,
0010
0000
0000
0000
;

//---------------dance-single - ----------------
#NOTES:
     dance-single:
     :
     Hard:
     5:
     0.322,0.333,0.170,0.099,0.000:
0000
0000
0100
1000
,
0011
1000
0100
0000
1000
0000
0001
0000
,
0110
0001
1000
0000
0001
0000
0010
0000
,
1100
0001
0010
0000
0001
0000
1000
0000
,
0011
1000
0010
0000
1000
0001
0100
0010
,
0001
0000
1000
0001
0100
0001
0010
0001
,
0010
0000
0100
1000
0001
1000
0000
0010
,
0000
1000
0100
0000
0010
0001
0100
1000
,
0001
0010
1000
0000
0100
0001
0010
0001
,
0010
0000
0001
0000
0001
0010
1000
0001
,
1000
0000
0100
0000
0100
0020
0000
0032
,
0000
2003
0000
3000
0001
0000
0010
0000
,
0010
0001
0100
1000
0100
0000
0002
0000
,
1000
0013
0100
0010
1000
0000
0010
1000
,
0001
0000
0100
0000
0010
2000
0000
3002
,
0003
2000
0000
3000
0001
0000
0100
0000
,
0010
1000
0001
0010
1000
0000
0010
0000
,
0010
0001
1000
0000
0100
0010
1000
0010
,
0002
0000
1003
0000
0010
0001
0100
0001
,
1000
0010
0001
1000
,
0110
1000
0001
0010
1000
0010
0001
1000
,
0110
1000
0001
0100
1000
0001
0010
0100
,
1001
0010
0100
0000
0010
1000
0100
0010
,
1001
0100
0010
0000
0100
0010
1000
0100
,
0011
1000
0100
0000
0010
1000
0001
0010
,
1100
0001
0010
0000
0001
1000
0100
0001
,
1010
0100
0001
0000
0100
0001
1000
0100
,
0011
0100
1000
0000
0001
0010
0100
0001
,
2000
0000
0001
0000
0000
3000
0100
0000
,
0011
1000
0100
0001
1000
0001
0100
1000
,
0020
0000
1000
0000
,
2030
0000
0000
3000
0010
0000
0100
0000
,
0011
1000
0100
0000
1000
0010
0001
1000
,
0110
0001
1000
0000
0001
1000
0010
0001
,
1100
0010
0001
0000
0010
0001
1000
0100
,
0011
0100
1000
0000
0010
1000
0100
0001
,
1010
0100
0001
1000
0010
1000
0100
1000
,
0011
1000
0100
0000
1000
0010
0001
0100
,
1010
0001
0100
0000
0001
1000
0010
0100
,
1001
0100
0010
0000
0100
0000
0010
0000
,
0101
1000
0010
0001
2000
0000
3000
0000
,
0011
0100
1000
0000
0001
0010
0100
0001
,
1010
0001
0100
0000
0010
0001
0100
0001
,
1000
0100
0001
0000
0100
0000
0010
0000
,
0001
1000
0010
0001
0200
0000
0000
0300
,
0010
1000
0001
0000
0100
1000
0010
1000
,
0002
0000
1003
0000
0100
0010
0001
1000
,
0010
0000
0000
0000
;

//---------------dance-single - ----------------
#NOTES:
     dance-single:
     :
     Medium:
     3:
     0.212,0.200,0.163,0.043,0.000:
0000
0000
0100
1000
,
0011
0100
1000
0001
,
0110
1000
0001
0010
,
1100
0010
0001
1000
,
0010
0010
1000
0100
,
0001
1000
0100
0010
,
0010
0100
0001
0010
,
1000
0100
0010
0100
,
0001
1000
0100
0010
,
0010
0001
0001
1000
,
1000
0100
0100
0001
,
0001
1000
1000
0010
,
0010
0100
0100
0002
,
0000
0003
0010
0000
1000
0000
0010
0000
,
0001
0100
0010
0001
,
1000
0010
0001
0100
,
0010
0001
1000
0010
,
0010
1000
0100
1000
,
0001
1000
0010
0100
,
1000
0010
0001
1000
,
0110
0001
1000
0001
,
0110
0001
1000
0010
,
1001
0100
0010
0100
,
1001
0010
0100
1000
,
0011
0100
0010
0001
,
1100
0010
0001
0100
,
1010
0001
0100
1000
,
0011
1000
0001
0100
,
2000
0000
0001
0000
0000
3000
0100
0000
,
0011
0100
1000
0100
,
0020
0000
1000
0000
,
2030
3000
0010
0100
,
0011
0100
1000
0001
,
0110
1000
0001
0010
,
1100
0001
0010
1000
,
0011
1000
0010
0100
,
1010
0001
0010
0100
,
0011
0100
1000
0001
,
1010
0100
0001
0010
,
1001
0010
0100
0010
,
0101
0010
2000
3000
,
0011
1000
0001
0100
,
1010
0100
0010
0100
,
1000
0001
0100
0010
,
0001
0010
0200
0300
,
0010
0001
0100
0010
,
0001
1000
0100
0001
,
0010
0000
0000
0000
;

//---------------dance-single - ----------------
#NOTES:
     dance-single:
     :
     Challenge:
     5:
     0.291,0.285,0.092,0.269,0.071:
1010
0000
0001
0010
0000
0010
0001
0000
,
1001
0000
1000
0010
0000
0010
0100
0000
,
0110
0000
0100
0001
0000
0001
1000
0000
,
1100
0000
1000
0010
0000
0010
1000
0000
,
1001
0000
1000
0010
1000
0010
1000
1000
,
0010
0000
0100
0000
0001
0001
0010
0010
,
0200
0000
1300
0000
1000
0010
0000
0010
,
0000
0000
0010
0100
0000
0000
0000
0000
0000
0000
0100
0000
0001
0000
0001
1000
,
0000
0000
0100
0000
0100
0000
0000
0000
1000
0000
0010
0000
0010
0000
0010
0100
,
0000
0000
0100
0000
0100
0001
0001
1000
,
0001
0000
0000
0000
0010
0010
0000
0002
,
0000
2000
0000
0000
0000
0000
3003
0000
,
1000
0000
0010
0100
0000
0000
0010
0000
0010
0000
0000
0000
1000
0000
0000
0000
,
0001
0001
0010
0000
0001
1000
0100
1000
,
0020
0000
0030
0000
0200
0000
0000
0000
0300
0000
0002
0000
0000
0000
2000
0003
,
0000
0200
0000
0000
3300
0000
0000
0000
,
1000
0000
0010
0100
0000
0000
0010
0000
1000
0000
0000
0000
0001
0000
0000
0000
,
0010
0010
0100
0000
0010
0001
0001
1000
,
0200
0000
0000
0000
0300
1000
0010
0010
,
0200
0000
0000
0000
0000
0000
0000
0300
,
0100
0000
0010
0000
0010
0000
1000
0000
0001
0000
1000
0010
0000
0100
0000
0020
,
0000
0000
0000
0030
0100
0010
0100
0001
,
2000
0000
0000
3000
0100
1000
0010
0100
,
0020
0000
0030
1000
1001
0000
0001
0010
,
0002
0000
0000
0003
1000
0100
0100
1000
,
0020
0000
0000
0000
0000
0000
0030
0000
1000
0001
0000
1000
0000
0010
0000
0200
,
0000
0000
0000
0300
0010
0010
1000
0001
,
0020
0000
0000
0030
0001
0001
1000
0100
,
2002
0000
0003
0001
,
0020
0000
0000
0000
0000
0000
3030
0000
0100
0000
0001
1000
0000
0000
0001
0000
,
0200
0000
0000
0000
,
0002
0000
0000
0000
0000
0000
0000
0303
,
1000
0000
1000
0001
0000
0000
0100
0000
0001
0000
1000
0000
0001
0000
1000
0000
,
0100
0000
0100
1000
0000
0000
0010
0000
0100
0000
0010
0000
1000
0000
0001
0000
,
0010
0000
0010
0001
0000
0000
0001
0000
1000
0000
0200
0000
0000
0000
0020
0000
,
0330
0110
0000
0000
1001
1000
0100
1000
,
0010
0000
0010
0100
0000
0000
0100
0000
0001
0000
1000
0000
0001
0000
1000
0000
,
0100
0000
0100
1000
0000
0000
1000
0000
0010
0000
0100
0000
0010
0000
1000
0000
,
0001
0000
0010
0001
0000
0000
0010
0000
0001
0000
2000
0000
0000
0000
0020
0000
,
3030
0110
0000
0100
0010
1000
0002
0000
,
2000
0003
0020
3030
,
1000
0001
0010
0000
0010
0001
1000
0100
,
2002
0000
0000
0000
3003
2000
0000
0020
,
3000
0200
0000
0000
0000
0000
0330
0000
,
0100
0000
0010
1000
0000
0000
0001
0000
0010
0000
0000
0000
0001
0000
0000
0000
,
1000
0100
1000
0000
0010
0100
0010
1000
,
2002
0000
0000
0000
3003
0010
1000
0001
,
2002
3003
0000
0000
;
