#TITLE:Open My Eyes;
#ARTIST:Inhabited;
#BANNER:Open My Eyes - Inhabited.PNG;
#BACKGROUND:Open My Eyes - Inhabited-bg.PNG;
#LYRICSPATH:Open My Eyes - Inhabited.lrc;
#CDTITLE:.\CDTITLES\DP2IN.png;
#MUSIC:Open My Eyes - Inhabited.mp3;
#OFFSET:-1.852;
#SAMPLESTART:50.22;
#SAMPLELENGTH:12;
#BPMS:0=157;
#BGCHANGES:0=Open My Eyes - Inhabited.AVI=1=1=1=0,999=-=1=0=0=0;

//---------------dance-single - ----------------
#NOTES:
     dance-single:
     :
     Easy:
     1:
     0.188,0.192,0.016,0,0:
0000
0000
0000
0000
,
0001
1000
0000
0000
,
0010
0100
0000
0000
,
1001
0010
0000
0000
,
0001
1000
0001
0000
,
0001
1000
0000
0000
,
0001
1000
0001
0000
,
0010
0100
0000
0000
,
1000
0001
0000
0000
,
0010
0100
0000
0000
,
0001
1000
0000
0000
,
0010
0001
0000
0000
,
1000
0001
0000
0000
,
0010
0100
0000
0000
,
0001
1000
0000
0000
,
1010
0100
0000
0000
,
0001
1000
0000
0000
,
0010
0100
0000
0000
,
1000
0001
1000
0100
,
0010
0000
0000
0000
,
1000
0001
0000
0000
,
0010
0100
0000
0000
,
0001
1000
0000
0000
,
0010
0100
0000
0000
,
1000
1000
0000
0000
,
0010
0010
0000
0000
,
1000
1000
0000
0000
,
0010
0010
0000
0000
,
0001
0001
0000
0000
,
0010
0010
0000
0000
,
1000
0001
0000
0000
,
0010
0100
0000
0000
,
0001
1000
0000
0000
,
0010
0100
0000
0000
,
1000
0001
0000
0000
,
0010
0100
0000
0000
,
0001
1000
0000
0000
,
0010
0001
0000
0000
,
1000
0001
0000
0000
,
0010
1000
0000
0000
,
0001
1000
0000
0000
,
0010
0100
0000
0000
,
1000
0001
0000
0000
,
0010
1000
0000
0000
,
0010
0001
0000
0000
,
1000
0001
0000
0000
,
0010
0100
0000
0000
,
0001
1000
0000
0000
,
0010
0100
0000
0000
,
0010
0001
0000
0000
,
1000
0001
0000
0000
,
0010
1000
0000
0000
,
0001
0100
0000
0000
,
0010
0100
0000
0000
,
1000
0010
0000
0000
,
0010
0100
0000
0000
,
0001
1000
0000
0000
,
0010
0100
0000
0000
,
0001
1000
0000
0000
,
0010
0001
0000
0000
,
1000
0001
0000
0000
,
0010
0100
0000
0000
,
1000
0001
0000
0000
,
0010
0100
0000
0000
,
0001
1000
0000
0000
,
0010
0100
0000
0000
,
1000
0001
0000
0000
,
0010
0100
0000
0000
,
1000
0001
0000
0000
,
0010
0100
0000
0000
,
0001
1000
0000
0000
,
0010
1000
0000
0000
,
1000
1000
0000
0000
,
0010
0001
0000
0000
,
0001
0001
0000
0000
,
0010
0001
0000
0000
,
1000
0100
0000
0000
,
0010
0100
0000
0000
,
0001
0100
0000
0000
,
0010
0001
0000
0000
;

//---------------dance-single - ----------------
#NOTES:
     dance-single:
     :
     Hard:
     6:
     0.375,0.577,0.161,0.048,0:
0000
0000
0000
0000
,
0001
1000
0000
0010
,
0100
0010
0100
0010
,
1001
0010
0000
1000
,
0001
1000
0001
0010
,
0001
1000
0000
1000
,
0011
1100
0011
1100
,
0010
0100
0001
0010
,
2000
0000
0001
0000
0000
3000
0000
0000
,
0010
0100
0010
1000
,
0002
0000
1000
0000
0000
0003
1000
0000
,
0010
0001
0010
0001
,
2000
0000
0001
0000
0000
3000
0000
0000
,
0010
0100
0010
1000
,
0001
1000
0001
0100
,
1010
0100
1010
0100
,
0011
0101
1100
1010
,
0011
0101
1100
1010
,
0101
1010
0101
1010
,
0100
1000
0001
0010
,
2000
0002
3000
0003
,
1010
0100
0010
0100
,
0002
0000
1000
0000
0000
0003
1000
0000
,
0010
0100
0010
0001
,
1000
1000
1000
0001
,
0010
0010
0010
0100
,
1000
1000
1000
0001
,
0010
0010
0010
1000
,
0001
0001
0001
1000
,
0010
0010
0010
0001
,
1000
0001
1000
0001
,
0010
0100
0010
1000
,
0001
1000
0001
1000
,
0010
0100
0010
0001
,
1000
0001
1000
0100
,
0010
0100
0010
1000
,
0001
1000
0001
1000
,
0010
0001
0010
0001
,
1000
0001
1000
0001
,
0010
1000
0001
1000
,
0001
1000
0001
0100
,
0010
0100
0010
0001
,
1000
0001
1000
0001
,
0010
1000
0001
1000
,
0010
0001
0010
0001
,
1000
0001
1000
1000
,
0010
0100
0010
1000
,
0001
1000
0001
1000
,
0010
0100
0010
1000
,
0010
0001
0010
0001
,
1000
0001
1000
0001
,
0010
1000
0010
1000
,
0001
0100
0001
1000
,
0010
0100
0010
0001
,
1000
0010
1000
0001
,
0010
0100
0010
1000
,
0001
1000
0001
0000
,
0010
0100
0010
1000
,
0001
1000
0001
0100
,
0010
0001
0010
0100
,
1000
0001
1000
0000
,
0010
0100
0010
0000
,
1000
0001
1000
0001
,
0010
0100
0010
1000
,
0001
1000
0001
0100
,
0010
0100
0010
0001
,
1000
0001
1000
0100
,
0010
0100
0010
1000
,
1000
0001
1000
0001
,
0010
0100
0010
0100
,
0001
1000
0001
1000
,
0010
1000
0001
0010
,
1000
1000
1000
0001
,
0010
0001
0010
1000
,
0001
0001
0001
1000
,
0010
0001
0010
0001
,
1000
0100
1000
0001
,
0010
0100
0010
0100
,
0001
0100
0001
0000
,
0010
0001
0010
0000
;

//---------------dance-single - ----------------
#NOTES:
     dance-single:
     :
     Medium:
     4:
     0.288,0.384,0.089,0,0:
0000
0000
0000
0000
,
0001
1000
0000
0010
,
0100
0010
0000
0000
,
1001
0010
0000
1000
,
0001
1000
0001
0010
,
0001
1000
0000
1000
,
0011
1100
0011
1100
,
0010
0100
0001
0000
,
1000
0001
1000
0000
,
0010
0100
0010
0000
,
0001
1000
0001
0000
,
0010
0001
0010
0000
,
1000
0001
1000
0000
,
0010
0100
0010
0000
,
0001
1000
0001
0000
,
1010
0100
1010
0000
,
0001
1000
0001
0000
,
0010
0100
0010
0000
,
1010
0101
1010
0101
,
0010
1000
0001
0000
,
1000
0001
1000
0000
,
0010
0100
0010
0000
,
0001
1000
0001
0000
,
0010
0100
0010
0000
,
1000
1000
1000
0000
,
0010
0010
0010
0000
,
1000
1000
1000
0000
,
0010
0010
0010
0000
,
0001
0001
0001
0000
,
0010
0010
0010
0000
,
1000
0001
1000
0000
,
0010
0100
0010
0000
,
0001
1000
0001
0000
,
0010
0100
0010
0000
,
1000
0001
1000
0000
,
0010
0100
0010
0000
,
0001
1000
0001
0000
,
0010
0001
0010
0000
,
1000
0001
1000
0000
,
0010
1000
0001
0000
,
0001
1000
0001
0000
,
0010
0100
0010
0000
,
1000
0001
1000
0000
,
0010
1000
0001
0000
,
0010
0001
0010
0000
,
1000
0001
1000
0000
,
0010
0100
0010
0000
,
0001
1000
0001
0000
,
0010
0100
0010
0000
,
0010
0001
0010
0000
,
1000
0001
1000
0000
,
0010
1000
0010
0000
,
0001
0100
0001
0000
,
0010
0100
0010
0000
,
1000
0010
1000
0000
,
0010
0100
0010
0000
,
0001
1000
0001
0000
,
0010
0100
0010
0000
,
0001
1000
0001
0000
,
0010
0001
0010
0000
,
1000
0001
1000
0000
,
0010
0100
0010
0000
,
1000
0001
1000
0000
,
0010
0100
0010
0000
,
0001
1000
0001
0000
,
0010
0100
0010
0000
,
1000
0001
1000
0000
,
0010
0100
0010
0000
,
1000
0001
1000
0000
,
0010
0100
0010
0000
,
0001
1000
0001
0000
,
0010
1000
0001
0000
,
1000
1000
1000
0000
,
0010
0001
0010
0000
,
0001
0001
0001
0000
,
0010
0001
0010
0000
,
1000
0100
1000
0000
,
0010
0100
0010
0000
,
0001
0100
0001
0000
,
0010
0001
0010
0000
;

//---------------dance-single - ----------------
#NOTES:
     dance-single:
     :
     Challenge:
     8:
     0.569,0.538,0.250,0.016,0:
0000
0000
0000
0000
,
1001
0001
0000
0101
,
0001
1000
0000
0000
,
1100
1000
0010
0100
,
0010
1000
1001
0001
,
0011
0010
0001
1000
,
1001
0001
0101
0100
,
0010
0000
1000
0000
0010
0100
0010
0000
,
1000
0000
0001
0000
0100
0001
0100
0000
,
0001
0000
1000
0000
0100
1000
0010
0000
,
1000
0000
0100
0000
0010
0001
0010
0000
,
0001
0000
0100
0000
0001
1000
0001
0000
,
0100
0000
0010
0000
0100
0010
0100
0000
,
0001
0000
1000
0001
0000
1000
0000
0100
,
0000
0000
1000
0010
0000
0100
0000
0000
,
0010
1000
0010
1000
0010
1000
0010
1000
,
0001
1000
0001
1000
0001
1000
0001
1000
,
0100
1000
0100
1000
0100
1000
0100
1000
,
0000
0001
0000
0100
0000
0010
0100
0000
,
0001
0100
0001
0100
0001
1000
0001
1000
,
0001
0010
0001
0010
0001
0100
0001
0100
,
0001
0010
0001
0010
0001
1000
0001
1000
,
0001
1000
0001
0100
0001
0100
0001
0000
,
0100
0001
0100
1001
0001
0010
0001
0100
,
0001
0010
0001
0100
0000
0110
0010
1000
,
0100
0010
0100
0010
0000
0100
0000
0010
,
0000
0000
0001
0100
0000
0101
0000
0000
,
0001
0000
1000
0000
1001
0000
0000
1000
,
0000
0010
0000
1010
0000
0000
0000
0000
,
0010
0000
0100
0000
0110
0000
0000
0100
,
0000
0001
0000
1001
0000
0000
1000
0000
,
1100
1000
1001
0001
,
0010
0001
0010
0001
0010
0001
0010
0001
,
0010
0001
0100
0001
0100
0001
0100
0001
,
1000
0001
1000
0001
1000
0001
1000
0001
,
1000
0100
1000
0100
1000
0100
1000
0100
,
1000
0010
0100
0010
1000
0010
0100
0010
,
1000
0100
0010
0100
1000
0010
0100
0010
,
1000
0100
0010
0001
0100
0010
0100
0001
,
0010
0000
0010
0001
0000
0001
0100
0000
,
0001
0100
0010
0100
0001
0010
0100
0010
,
0001
0100
0010
0100
0001
0010
0100
0010
,
0001
0100
0010
0100
0010
0100
0010
0100
,
0010
1000
0010
0100
0010
1000
0010
0100
,
0010
1000
0100
0010
0001
0010
0100
0010
,
0001
0010
0100
0010
0001
0010
0100
0010
,
0100
0010
0100
0010
1000
0010
0100
0010
,
0000
0001
1000
0001
0000
0001
0100
0001
,
0000
0001
1000
0001
0000
0001
0100
0000
,
0010
0100
0001
0100
,
0101
0001
1000
0100
,
1100
1000
0010
0100
,
0110
0100
0101
0001
,
1001
0001
0100
0010
,
0110
0100
0001
1000
,
1100
0001
0011
0010
,
0110
0010
0011
0001
,
0100
0001
0001
0000
0100
0001
0100
0001
,
0000
0100
0000
0110
0000
0000
0100
0000
,
0010
0000
1000
0000
0010
0100
0010
1000
,
0000
1000
0000
0010
0000
0000
0100
0000
,
0101
0001
1001
0001
,
0011
0000
0001
0010
0001
0010
0001
0010
,
0100
0010
0100
0010
0100
0010
0100
0010
,
0100
1000
0100
1000
0100
1000
0100
1000
,
0010
0100
0010
1000
0010
0100
0010
1000
,
0001
1000
0001
1000
0001
1000
0001
1000
,
0001
0100
0001
0100
0001
0100
0001
0100
,
0001
0100
0010
0100
0001
0100
0010
0100
,
0001
0010
0100
0010
0001
0010
0100
0010
,
0001
0100
0001
1000
0001
0100
0001
1000
,
0001
0010
0001
0010
0100
0010
0001
0100
,
0010
0100
0001
0010
0100
0010
0001
0100
,
0010
1000
0100
0010
0100
1000
0010
0100
,
0010
1000
0100
1000
0100
1000
0100
1000
,
0100
0010
0100
0010
0100
1000
0100
1000
,
0010
1000
0010
0100
0010
0100
0010
0000
,
2020
0000
0000
0000
,
0000
0000
3030
0000
;
