#TITLE:One World;
#ARTIST:tobyMac;
#BANNER:One World - tobyMac.png;
#BACKGROUND:One World - tobyMac-bg.png;
#LYRICSPATH:One World - tobyMac.lrc;
#CDTITLE:.\CDTITLES\DP2TOBY1.png;
#MUSIC:One World - tobyMac.mp3;
#OFFSET:-2.386;
#SAMPLESTART:40.2;
#SAMPLELENGTH:13.0;
#BPMS:0=94;
#BGCHANGES:0=One World - tobyMac.AVI=1=1=1=0,999=-=1=0=0=0;

//---------------dance-single - ----------------
#NOTES:
     dance-single:
     :
     Easy:
     1:
     0.109,0.096,0,0,0.191:
0000
0000
0000
0000
0000
0000
0000
0010
0000
0000
0000
0000
0000
0000
0000
0000
,
0001
0000
0000
0000
0000
0000
0000
1000
0000
0000
0000
0000
0000
0000
0000
0000
,
0010
0000
0000
0000
0000
0000
0000
0001
0000
0000
0000
0000
0000
0000
0000
0000
,
1000
0000
0000
0000
0000
0000
0000
0001
0000
0000
0000
0000
0000
0000
0000
0000
,
0010
0000
0000
0000
0000
0000
0000
0010
0000
0000
0000
0000
0000
0000
0000
0000
,
0001
0000
0000
0000
0000
0000
0000
1000
0000
0000
0000
0000
0000
0000
0000
0000
,
0010
0000
0000
0000
0000
0000
0000
0001
0000
0000
0000
0000
0000
0000
0000
0000
,
1000
0000
0000
0000
0000
0000
0000
0010
0000
0000
0000
0000
0000
0000
0000
0000
,
0001
0000
0000
0000
0000
0000
0000
1000
0000
0000
0000
0000
0000
0000
0000
0000
,
0010
0000
0000
0000
0000
0000
0000
0100
0000
0000
0000
0000
0000
0000
0000
0000
,
0001
0000
0000
0000
0000
0000
0000
0010
0000
0000
0000
0000
0000
0000
0000
0000
,
1000
0000
0000
0000
0000
0000
0000
0001
0000
0000
0000
0000
0000
0000
0000
0000
,
0010
0000
0000
0000
0000
0000
0000
0100
0000
0000
0000
0000
0000
0000
0000
0000
,
1000
0000
0000
0000
0000
0000
0000
0001
0000
0000
0000
0000
0000
0000
0000
0000
,
0010
0000
0000
0000
0000
0000
0000
1000
0000
0000
0000
0000
0000
0000
0000
0000
,
0001
0000
0000
0000
0000
0000
0000
1000
0000
0000
0000
0000
0000
0000
0000
0000
,
0010
0000
0000
0000
0000
0000
0000
0001
0000
0000
0000
0000
0000
0000
0000
0000
,
1000
0000
0000
0000
0000
0000
0000
0010
0000
0000
0000
0000
0000
0000
0000
0000
,
0001
0000
0000
0000
0000
0000
0000
1000
0000
0000
0000
0000
0000
0000
0000
0000
,
0010
0000
0000
0000
0000
0000
0000
1000
0000
0000
0000
0000
0000
0000
0000
0000
,
0001
0000
0000
0000
0000
0000
0000
1000
0000
0000
0000
0000
0000
0000
0000
0000
,
0010
0000
0000
0000
0000
0000
0000
0001
0000
0000
0000
0000
0000
0000
0000
0000
,
1000
0000
0000
0000
0000
0000
0000
0001
0000
0000
0000
0000
0000
0000
0000
0000
,
0010
0000
0000
0000
0000
0000
0000
0001
0000
0000
0000
0000
0000
0000
0000
0000
,
1000
0000
0000
0000
0000
0000
0000
0001
0000
0000
0000
0000
0000
0000
0000
0000
,
0010
0000
0000
0000
0000
0000
0000
1000
0000
0000
0000
0000
0000
0000
0000
0000
,
0001
0000
0000
0000
0000
0000
0000
0010
0000
0000
0000
0000
0000
0000
0000
0000
,
1000
0000
0000
0000
0000
0000
0000
0001
0000
0000
0000
0000
0000
0000
0000
0000
,
0010
0000
0000
0000
0000
0000
0000
0001
0000
0000
0000
0000
0000
0000
0000
0000
,
1000
0000
0000
0000
0000
0000
0000
0010
0000
0000
0000
0000
0000
0000
0000
0000
,
0001
0000
0000
0000
0000
0000
0000
1000
0000
0000
0000
0000
0000
0000
0000
0000
,
0010
0000
0000
0000
0000
0000
0000
1000
0000
0000
0000
0000
0000
0000
0000
0000
,
0001
0000
0000
0000
0000
0000
0000
0010
0000
0000
0000
0000
0000
0000
0000
0000
,
1000
0000
0000
0000
0000
0000
0000
0001
0000
0000
0000
0000
0000
0000
0000
0000
,
0010
0000
0000
0000
0000
0000
0000
0001
0000
0000
0000
0000
0000
0000
0000
0000
,
1000
0000
0000
0000
0000
0000
0000
0010
0000
0000
0000
0000
0000
0000
0000
0000
,
0001
0000
0000
0000
0000
0000
0000
1000
0000
0000
0000
0000
0000
0000
0000
0000
,
0010
0000
0000
0000
0000
0000
0000
1000
0000
0000
0000
0000
0000
0000
0000
0000
,
0001
0000
0000
0000
0000
0000
0000
1000
0000
0000
0000
0000
0000
0000
0000
0000
,
0010
0000
0000
0000
0000
0000
0000
0001
0000
0000
0000
0000
0000
0000
0000
0000
,
1000
0000
0000
0000
0000
0000
0000
0100
0000
0000
0000
0000
0000
0000
0000
0000
,
0001
0000
0000
0000
0000
0000
0000
0001
0000
0000
0000
0000
0000
0000
0000
0000
,
1000
0000
0000
0000
0000
0000
0000
0001
0000
0000
0000
0000
0000
0000
0000
0000
,
0010
0000
0000
0000
0000
0000
0000
0100
0000
0000
0000
0000
0000
0000
0000
0000
,
1000
0000
0000
0000
0000
0000
0000
0010
0000
0000
0000
0000
0000
0000
0000
0000
,
0001
0000
0000
0000
0000
0000
0000
1000
0000
0000
0000
0000
0000
0000
0000
0000
,
0010
0000
0000
0000
0000
0000
0000
1000
0000
0000
0000
0000
0000
0000
0000
0000
,
0001
0000
0000
0000
0000
0000
0000
0001
0000
0000
0000
0000
0000
0000
0000
0000
,
1000
0000
0000
0000
0000
0000
0000
0001
0000
0000
0000
0000
0000
0000
0000
0000
,
0010
0000
0000
0000
0000
0000
0000
1000
0000
0000
0000
0000
0000
0000
0000
0000
,
0001
0000
0000
0000
0000
0000
0000
0100
0000
0000
0000
0000
0000
0000
0000
0000
,
1000
0000
0000
0000
0000
0000
0000
0001
0000
0000
0000
0000
0000
0000
0000
0000
,
0100
0000
0000
0000
;

//---------------dance-single - ----------------
#NOTES:
     dance-single:
     :
     Hard:
     8:
     0.466,0.480,0.154,0.198,0.500:
0000
0000
0000
0000
0000
0000
0000
1001
0000
0000
0000
0000
0100
0000
0000
0000
,
0011
0000
0100
0000
1000
0000
0000
0110
0000
0000
1000
0000
0001
0000
0000
0000
,
1010
0000
0001
0000
0100
0000
0000
1001
0000
0000
0100
0000
0010
0000
0001
0000
,
2000
0000
0000
0000
3010
0000
0000
0001
0000
0000
1000
0000
0100
0000
0010
0000
,
0002
0000
0003
0000
1000
0000
0000
0010
0000
0000
1000
0000
0001
0000
1000
0000
,
0002
0000
0003
0000
0010
0000
0000
1000
0000
0000
0100
0000
0010
0000
1000
0000
,
0002
0003
0010
1000
0002
0000
0003
0010
,
1000
0010
0000
0001
1000
0000
0001
0010
0000
0001
0000
1000
0010
0000
1000
0000
,
0001
1000
0000
0010
0001
0000
1000
0010
0000
0001
0000
1000
0001
0000
0010
0000
,
0001
1000
0000
1000
0100
0000
0100
0010
0000
0100
0000
0010
0001
0000
1000
0000
,
0001
0010
0000
1000
0001
0000
0010
1000
0000
0001
0000
0010
1000
0000
0110
0000
,
1000
0000
0001
0000
0100
0000
1000
0001
0000
0010
0000
1000
0001
0000
0100
0000
,
0010
1000
0000
0001
0010
0000
0100
1000
0000
0001
0000
1000
0001
0000
1000
0000
,
0001
1000
0000
0100
1000
0000
0001
0010
0000
1000
0000
1000
0001
0000
0100
0000
,
0010
1000
0000
0001
0010
0000
0100
1000
0000
0001
0000
0010
0001
0000
0000
0000
,
1001
0010
0010
1001
0010
0001
1010
0000
,
0001
1000
0001
0101
1000
0010
0001
0000
,
1010
0100
0001
0110
0001
0001
1000
0010
,
0101
1000
0010
1100
0010
0001
1000
0000
,
0020
0000
0000
0000
0000
0000
0030
2000
0000
0000
0000
0000
3001
0000
0000
0000
,
1000
0000
0010
0001
0000
0010
1000
0000
0100
0000
0001
1000
0000
1000
0010
0000
,
0020
0000
0000
0000
0000
0000
0030
0002
0000
0000
0000
0003
0010
0000
0001
0000
,
1000
0000
0001
0100
0000
1000
0001
0000
0010
0000
1000
0001
0000
0001
1000
0000
,
0020
0000
0000
0000
0000
0000
0030
0002
0000
0000
0000
0000
0000
0003
0000
0000
,
1000
0000
0001
0010
0000
1000
0001
0000
0010
0000
1000
0001
0000
1000
0001
0000
,
0020
0000
0000
0000
0000
0030
0000
2000
0000
0000
0000
0000
0000
3000
0000
0000
,
0001
0010
0001
0010
1000
0001
1000
0010
1000
0001
0010
0000
0001
0000
0001
0000
,
2000
0000
0000
0000
3000
0000
0000
0001
0000
0000
1000
0000
0000
0000
0001
0000
,
0020
0000
0000
0030
1000
0001
1000
0001
0000
0010
0100
0010
0000
0000
0001
0000
,
1000
0000
0110
0000
0001
0000
0000
0010
0000
0001
0010
1000
0000
0010
0100
0000
,
0001
0000
1000
0000
0010
0000
0000
1000
0000
0010
1000
0001
0000
1000
0001
0000
,
0010
0000
1000
0000
0001
0000
0000
1000
0000
0001
0010
0001
0000
1000
0001
0000
,
1000
0000
0110
0000
0001
0000
0000
0010
0000
0001
1000
0001
0000
0100
0010
0000
,
0000
0000
1000
0001
1000
0000
0010
0000
0001
0000
0010
0000
1000
0000
0001
0000
,
0010
0000
1000
0001
1000
0001
1000
0010
0001
1000
0001
0010
0100
0000
1000
0001
,
1000
0000
0001
1000
0001
0000
0100
0010
0000
0001
0000
1000
0000
0010
1000
0000
,
0010
0000
1000
0100
0010
0000
1000
0001
0000
0001
0000
1000
0000
0001
1000
0000
,
0110
0000
1000
0000
0001
0000
0010
0001
1000
0000
0100
0010
0000
0001
0010
0000
,
0101
0000
1000
0000
0010
0000
0001
0000
1100
0000
0010
0001
0000
0001
0010
0000
,
0110
0001
1000
0010
0001
1000
0010
0001
,
1000
0000
0010
0000
0001
0000
0010
0100
0001
0000
0010
0001
1000
0000
0010
0000
,
0002
0000
0000
0000
0000
0000
0003
2000
0000
0000
0000
0000
3000
0000
0000
0000
,
1000
0000
0001
0100
0000
1000
0001
0000
0010
0000
0001
1000
0000
1000
0100
0000
,
0020
0000
0000
0000
0000
0000
0000
0230
0000
0000
0000
0000
0300
0000
0000
0001
,
1000
0000
0010
0000
0001
0000
0010
0000
0001
0000
0010
1000
0000
1000
0100
0000
,
0002
0000
0000
0000
0000
0000
0003
2000
0000
0000
0000
3000
0001
0000
0000
0000
,
0010
0000
1000
0001
0000
0001
0010
0000
0001
0000
1000
0010
0000
1000
0100
0000
,
0002
0000
0000
0000
0000
0003
0000
2000
0000
0000
3000
0000
0010
0000
0000
0001
,
1000
0000
0001
0000
0100
0000
1000
0001
1000
0001
0010
0000
1000
0000
0001
0000
,
0020
0000
0000
0000
0030
0000
0000
1000
0000
0000
0001
0000
0010
0000
1000
0000
,
0002
0000
0000
0000
0000
0003
0000
0100
0000
1000
0000
0010
0001
0100
0001
0000
,
2010
0000
0000
0000
0000
3000
0000
0001
0000
0010
0000
1000
0000
0000
0001
0000
,
2000
3000
0000
0000
;

//---------------dance-single - ----------------
#NOTES:
     dance-single:
     :
     Medium:
     4:
     0.244,0.269,0.037,0.096,0.129:
0000
0000
0000
0000
0000
0000
0000
1010
0000
0000
0000
0000
0100
0000
0000
0000
,
0011
0000
0000
0000
1000
0000
0000
0110
0000
0000
0000
0000
0001
0000
0000
0000
,
1010
0000
0000
0000
0100
0000
0000
1001
0000
0000
0000
0000
0010
0000
0001
0000
,
2000
0000
0000
0000
0000
3000
0000
0000
0001
0000
1000
0000
0100
0000
0010
0000
,
0002
0000
0000
0000
0000
0003
0000
0010
0000
0000
0000
0000
0000
0000
1000
0000
,
0002
0000
0000
0000
0000
0003
0000
1000
0000
0000
0100
0000
0010
0000
1000
0000
,
0002
0000
0003
1000
0002
0000
0003
0000
,
1000
0000
0000
0001
0000
0000
0010
0000
0000
0000
0000
0000
1000
0000
0000
0000
,
0001
0000
0000
0010
0000
0000
1000
0000
0000
0000
0000
0000
0001
0000
0000
0000
,
0010
0000
0000
1000
0000
0000
0100
0000
0000
0000
0000
0000
0010
0000
0000
0000
,
0001
0000
0000
1000
0000
0000
0010
0000
0000
0000
0000
0000
0001
0000
0000
0000
,
1000
0000
0000
0100
0000
0000
0001
0000
0000
0000
0000
0000
1000
0000
0000
0000
,
0010
0000
0000
0001
0000
0000
0100
0000
0000
0000
0000
0000
0001
0000
0000
0000
,
1000
0000
0000
0100
0000
0000
0001
0000
0000
0000
0000
0000
1000
0000
0000
0000
,
0010
0000
0000
0001
0000
0000
1000
0000
0000
0000
0000
0000
0010
0000
0000
0000
,
0001
0000
0010
1000
0010
0000
0001
0000
,
0010
1000
0001
0000
0001
0000
0010
0000
,
1000
0001
0010
0000
1000
0000
1000
0000
,
0001
0001
0010
0000
1000
0000
0001
0000
,
0010
0000
0010
0100
1000
0000
0001
0000
,
1000
0000
0000
1000
0000
0000
0001
0000
1000
0000
0000
0000
0001
0000
0000
0000
,
0010
0000
0000
0000
0100
0000
0000
0001
0000
0000
0010
0000
0100
0000
0000
0000
,
1000
0100
0001
1000
,
0010
1000
0001
0010
,
1000
0000
0000
0000
0010
0000
0000
0001
0000
0000
0001
0000
1000
0000
0000
0000
,
0010
0000
0000
0000
0001
0000
0000
1000
0000
0000
1000
0000
0010
0000
0000
0000
,
0001
0000
0000
0000
1000
0000
0000
0010
0000
0000
0001
0000
0010
0000
0000
0000
,
1000
0000
0000
0000
0010
0000
0000
0001
0000
0000
0000
0000
1000
0000
0000
0000
,
0010
0000
0000
0000
1000
0000
0000
0001
0000
0000
0000
0000
0010
0000
0000
0000
,
1000
0000
0000
0000
0001
0000
0000
0010
0000
0000
0000
0000
1000
0000
0000
0000
,
0001
0000
0000
0000
0010
0000
0000
1000
0000
0000
0000
0000
0001
0000
0000
0000
,
0010
0000
0000
0000
0001
0000
0000
1000
0000
0000
0000
0000
0001
0000
0000
0000
,
1000
0000
0000
0000
0001
0000
0000
0010
0000
0000
0000
0000
0001
0000
0000
0000
,
1000
0000
0000
0000
0100
0000
0000
0001
0000
0000
0000
0000
1000
0000
0000
0000
,
0010
0000
0000
0000
1000
0000
0000
0001
0000
0000
0000
0000
0100
0000
0000
0000
,
1000
0000
0000
0000
0001
0000
0000
0010
0000
0000
0000
0000
1000
0000
0000
0000
,
0001
0000
0000
0000
0010
0000
0000
1000
0000
0000
0000
0000
0001
0000
0000
0000
,
0010
0000
0000
0000
0001
0000
0000
1000
0000
0000
0000
0000
0010
0000
0000
0000
,
0001
0000
0000
0000
0010
0000
0000
1000
0000
0000
0000
0000
0001
0000
0000
0000
,
0010
1000
0001
0010
,
1000
0001
0100
1000
,
0002
0000
0000
0000
0000
0000
0000
2003
0000
0000
0000
0000
0000
3000
0000
0000
,
1000
0100
0001
1000
,
0020
0000
0000
0000
0000
0000
0030
0200
0000
0000
0000
0000
0000
0300
0000
0000
,
1000
0000
0000
0000
0001
0000
0000
0000
0010
0000
0000
1000
0000
0000
0010
0000
,
0002
0000
0000
0000
0000
0000
0000
2003
0000
0000
0000
0000
3001
0000
0000
0000
,
0010
0001
1000
0010
,
0002
0000
0000
0000
0000
0000
0000
2003
0000
0000
0000
3000
0010
0000
0000
0000
,
1000
0100
0001
1000
,
0010
0001
1000
0010
,
0001
1000
0100
0001
,
1000
0010
0001
1000
,
0100
0001
0000
0000
;

//---------------dance-single - ----------------
#NOTES:
     dance-single:
     :
     Challenge:
     9:
     0.564,0.554,0.147,0.176,0.632:
0000
0000
0000
0000
0000
0000
0000
0001
0000
0000
0010
0000
0010
0000
0000
0000
,
0001
0000
1000
0000
1000
0000
0000
0100
0000
0000
0100
0000
1000
0000
0000
0000
,
0010
0100
0010
0100
0001
0100
0001
0100
0001
1000
0001
1000
0001
0000
0001
0000
,
1001
0000
0100
0000
0010
0000
0010
0100
0000
0100
0001
0000
0100
0000
0001
0000
,
1000
0000
0100
0000
0100
0000
0100
1000
0000
1000
0010
0000
0100
0000
0010
0000
,
1000
0000
0001
0000
0100
0000
0001
0100
0000
0100
0001
0000
0100
0000
0010
0000
,
0100
0000
0001
0000
1000
0000
0100
1000
0000
1000
0100
0000
1000
0000
0010
0000
,
0100
0010
0000
0100
0001
0000
0100
0001
0000
1000
0000
0100
1000
0000
0100
0000
,
1000
0010
0000
0100
0010
0000
0100
0001
0000
0100
0000
0001
1000
0000
0100
0000
,
1000
0100
0000
1000
0010
0000
0100
0010
0000
1000
0000
0100
0010
0000
0100
0000
,
0010
0001
0000
0001
0100
0000
0100
0010
0000
0100
0000
0001
0000
1000
0100
0000
,
1000
0000
0001
0000
0100
0001
0100
0001
0100
0001
0100
0001
1000
0000
0001
0000
,
0010
0000
0100
0000
1000
0000
1000
0100
1000
0100
1000
0100
1000
0000
0010
0000
,
0100
0000
0010
0000
1000
0000
0010
1000
0010
1000
0010
1000
0010
0000
1000
0000
,
0100
0000
0010
0000
0001
0000
0100
0000
0010
0100
0000
0001
0010
0000
0001
0000
,
0001
0000
0100
0000
0010
0000
0100
0001
0100
0000
0001
1000
0000
0001
0100
0000
,
0010
0000
0100
0000
0001
0000
1000
0100
1000
0000
0001
1000
0000
0001
1000
0000
,
0100
0000
1000
0000
0010
0000
0100
0010
0100
0000
0001
0100
0000
0010
0100
0000
,
0001
0000
1000
0000
0100
0000
1000
0010
1000
0010
0100
0010
0100
0001
0100
0000
,
0220
0000
0000
0000
0030
0000
0000
0002
0000
0003
0001
0000
0001
0000
0300
0000
,
0010
0000
0010
0100
0000
0010
0100
0000
0010
0000
1000
0100
0000
1000
0100
0000
,
2200
0000
0000
0000
0300
0000
0000
0020
0000
0030
0010
0000
0010
0000
3000
0000
,
0010
0000
0100
0010
0000
0010
0100
0000
0001
0000
0100
0010
0000
0010
1000
0000
,
2200
0000
0000
0000
3000
0000
0000
2000
0000
3000
1000
0000
1000
0000
0300
0000
,
1000
0000
0010
0100
0000
0010
0100
0000
0001
0000
1000
0001
0000
1000
0001
0000
,
2200
0000
0000
0000
0300
0000
0000
0200
0000
0300
0100
0000
0010
0000
3001
0000
,
0100
0010
0100
0001
0100
0001
0100
0001
1000
0001
1000
0001
1000
0010
1000
0010
,
1000
0000
1000
0000
0100
0000
0100
0010
0000
0010
0100
0000
0010
0000
0001
0000
,
0100
0000
0100
0000
0010
0000
0010
0100
0000
0100
0010
0000
1000
0000
0100
0000
,
0010
0100
1000
0000
0010
0000
0100
0010
0000
1000
0000
0100
0010
0000
0100
0000
,
0010
0000
0001
0100
0010
0000
0010
0100
0000
0001
0000
0100
0001
0000
0100
0000
,
0010
0000
0100
0001
1000
0000
1000
0100
0000
1000
0000
0010
0100
0000
0010
0000
,
1000
0010
0100
0000
0100
0000
0010
1000
0000
0100
0000
1000
0100
0000
1000
0000
,
0001
0000
1000
0001
1000
0001
0100
0010
0100
0010
1000
0010
1000
0000
1010
0000
,
1000
0000
0100
1000
0100
1000
0010
0100
0010
1000
0100
0010
0100
0000
0011
0000
,
0001
0000
0100
0010
0100
0001
0010
0100
0010
0001
0010
0001
1000
0000
0011
0000
,
0100
0000
0001
0010
0100
1000
0100
0010
0001
0010
0100
1000
0010
0000
1001
0000
,
0010
0000
1000
0000
0100
0000
1000
0010
0100
0000
0010
0100
0000
0100
0101
0000
,
0001
0000
1000
0000
0100
0000
0100
1000
0100
0000
0100
0010
0000
0010
0011
0000
,
1000
0000
0010
0000
1000
0000
0100
0010
0100
0000
0100
1000
0000
1000
1010
0000
,
0010
0100
0010
0100
0001
0100
0010
0100
0001
0100
0001
0100
0101
0101
0101
0000
,
0220
0000
0000
0000
0300
0000
0000
2000
0000
3000
1000
0000
1000
0000
0030
0000
,
0001
0000
0100
0010
0000
0100
0010
0000
0100
0000
0001
0010
0000
0001
0010
0000
,
0022
0000
0000
0000
0030
0000
0000
0200
0000
0300
0100
0000
0100
0000
0003
0000
,
0100
0000
0010
0100
0000
0100
0010
0000
1000
0000
0010
0100
0000
0100
0001
0000
,
0022
0000
0000
0000
0003
0000
0000
0002
0000
0003
0001
0000
0001
0000
0030
0000
,
0001
0000
0100
0010
0000
0100
0010
0000
1000
0000
0001
1000
0000
0001
1000
0000
,
0022
0000
0000
0000
0030
0000
0000
0020
0000
0030
0010
0000
0100
0000
1003
0000
,
0010
0100
0010
1000
0010
1000
0010
1000
0001
1000
0001
1000
0001
0100
0001
0100
,
0001
0000
0001
0000
0010
0000
0010
0100
0000
0100
0010
0000
0100
0000
1000
0000
,
0010
0000
0010
0000
0100
0000
0100
0010
0000
0010
0100
0000
0001
0000
0010
0000
,
0100
0000
1000
0000
0100
0000
0010
0100
0000
1000
0010
0000
0100
0000
0010
0000
,
1001
0000
0000
0000
;
