#TITLE:Numb;
#ARTIST:Family Force 5;
#BANNER:Numb - Family Force 5.PNG;
#BACKGROUND:Numb - Family Force 5-bg.PNG;
#LYRICSPATH:Numb - Family Force 5.lrc;
#CDTITLE:.\CDTITLES\DP2FF51.png;
#MUSIC:Numb - Family Force 5.mp3;
#OFFSET:-2.115;
#SAMPLESTART:42.6;
#SAMPLELENGTH:12;
#BPMS:0=150;
#BGCHANGES:12=Numb - Family Force 5.AVI=1=1=1=0,999=-=1=0=0=0;

//---------------dance-single - ----------------
#NOTES:
     dance-single:
     :
     Easy:
     2:
     0.198,0.246,0.156,0.054,0:
0000
0000
0000
0000
,
0000
0000
0000
0000
,
0101
0000
0100
0000
,
1010
0000
0100
0000
,
0011
0000
0100
0000
,
1010
0000
0001
0000
,
1010
0000
0100
0000
,
0011
0000
0100
0000
,
1001
0000
0010
0000
,
1001
0000
0100
0000
,
1010
0000
0100
0000
,
1010
0000
0100
0000
,
0011
0000
0010
0000
,
1010
0000
0100
0000
,
0010
0000
0100
0000
,
0010
0000
1000
0000
,
0011
0000
0100
0000
,
0010
0000
1000
0000
,
0001
0000
0010
0000
,
1000
0000
0100
0000
,
0010
0000
0100
0000
,
1000
0000
0001
0000
,
0010
0000
1000
0000
,
0001
0000
1000
0000
,
1001
0000
0100
0000
,
1000
0000
0100
0000
,
0010
0000
0100
0000
,
0010
0000
0000
2000
0000
0000
0000
0000
,
0000
0000
0000
3000
0010
0000
0000
0000
,
0002
0000
0000
0003
0100
0000
0000
0000
,
0010
0000
0001
0000
,
1000
0000
0000
0002
0000
0000
0000
0003
,
0010
0000
1000
0000
,
0002
0000
0000
0003
,
0010
0000
0100
0000
,
1000
0000
0010
0000
,
0001
0000
1000
0000
,
0010
0000
0001
0000
,
1000
0000
0000
0000
0100
0000
0000
0002
,
0000
0000
0000
0000
0000
0003
0000
0000
,
0100
0000
0010
0000
,
1000
0000
0001
0000
,
0010
0000
1000
0000
,
0001
0000
0010
0000
,
1000
0000
0100
0000
,
0010
0000
0001
0000
,
1000
0000
0010
0000
,
0001
0000
0100
0000
,
0010
0000
1000
0000
,
0001
0000
0010
0000
,
1000
0000
0100
0000
,
0011
0000
0100
0000
,
1001
0000
0100
0000
,
1010
0000
0100
0000
,
0001
0000
0100
0000
,
1000
0000
0001
0000
,
0110
0000
0100
0000
,
1000
0000
0010
0000
,
0001
0000
0100
0000
,
0010
0000
0100
0000
,
1000
0000
0010
0000
,
1000
0000
0010
0000
,
0001
0000
0100
0000
,
1000
0000
0001
0000
,
0110
0000
0100
0000
,
0001
0000
0010
0000
,
1000
0000
0100
0000
,
0010
0000
0000
2000
0000
0000
0000
0000
,
0000
3000
0010
0000
,
2000
0000
0000
3000
0001
0000
0000
0000
,
0010
0000
0100
0000
,
0001
0000
1000
0000
,
0010
0000
0100
0000
,
2000
0000
0000
3000
,
0001
0000
0100
0000
,
0010
0000
0001
0000
,
1000
0000
0010
0000
,
0001
0000
0100
0000
,
0010
0000
0010
0000
,
1000
0000
0010
0000
,
0001
0000
0100
0000
,
1000
0000
0010
0000
,
0001
0000
0100
0000
,
1001
0000
0010
0000
,
0011
0000
0100
0000
,
1010
0000
0100
0000
,
0010
0000
1000
0000
,
0001
0000
0010
0000
,
1100
0000
0001
0000
,
0010
0000
0100
0000
,
0001
0000
0100
0000
;

//---------------dance-single - ----------------
#NOTES:
     dance-single:
     :
     Hard:
     8:
     0.427,0.584,0.163,0.068,0.007:
0000
0000
0000
0000
0000
0001
0000
0000
,
1000
0000
0000
0000
0000
0000
0000
0000
0010
0010
0000
0000
0000
0000
0000
0000
,
0001
0010
0100
0001
,
1010
0000
0001
1000
0100
0001
1000
0000
,
0011
0100
1000
0001
0100
1000
0001
0000
,
1010
0100
0010
0100
0001
0000
0100
0000
,
1010
0100
0001
0010
0100
0001
1000
0000
,
0011
1000
0010
1000
0100
1000
0100
0010
,
1001
0000
0100
0001
0010
1000
0100
0000
,
1001
0000
0010
1000
0100
1000
0001
0000
,
1010
0100
0001
0000
0100
0000
0001
0100
,
1010
0000
0000
0000
0100
0010
1000
0000
,
0011
0000
0010
0100
,
1010
0000
0000
0000
0100
1000
0001
1000
,
0010
0100
1000
0000
0100
0000
0001
0000
,
0010
0000
0000
0010
1000
0001
0100
0000
,
0011
0000
0100
0001
,
0010
0000
0000
0100
1000
0100
0010
0000
,
0001
0000
1000
0000
0010
1000
0001
0000
,
1000
0000
0000
0000
0100
0001
1000
0000
,
0010
0000
0100
0001
,
1000
0000
0000
0000
0001
0010
1000
0100
,
0010
1000
0001
0000
1000
0000
0100
0000
,
0001
0000
0000
0100
1000
0100
0010
0000
,
1001
0000
0100
0001
,
1000
0000
0000
1000
0100
0010
0001
0000
,
0010
0000
1000
0001
0100
0001
1000
0000
,
0010
0000
0000
2000
0001
0000
0010
0000
,
0001
3010
0010
1000
,
0002
0000
0000
0100
0000
0003
0000
0000
,
0010
0100
1000
0010
0001
0010
0100
0000
,
1000
0000
0000
0002
0000
0000
0000
0000
,
0010
0003
0100
0000
1000
0000
0010
0000
,
0002
0000
1000
0000
,
0010
0003
0000
0000
0100
0000
0000
0000
,
1000
0010
0001
1000
0010
0001
1000
0100
,
0001
1000
0010
0100
1000
0010
0001
1000
,
0010
0001
1000
0010
0001
1000
0010
0001
,
1000
0100
0001
0010
0100
1000
0010
0002
,
0000
0000
0003
0000
,
0100
0000
0010
0000
,
1000
0010
0001
0000
,
0010
0000
1000
0000
,
0001
0010
1000
0100
0010
1000
0001
1000
,
0001
1000
0001
0010
0100
1000
0001
0010
,
0010
0100
1000
0010
0001
1000
0010
0000
,
0001
0100
0001
1000
0010
0100
1000
0010
,
0001
1000
0010
1000
0100
1000
0001
1000
,
0010
1000
0010
0001
1000
0001
1000
0000
,
0001
1000
1000
0001
0001
0100
0100
0010
,
0010
0001
0001
0010
0100
0000
1000
0110
,
0011
0000
0000
0000
0100
1000
0010
0000
,
1001
0000
0100
0001
,
1010
0000
0000
0000
0100
1000
0010
0000
,
0001
1000
0010
0000
0100
0000
0001
0000
,
1000
0000
0000
0000
0001
0010
1000
0000
,
0110
0000
0100
0001
,
1000
0000
0000
0100
0010
0001
1000
0000
,
0001
0010
0100
0010
,
0010
0000
0000
0000
0100
1000
0001
0000
,
1000
0000
0010
0001
,
1000
1000
0000
0000
0000
0000
0000
0000
0010
0000
0001
0000
1000
0000
0001
0000
,
1000
0010
0010
0000
0100
0000
0001
0000
,
1000
0000
0000
0010
0001
0010
1000
0000
,
0110
0000
0100
0010
,
0001
0000
0000
1000
0010
0001
0100
0000
,
1000
0001
0100
0001
,
0010
0000
0000
2000
0000
0000
0001
0000
,
0000
3000
0010
0100
,
2000
0000
0000
0000
0001
3000
0000
0000
,
0010
0001
1000
0001
0100
0001
0010
1000
,
0001
0000
0000
2000
0000
0000
0001
0000
,
0000
3000
0100
0001
,
2000
0001
0000
3000
,
0001
0000
0100
0000
,
0010
0000
0000
0000
0001
1000
0010
0000
,
1000
0000
0010
0000
,
0001
0000
0000
0000
0100
1000
0001
0000
,
0010
1000
0010
0000
,
1000
0000
0000
0000
0010
0000
1000
0010
,
0002
0000
0000
0003
0100
1000
0010
0001
,
1000
0000
0010
0000
,
0001
0000
0100
0010
,
1001
0000
0000
0000
0010
0001
1000
0000
,
0011
0000
0100
0001
,
1010
0000
0000
0000
0100
1000
0001
0000
,
0010
1000
0100
0000
1000
0000
0010
0000
,
0001
0000
0010
0001
,
1100
0000
0001
1000
,
0010
0000
0000
0000
0101
1000
0010
1000
,
0001
0010
0100
0000
;

//---------------dance-single - ----------------
#NOTES:
     dance-single:
     :
     Medium:
     4:
     0.295,0.369,0.150,0.068,0:
0000
0000
0000
0000
,
1000
0000
0010
0000
,
0001
0010
0100
0001
,
1010
0000
0100
0000
,
0011
1000
0100
0001
,
1010
0000
0001
0000
,
1010
0001
0100
1000
,
0011
0000
0100
0000
,
1001
0100
0010
0100
,
1001
0010
0100
0001
,
1010
0001
0100
0001
,
1010
0000
0100
1000
,
0011
0000
0010
0100
,
1010
0000
0100
0001
,
0010
1000
0100
0001
,
0010
0000
1000
0100
,
0011
0000
0100
0001
,
0010
0000
1000
0010
,
0001
1000
0010
0001
,
1000
0000
0100
1000
,
0010
0000
0100
0001
,
1000
0000
0001
1000
,
0010
0001
1000
0100
,
0001
0000
1000
0010
,
1001
0000
0100
0001
,
1000
0000
0100
0001
,
0010
1000
0100
1000
,
0010
0000
0000
2000
0000
0000
0000
0000
,
0000
3000
0010
1000
,
0002
0000
0000
0003
0100
0000
0000
0000
,
0010
1000
0001
0100
,
1000
0000
0000
0002
0000
0000
0000
0003
,
0010
0100
1000
0010
,
0002
0000
0000
0003
,
0010
0000
0100
0000
,
1000
0001
0010
1000
,
0001
0010
1000
0001
,
0010
1000
0001
0010
,
1000
0000
0001
0000
0100
0000
0000
0002
,
0000
0000
0003
0000
,
0100
0000
0010
0000
,
1000
0010
0001
0000
,
0010
0000
1000
0000
,
0001
1000
0010
0001
,
1000
0001
0100
0001
,
0010
1000
0001
0010
,
1000
0001
0010
1000
,
0001
0010
0100
0001
,
0010
0010
1000
1000
,
0001
1000
0010
0100
,
1000
0001
0100
1000
,
0011
0000
0100
0010
,
1001
0000
0100
0001
,
1010
0000
0100
0010
,
0001
0010
0100
0001
,
1000
0000
0001
1000
,
0110
0000
0100
0001
,
1000
0000
0010
1000
,
0001
0010
0100
0010
,
0010
0000
0100
0001
,
1000
0000
0010
0001
,
1000
0000
0010
1000
,
0001
0010
0100
0001
,
1000
0000
0001
1000
,
0110
0000
0100
0010
,
0001
0000
0010
0100
,
1000
0001
0100
0001
,
0010
0000
0000
2000
0000
0000
0000
0000
,
0000
3000
0010
0000
,
2000
0000
0000
0000
0001
3000
0000
0000
,
0010
1000
0100
0010
,
0001
0000
0000
2000
0000
0000
0000
0000
,
0000
3000
0100
0001
,
2000
0000
0000
0000
0000
0000
0000
3000
,
0001
0000
0100
0000
,
0010
0000
0001
0010
,
1000
0000
0010
0000
,
0001
0000
0100
0001
,
0010
1000
0010
0000
,
1000
0000
0010
1000
,
0002
0000
0000
0003
0100
0000
0010
0000
,
1000
0000
0010
0000
,
0001
0000
0100
0010
,
1001
0000
0010
1000
,
0011
0000
0100
0001
,
1010
0000
0100
0001
,
0010
0100
1000
0010
,
0001
0000
0010
0001
,
1100
0000
0001
1000
,
0010
0000
0100
0010
,
0001
0000
0100
0000
;

//---------------dance-single - ----------------
#NOTES:
     dance-single:
     :
     Challenge:
     9:
     0.582,0.670,0.360,0.551,0.119:
1000
0000
0000
0001
0000
0001
0000
0000
,
0001
0000
0000
0001
0000
1000
0000
0000
,
1000
0000
0000
0001
0000
0010
0000
0000
,
0001
0000
1000
0001
0100
0010
0100
0000
,
0001
0000
1000
0000
0100
0000
0010
0000
0001
0010
0001
0010
0001
0000
0000
0000
,
0001
0000
0100
0000
0010
0000
0100
0000
0001
0000
0001
0100
0000
0000
0100
0000
,
0010
0000
0100
0001
0100
0000
0001
0000
1000
0100
1000
0100
1000
0000
0010
0000
,
0100
0000
0010
0000
1000
0000
0100
0000
0010
0000
0100
0010
0000
0000
0100
1000
,
0100
0000
1000
0010
0000
0000
0100
0010
0100
0000
0010
0100
0000
0000
0001
0000
,
0100
0010
0100
0001
0100
0001
0010
0010
,
0000
0100
0011
0000
0000
0001
0100
0000
,
2002
0000
0000
3003
1000
0010
0100
0000
,
2020
0000
0000
3030
1000
0000
0001
0000
,
0202
0000
0000
0303
0100
0010
1000
0100
,
1100
1000
0100
0000
1000
0000
0010
0000
,
0220
0000
0330
0100
0001
1000
0001
0000
,
0202
0000
0000
0303
0100
0000
0010
0000
,
0220
0000
0330
0100
0001
1000
0000
1000
,
1100
0100
0000
0010
0100
0010
0000
0000
,
2200
0000
0000
3300
1000
0010
0100
0000
,
0220
0000
0000
0330
0100
0000
0001
0000
,
2002
0000
0000
3003
1000
0100
1000
0010
,
0110
0010
1000
0000
0100
0000
0010
0000
,
0220
0000
0330
0010
0001
0100
0001
0000
,
0202
0000
0000
0303
0100
0000
0010
0000
,
2020
0000
3030
1000
0010
1000
0000
0001
,
0101
0100
0000
0010
0100
0001
0000
0000
,
0022
0000
0030
0100
0000
0000
0100
0000
,
1000
0000
0000
0100
0100
0000
0100
0000
,
0010
0000
0000
0020
0000
0000
0000
0033
,
1000
0000
0100
0000
1000
0000
0010
0000
0100
0000
0010
0000
1000
0000
0100
1000
,
0000
0000
0000
2200
0000
0000
0300
0000
,
0010
0000
0100
0100
,
0010
0010
0010
0000
0001
0001
0001
0000
,
0010
0010
3010
0010
,
0010
0000
0100
0000
0010
0000
0100
0000
0001
0100
0001
0100
0001
0000
1000
0000
,
0100
1000
0100
1000
0100
0000
0010
0000
0011
0000
0100
0000
0010
0000
0001
0000
,
0100
0010
0100
0010
0100
0010
0100
0001
,
0100
0001
0100
0001
0100
0010
0100
0000
,
0202
0000
0000
0300
1000
0000
2003
0000
,
0020
0000
0000
0030
3020
0000
1000
0030
,
0220
0000
0000
0300
0100
0000
0130
0000
,
0202
0000
0000
0300
1000
0000
1003
0000
,
1000
0100
1000
0010
1000
0010
0100
0010
,
1000
0000
0100
0000
0010
0000
0100
0000
0010
0000
0100
0010
0000
0100
0010
0000
,
0001
0100
0001
0100
0001
1000
0100
1000
,
0010
0000
0100
0010
0000
0010
1000
0000
0100
0000
0100
0000
0010
0000
0000
0000
,
0100
0000
1000
0000
0010
0000
0100
0000
0010
0000
1000
0010
0000
0010
0100
0010
,
0100
0000
0010
0100
0000
0000
0001
0100
0001
0000
0100
0001
0000
0000
0001
0000
,
0100
0010
1100
0001
0101
0001
0110
1000
,
0110
1000
0010
0100
0010
0100
0100
0000
,
2002
0000
0000
3003
0001
0100
0010
0000
,
0202
0000
0000
0303
0001
0000
1000
0000
,
2020
0000
0000
3030
0010
0100
0001
0010
,
0011
0001
0010
0000
0001
0000
0100
0000
,
0220
0000
0330
0010
1000
0001
1000
0000
,
2020
0000
0000
3030
0010
0000
0100
0000
,
0220
0000
0330
0010
1000
0001
0000
0001
,
0011
0010
0000
0100
0010
0100
0000
0000
,
0022
0000
0000
0033
0001
0100
0010
0000
,
0220
0000
0000
0330
0010
0000
1000
0000
,
2002
0000
0000
3003
0001
0010
0001
0100
,
0110
0100
0001
0000
0010
0000
0100
0000
,
0220
0000
0330
0100
1000
0010
1000
0000
,
2020
0000
0000
3030
0010
0000
0100
0000
,
0202
0000
0303
0001
0100
0001
0000
1000
,
1010
0010
0000
0100
0010
1000
0000
0000
,
2200
0000
0300
0010
0000
0000
0010
0000
,
0001
0000
0000
0010
0010
0000
0010
0000
,
0100
0000
0000
0200
0000
0000
0000
3300
,
0001
0000
0010
0000
0001
0000
0100
0000
0010
0000
0100
0000
0001
0000
0010
0001
,
0000
0000
0000
0022
0000
0000
0030
0000
,
0100
0000
0010
0010
,
0100
0100
0100
0000
1000
1000
1000
0000
,
0100
0000
0100
0000
0103
0000
0220
0330
,
0010
0000
1000
0000
0010
0000
0000
0010
0000
0000
0010
0000
1000
0000
0000
0000
,
0010
0000
0100
0000
0010
0000
0000
0100
0000
0000
0100
0000
0001
0000
0000
0000
,
1000
0000
0100
0000
1000
0000
0000
0100
0000
0000
0100
0000
1000
0000
0000
0000
,
0010
0000
0100
0000
0010
0000
0000
0100
0000
0000
0100
0000
0001
0000
0000
0000
,
0100
0000
0000
0001
1000
0000
0001
0000
0000
0000
0001
0000
1000
0000
0000
0000
,
0100
0000
0000
0010
0100
0000
1000
0000
0000
0000
1000
0000
0100
0000
0000
0000
,
1000
0000
0000
0010
0100
0000
0010
0000
0000
0000
0010
0000
0100
0000
0000
0000
,
0001
0000
0000
1000
0001
0000
1000
0000
0000
0000
1000
0000
0001
0000
0000
0000
,
0220
0000
0000
0330
0100
0001
1000
0000
,
2200
0000
0000
3300
0100
0000
0010
0000
,
0022
0000
0000
0033
0001
1000
0100
0001
,
0101
0100
0001
0000
0100
0000
1000
0000
,
2002
0000
3003
0001
0010
0100
0010
0000
,
0022
0000
0000
0033
0001
0000
1000
0000
,
2002
0000
0000
0000
0000
3003
0000
0000
;
