#TITLE:No Plan B;
#ARTIST:Group 1 Crew;
#BANNER:No Plan B - Group 1 Crew.PNG;
#BACKGROUND:No Plan B - Group 1 Crew-bg.PNG;
#LYRICSPATH:No Plan B - Group 1 Crew.lrc;
#CDTITLE:.\CDTITLES\DP2G1.png;
#MUSIC:No Plan B - Group 1 Crew.mp3;
#OFFSET:-2.800;
#SAMPLESTART:60.86;
#SAMPLELENGTH:12;
#BPMS:0=101;
#BGCHANGES:3.5=No Plan B - Group 1 Crew1.AVI=1=1=1=0,41.5=No Plan B - Group 1 Crew2.AVI=0.882=1=1=0,241=No Plan B - Group 1 Crew-bg.PNG=1=0=0=0;

//---------------dance-single - ----------------
#NOTES:
     dance-single:
     :
     Easy:
     1:
     0.121,0.144,0.014,0.007,0:
1010
0000
0101
0000
,
0001
0000
1000
0000
,
0010
0000
0001
0000
,
1000
0000
0010
0000
,
0001
0000
1000
0000
,
0010
0000
0001
0000
,
0010
0000
0010
0000
,
1000
0000
0001
0000
,
1000
0000
0010
0000
,
0001
0000
1000
0000
,
0002
0000
0003
0000
,
0010
0000
1000
0000
,
0001
0000
0010
0000
,
1000
0000
0010
0000
,
0001
0000
1000
0000
,
0001
0000
0010
0000
,
1000
0000
0001
0000
,
0010
0000
0001
0000
,
1000
0000
0100
0000
,
0001
0000
1000
0000
,
0010
0000
0001
0000
,
1000
0000
0010
0000
,
0001
0000
0100
0000
,
1000
0000
0010
0000
,
0001
0000
0100
0000
,
1000
0000
0010
0000
,
0001
0000
1000
0000
,
0010
0000
1000
0000
,
0001
0000
1000
0000
,
0010
0000
0001
0000
,
1000
0000
0010
0000
,
0001
0000
1000
0000
,
0010
0000
0001
0000
,
1000
0000
0001
0000
,
0010
0000
1000
0000
,
0001
0000
1000
0000
,
0010
0000
0001
0000
,
1000
0000
0001
0000
,
0010
0000
1000
0000
,
0001
0000
1000
0000
,
0010
0000
0001
0000
,
1000
0000
0001
0000
,
0010
0000
1000
0000
,
0001
0000
1000
0000
,
0010
0000
0001
0000
,
1000
0000
0001
0000
,
0010
0000
1000
0000
,
0001
0000
0001
0000
,
1000
0000
0100
0000
,
0010
0000
1000
0000
,
0001
0000
0001
0000
,
1000
0000
0001
0000
,
0010
0000
1000
0000
,
0001
0000
0001
0000
,
1000
0000
0001
0000
,
0010
0000
1000
0000
,
0001
0000
0001
0000
,
1000
0000
0010
0000
,
0001
0000
0100
0000
,
1000
0000
0001
0000
,
0010
0000
1000
0000
,
0100
0000
0000
0000
;

//---------------dance-single - ----------------
#NOTES:
     dance-single:
     :
     Hard:
     7:
     0.332,0.309,0.061,0.007,0.300:
1010
1100
0011
0110
,
1010
0000
0000
0000
0010
0000
0000
1000
0000
0000
0001
0000
0000
1000
0000
0000
,
0010
0000
0000
0000
1000
0000
0000
0001
0000
0000
1000
0000
0000
0001
0000
0000
,
1000
0000
0000
0000
0001
0000
0000
0010
0000
0000
0100
0000
0000
0010
0000
0000
,
0001
0000
0000
0000
0010
0000
0000
1000
0000
0000
0001
0000
0000
0100
0000
0000
,
0010
0000
0000
0000
0100
0000
0000
0001
0000
0000
1000
0000
0000
0001
0000
0000
,
0010
0000
0000
0000
0100
0000
0000
0010
0000
0000
0100
0000
0000
0001
0000
0000
,
1000
0000
0001
1000
0001
1000
0001
0000
,
1000
0000
0000
0000
0001
0000
0000
0010
0000
0000
0100
0000
0000
1000
0000
0000
,
0001
0000
1000
0000
1000
0001
1000
0000
,
0002
0000
0000
0000
0000
0000
0003
0000
1000
0000
0000
0000
0001
0000
0000
0010
,
0000
0000
0100
0000
0000
0001
0000
0000
1000
0000
0000
0000
0010
0000
0000
0001
,
0000
0000
1000
0000
0000
0001
0000
0000
0010
0000
0000
0000
0100
0000
0000
1000
,
0000
0000
0001
0000
0000
1000
0000
0000
0010
0000
0000
0000
0100
0000
0000
0001
,
0000
0000
0010
0000
0001
0000
1000
0000
0001
0000
0000
0000
0010
0000
0000
0001
,
0000
0000
1000
0000
0000
0001
0000
0000
0010
0000
0000
0000
0001
0000
0000
1000
,
0000
0000
0001
0000
0000
1000
0000
0000
0001
0000
0000
0000
0100
0000
0000
0010
,
0000
0000
0100
0000
0000
1000
0000
0000
0001
0000
0000
0000
1000
0000
0000
1000
,
0000
0000
0001
0000
0000
1000
0000
0000
0100
0000
0010
0000
1000
0000
0000
0001
,
0000
0000
0010
0000
0000
0001
0000
0000
1000
0000
0000
0000
0001
0000
0000
0010
,
0000
0000
0100
0000
0000
1000
0000
0000
0001
0000
0000
0000
0010
0000
0000
1000
,
0000
0000
0001
0000
0000
1000
0000
0000
0010
0000
0000
0000
1000
0000
0000
0001
,
0000
0000
1000
0000
0000
0001
0000
0000
0101
0000
0000
0000
0100
0000
0000
1000
,
0000
0000
0010
0000
0000
0001
0000
0000
0010
0000
0000
0000
0100
0000
0000
0001
,
0000
0000
1000
0000
0000
0001
0000
0000
0100
0000
0000
0000
0010
0000
0000
1000
,
0000
0000
0001
0000
0000
1000
0000
0000
0010
0000
0000
0000
0100
0000
0000
0001
,
0000
0000
0010
0000
0000
0001
0000
0000
1000
0000
0000
0000
0001
0000
0000
0010
,
0000
0000
0100
0000
0000
0001
0000
0000
1000
0000
0010
0000
1000
0000
0000
0000
,
0001
0000
0010
0000
0001
0000
0000
0000
1000
0000
0100
0000
0000
0001
0000
0000
,
0010
0000
0000
1000
0000
0000
0100
0000
0001
0000
0010
0000
0100
0000
0000
0000
,
1000
0000
0001
0000
1000
0000
0000
0000
0001
0000
0000
0000
0010
0000
0000
1000
,
0000
0000
0001
0000
0000
0100
0000
0000
0001
0000
0001
0000
1000
0000
0000
0000
,
0010
0000
0100
0000
1000
0000
0000
0000
0001
0000
1000
0000
0000
0010
0000
0000
,
1000
0000
0000
0001
0000
0000
0100
0000
0001
0000
1000
0000
0001
0000
0000
0000
,
0010
0100
0001
0000
1000
0010
1000
0000
,
0011
0000
0001
1000
0100
0000
0001
0000
,
0010
0001
1000
0001
1000
0000
0010
0000
,
1000
0001
0000
0001
1000
0000
0000
0000
,
0010
0100
0000
0000
1000
0001
0000
0100
,
0001
0000
1000
0000
0001
0000
0000
1000
0000
0000
0010
0000
1000
0000
0000
0010
,
0000
0000
0001
0000
1000
0000
0000
0000
0001
0000
0010
0000
0001
0000
0000
1000
,
0000
0000
0100
0000
1000
0000
0000
0001
0000
0000
1000
0000
0001
0000
0000
0010
,
0000
0000
0100
0000
0001
0000
0000
1000
0000
0000
0100
0000
0010
0000
0000
0001
,
0000
0000
0010
0000
0001
0000
0000
1000
0000
0000
0001
0000
1000
0000
0000
0010
,
0000
0000
0100
0000
1000
0000
0000
0000
0001
0000
0100
0000
0001
0000
0000
1000
,
0000
0000
0010
0000
1000
0000
0000
0000
0001
0000
0000
0000
1000
0000
0000
0001
,
0000
0000
0010
0000
0101
0000
0000
1000
0000
0000
0100
0000
1000
0000
0000
0001
,
0000
0000
0010
0000
0100
0000
0000
0001
0000
0000
0010
0000
0100
0000
0000
0010
,
0000
0000
0001
0000
0100
0000
0000
0000
0100
0000
1000
0000
0001
0000
0000
0010
,
0000
0001
0010
0000
1000
0010
1000
0000
,
0001
0000
0100
0000
1000
0000
0000
0000
0001
0000
0010
0000
0001
0000
0000
1000
,
0000
0000
0100
0000
0000
0010
0000
0000
0001
0000
1000
0000
0001
0000
0000
0010
,
0000
0000
0001
0000
0000
0100
0000
0000
1000
0000
0010
0000
1000
0000
0000
0001
,
0000
0000
0100
0000
0000
1000
0000
0000
0001
0000
0010
0000
0001
0000
0000
1000
,
0000
0000
0010
0000
0000
0100
0000
0000
0001
0000
0100
0000
1000
0000
0000
0010
,
0000
0000
0001
0000
0000
0100
0000
0000
1000
0000
0100
0000
0010
0000
0000
0001
,
0000
0000
1000
0000
0000
0100
0000
0000
0001
0000
0010
0000
0100
0000
0000
1000
,
0000
0000
0001
0000
0000
0100
0000
0000
0010
0000
0100
0000
0010
0000
0000
0001
,
0000
0000
1000
0000
0000
0100
0000
0000
0001
0000
1000
0000
0001
0000
0000
1000
,
0000
0000
0010
0000
0000
1000
0000
0000
0001
0000
1000
0000
0001
0000
0000
0010
,
0000
0000
0001
0000
0000
0100
0000
0000
1000
0000
0001
0000
0010
0000
0000
0000
,
0110
0000
0000
0000
;

//---------------dance-single - ----------------
#NOTES:
     dance-single:
     :
     Medium:
     4:
     0.247,0.288,0.034,0.007,0.182:
1010
1100
0101
0011
,
1010
0000
0000
0000
0010
0000
0000
1000
0000
0000
0001
0000
0000
0000
0000
0000
,
0010
0000
0000
0000
1000
0000
0000
0001
0000
0000
1000
0000
0000
0000
0000
0000
,
1000
0000
0000
0000
0001
0000
0000
0010
0000
0000
0100
0000
0000
0000
0000
0000
,
0001
0000
0000
0000
0010
0000
0000
1000
0000
0000
0001
0000
0000
0000
0000
0000
,
0010
0000
0000
0000
0100
0000
0000
0001
0000
0000
1000
0000
0000
0000
0000
0000
,
0010
0000
0000
0000
0100
0000
0000
0010
0000
0000
0100
0000
0000
0000
0000
0000
,
1000
0000
0000
0000
0001
0000
0000
0001
0000
0000
1000
0000
0000
0000
0000
0000
,
1000
0000
0000
0000
0001
0000
0000
0010
0000
0000
0100
0000
0000
0000
0000
0000
,
0001
0000
1000
0000
1000
0001
1000
0000
,
0002
0000
0000
0000
0000
0000
0003
0000
1000
0000
0000
0000
0001
0000
0000
0010
,
0000
0000
0100
0000
0000
0000
0000
0000
1000
0000
0000
0000
0010
0000
0000
0001
,
0000
0000
1000
0000
0000
0000
0000
0000
0010
0000
0000
0000
0100
0000
0000
1000
,
0000
0000
0001
0000
0000
0000
0000
0000
0010
0000
0000
0000
0100
0000
0000
0001
,
0000
0000
0010
0000
0000
0000
0000
0000
1000
0000
0000
0000
0001
0000
0000
0001
,
0000
0000
1000
0000
0000
0000
0000
0000
0010
0000
0000
0000
0001
0000
0000
1000
,
0000
0000
0001
0000
0000
0000
0000
0000
0001
0000
0000
0000
0100
0000
0000
0010
,
0000
0000
0100
0000
0000
0000
0000
0000
0001
0000
0000
0000
1000
0000
0000
1000
,
0000
0000
0001
0000
0000
0100
0000
0000
0010
0000
0000
0000
0001
0000
0000
0001
,
0000
0000
0010
0000
0000
0001
0000
0000
1000
0000
0000
0000
0001
0000
0000
0010
,
0000
0000
0100
0000
0000
0001
0000
0000
0001
0000
0000
0000
0010
0000
0000
1000
,
0000
0000
0001
0000
0000
1000
0000
0000
0010
0000
0000
0000
1000
0000
0000
0001
,
0000
0000
1000
0000
0000
0100
0000
0000
0001
0000
0000
0000
1000
0000
0000
0010
,
0000
0000
0010
0000
0000
0000
0000
0000
0010
0000
0000
0000
0100
0000
0000
0001
,
0000
0000
1000
0000
0000
0000
0000
0000
0100
0000
0000
0000
0010
0000
0000
1000
,
0000
0000
0001
0000
0000
0000
0000
0000
0010
0000
0000
0000
0100
0000
0000
0001
,
0000
0000
0010
0000
0000
0000
0000
0000
1000
0000
0000
0000
0001
0000
0000
0010
,
0000
0100
0000
0000
1000
0010
0000
0000
,
0001
0010
0000
0000
1000
0100
0000
0000
,
0010
0000
0000
1000
0000
0000
0000
0000
0001
0000
0010
0000
0000
0000
0000
0000
,
1000
0000
0001
0000
0000
0000
0000
0000
0010
0000
0100
0000
0000
0000
0000
0001
,
0000
0100
0000
0000
1000
0001
0000
0000
,
0010
0100
0000
0000
0001
1000
0000
0000
,
1000
0000
0000
0001
0000
0000
0000
0000
0001
0000
1000
0000
0000
0000
0000
0000
,
0010
0100
0000
0000
1000
0010
0000
0000
,
0001
0010
0000
1000
0100
0000
0000
0000
,
0010
0100
0000
0000
0001
0000
0010
0000
,
1000
0001
0000
0000
0001
1000
0000
0000
,
0010
0000
0100
0000
0000
0000
0000
0000
1000
0000
0001
0000
0000
0000
0000
0001
,
0000
0000
1000
0000
0000
0000
0000
0000
1000
0000
0010
0000
0000
0000
0000
0010
,
0000
0000
0100
0000
0000
0000
0000
0000
0001
0000
0000
0000
0010
0000
0000
1000
,
0000
0000
0100
0000
0000
0000
0000
0000
0001
0000
0000
0000
1000
0000
0000
0010
,
0000
0000
0100
0000
0000
0000
0000
0000
1000
0000
0100
0000
0000
0000
0000
0001
,
0000
0000
0010
0000
0000
0000
0000
0000
1000
0000
0000
0000
0001
0000
0000
0010
,
0000
0000
0100
0000
0000
0000
0000
0000
0001
0000
0100
0000
0000
0000
0000
1000
,
0000
0000
0010
0000
0000
0000
0000
0000
0001
0000
0000
0000
1000
0000
0000
0010
,
0000
0000
0000
0000
0001
0000
0000
0000
1000
0000
0100
0000
0000
0000
0000
0001
,
0000
0000
0010
0000
0000
0000
0000
0000
0001
0000
0000
0000
0010
0000
0000
1000
,
0000
0000
0010
0000
0000
0000
0000
0000
0100
0000
0000
0000
1000
0000
0000
0010
,
0000
0001
0000
0000
1000
0010
0000
0000
,
0001
0000
0100
0000
0000
0000
0000
0000
0001
0000
0010
0000
0000
0000
0000
1000
,
0000
0000
0100
0000
0000
0000
0000
0000
0001
0000
1000
0000
0000
0000
0000
0010
,
0000
0000
0001
0000
0000
0000
0000
0000
1000
0000
0000
0000
0010
0000
0000
0001
,
0000
0000
0100
0000
0000
0000
0000
0000
0001
0000
0010
0000
0000
0000
0000
1000
,
0000
0000
0010
0000
0000
0000
0000
0000
0001
0000
0100
0000
0000
0000
0000
0010
,
0000
0000
0001
0000
0000
0000
0000
0000
1000
0000
0100
0000
0000
0000
0000
0001
,
0000
0000
1000
0000
0000
0000
0000
0000
0001
0000
0000
0000
0010
0000
0000
1000
,
0000
0000
0001
0000
0000
0000
0000
0000
0010
0000
0100
0000
0000
0000
0000
0001
,
0000
0000
1000
0000
0000
0000
0000
0000
0100
0000
0001
0000
0000
0000
0000
1000
,
0000
0000
0010
0000
0000
0000
0000
0000
0001
0000
0000
0000
1000
0000
0000
0010
,
0000
0001
0000
0000
1000
0000
0001
0000
,
0100
0000
0000
0000
;

//---------------dance-single - ----------------
#NOTES:
     dance-single:
     :
     Challenge:
     9:
     0.613,0.537,0.088,0.034,0.817:
0010
0000
0000
1000
0001
0000
0000
1000
0001
0000
0000
0100
0010
0000
0100
0000
,
0001
0000
1000
0000
0100
0000
1000
0010
0100
0010
0100
0001
0000
0000
0000
0001
,
0100
0000
0001
0000
1000
0000
0100
1000
0100
1000
0100
1000
0000
0010
0000
0000
,
0100
0000
0010
0000
0100
0000
0001
0100
0001
0100
0001
0100
0000
0000
0000
0100
,
0010
0000
0100
0000
0001
0000
1000
0100
1000
0100
1000
0000
0000
1100
0000
0000
,
0110
0000
0000
0000
0110
0000
0001
0100
0001
0100
0001
0100
0000
0000
0000
0100
,
0010
0000
0100
0000
0001
0000
1000
0100
1000
0100
1000
0001
0000
1000
0000
0000
,
0001
0000
0100
0000
0010
0000
0100
0001
0100
0001
0100
0001
0000
0000
0000
0110
,
0010
0100
0010
0100
0010
0000
0010
0100
0000
0000
0001
0000
0000
1000
0000
0000
,
0100
1000
0100
1000
0010
0100
0010
0100
0010
1000
0100
0010
0100
0010
0100
1000
,
0002
0000
0000
0000
0000
0000
0000
0000
0103
0000
0001
0100
0001
0100
0000
0000
,
0100
0010
0100
0010
0100
0000
0010
0000
1000
0010
1000
0010
0000
0000
1000
0100
,
1000
0000
1000
0100
0000
1000
0010
0000
0100
0000
0010
0100
0010
0100
0001
0100
,
0001
0100
0000
0100
0000
0000
0010
0100
0000
0010
0100
0010
1000
0010
0000
1000
,
0000
0010
0100
0010
1000
0000
0010
1000
0010
0000
0100
0000
0001
0100
0000
0001
,
0100
0000
0001
0100
0000
0010
0100
0000
0001
0000
1000
0000
0100
1000
0000
0100
,
1000
0000
0010
0100
0000
0010
0100
0000
0100
0000
0001
0000
0100
0001
0000
0100
,
0001
0000
1000
0100
0000
1000
0100
0000
1000
0000
0010
0000
0100
0010
0000
1000
,
0100
0000
0010
0100
0000
1000
0100
0000
1000
0000
0010
0000
0100
0010
1000
0010
,
0100
0000
0100
0010
0000
0000
0100
0000
0010
0000
0100
0000
0001
0010
0000
0100
,
0010
0000
0001
1000
0000
0000
0001
0100
0001
0000
0010
0000
0100
1000
0000
1000
,
0001
0000
0100
0001
0000
1000
0100
0000
1000
0000
0010
0000
0100
0010
0000
0010
,
0100
0000
0100
0001
0000
0001
0100
0000
0001
1000
0001
1000
0001
0100
0001
0100
,
0010
0000
0100
0000
0001
0000
0100
0000
0010
0100
0001
0100
0001
0000
1000
0000
,
0001
0000
0100
0001
0100
0000
0010
0000
0100
0001
0100
0001
0100
0000
0010
1000
,
0100
0000
1000
0100
1000
0000
0010
0100
0010
0000
1000
0000
0100
0010
0100
0010
,
0000
0000
0100
0000
0000
0010
0000
0000
0001
0000
0100
0000
0010
0000
1000
0000
,
0100
0010
0100
0010
0000
0000
0000
0010
0001
0000
0100
0000
0010
0000
1000
0100
,
0010
0100
0010
0100
1000
0000
0010
0000
1000
0000
0001
0000
0100
0000
0010
0100
,
0001
0100
0001
0100
0000
0000
0000
0100
0010
0000
0100
0000
0010
0000
1000
0100
,
0010
0000
0011
0000
0000
1010
0000
0000
1100
0000
0000
0010
0100
0000
0010
1000
,
0010
0100
0010
0100
0000
0000
0000
0010
0100
0000
0010
0000
1000
0000
0100
0010
,
0100
1000
0100
1000
0000
1000
0000
0000
0010
0000
0100
0000
0010
0000
1000
0100
,
0010
0100
0010
0100
0000
0000
0000
0010
0001
0100
0001
0000
0100
0000
0000
0110
,
0000
0000
0101
0000
0000
1010
0000
0000
0100
0000
0000
0000
0010
0000
0010
0010
,
0000
0010
0100
0000
0100
0010
0100
0000
0001
0000
1000
0000
0001
0100
0001
0100
,
0000
0100
0010
0000
0100
0010
0100
0000
0010
0000
0100
0001
0100
0001
0100
0010
,
0000
1000
0010
0000
1010
0000
0110
0000
0000
0000
0000
0100
0010
0100
0010
0100
,
0001
0100
0001
0100
0001
0000
1100
0000
0100
0000
1000
0000
0010
0100
0010
0000
,
1000
0010
0000
0010
0100
0000
0010
0000
0100
0010
1000
0000
0100
0010
0000
0010
,
0001
0000
0010
0100
0000
0100
1000
0000
0001
0000
0100
0000
0010
0010
0000
0100
,
0100
0000
0001
0001
0000
1000
1000
0000
0100
0000
0010
0000
0001
0100
0000
0100
,
0010
0000
0010
0100
0000
0100
0001
0000
0010
0000
0100
0000
0100
0010
0000
0010
,
0001
0000
0001
0010
0000
0010
0100
0000
0010
0000
0001
0000
0100
0010
0000
0010
,
0100
0000
0100
0001
0000
0001
1000
0000
0100
0000
0010
0000
0100
0100
0000
0100
,
1000
0000
1000
0010
0000
0010
0100
0000
0010
0000
1000
0000
0100
0100
0000
0010
,
0010
0000
0100
0100
0000
0010
0010
0000
0001
0000
0100
0000
0010
0100
0000
0010
,
0100
0000
0001
0100
0000
0001
0100
0000
0001
0000
0100
0000
0001
1000
0000
0001
,
0100
0000
0001
1000
0000
0001
0100
0000
0010
0000
0100
0000
0001
1000
0000
0100
,
1000
0000
0100
1000
0000
1000
0010
0000
0020
0000
2030
0000
3002
0000
0203
0000
,
0301
0000
0100
0100
0000
0001
0001
0000
0100
0000
0010
0000
1000
0100
0000
0010
,
0100
0000
0010
0100
0000
0010
0001
0000
0100
0000
0010
0000
1000
0100
0000
0010
,
0100
0000
1000
0010
0000
0100
0010
0000
1000
0000
0100
0000
0010
0100
0000
0010
,
0001
0000
0010
0001
0000
0100
0010
0000
0100
0000
0010
0000
1000
0100
0000
0100
,
1000
0000
1000
0010
0000
0010
0100
0000
0010
0000
1000
0000
0100
0000
1000
0000
,
0010
0100
0010
0100
0000
0000
0000
0010
0100
0000
0001
0000
1000
0000
0100
1000
,
0100
1000
0100
1000
0000
0010
0000
0000
0100
0000
0010
0000
1000
0000
0100
0010
,
0100
0010
0100
0010
0000
0000
0000
0010
0001
0010
0001
0010
0001
0000
0001
0010
,
0001
0010
0100
0000
0000
0100
0000
0000
0010
0001
0100
0000
0010
0000
0100
0000
,
0010
1000
0010
0100
0000
0000
0000
0010
1000
0000
0100
0000
0010
0000
0100
1000
,
0010
0100
0010
1000
0000
0010
0000
0000
0100
0000
0010
0000
1000
0000
0010
0100
,
0001
0010
0100
0000
0000
0000
0000
0000
0000
0000
0000
0000
0000
0000
0000
0000
;
