#TITLE:Neverending;
#ARTIST:David Crowder*Band;
#BANNER:Neverending - David CrowderBand.PNG;
#BACKGROUND:Neverending - David CrowderBand-bg.PNG;
#LYRICSPATH:Neverending - David CrowderBand.lrc;
#CDTITLE:.\CDTITLES\DP2DAVID2.png;
#MUSIC:Neverending - David CrowderBand.mp3;
#OFFSET:-2.014;
#SAMPLESTART:54.4;
#SAMPLELENGTH:12;
#BPMS:0=160;
#BGCHANGES:0=Neverending - David CrowderBand.AVI=1=1=1=0,999=-=1=0=0=0;

//---------------dance-single - ----------------
#NOTES:
     dance-single:
     :
     Easy:
     1:
     0.120,0.230,0,0.027,0:
0000
0000
0000
0000
,
1000
0000
0000
0000
,
0001
1000
0001
1000
,
0001
0000
0000
0000
,
0010
0000
0000
0000
,
1000
0000
0000
0000
,
0001
1000
0001
1000
,
0001
0000
0000
0000
,
1000
0000
0000
0000
,
0010
0000
0000
0000
,
0010
0001
0010
0001
,
0010
0000
0000
0000
,
1000
0000
0000
0000
,
0010
0000
0000
0000
,
0010
1000
0010
1000
,
0020
0000
0000
0030
,
0001
0000
0000
0000
,
2000
0000
0000
3000
,
0010
0000
0000
0000
,
0001
0000
0000
0000
,
0010
0000
0000
0000
,
1000
0000
0000
0000
,
0010
0000
0000
0000
,
0001
0000
0000
0000
,
0010
0000
0000
0000
,
1000
0000
0000
0000
,
0100
0000
0000
0000
,
0010
0000
0000
0000
,
0100
0000
0000
0000
,
0001
0000
0000
0000
,
0100
0000
0000
0000
,
1000
0000
0000
0000
,
0001
0000
0000
0000
,
0010
0000
0000
0000
,
0100
0000
0000
0000
,
0001
0000
0000
0000
,
1000
0000
0000
0000
,
0010
0000
0000
0000
,
1000
0010
1000
0010
,
1000
0000
0000
0000
,
0010
0000
0000
0000
,
0001
0000
0000
0000
,
0010
0001
0010
0001
,
0010
0000
0000
0000
,
1000
0000
0000
0000
,
0001
0000
0000
0000
,
1000
0001
1000
0001
,
1000
0000
0000
0000
,
0001
0000
0000
0000
,
0010
0000
0000
0000
,
0100
0010
0100
0010
,
0200
0000
0000
0300
,
0010
0000
0000
0000
,
1000
0000
0000
0000
,
0001
0000
0000
0000
,
0010
0000
0000
0000
,
0001
0000
0000
0000
,
1000
0000
0000
0000
,
0001
0000
0000
0000
,
0010
0000
0000
0000
,
0100
0000
0000
0000
,
0001
0000
0000
0000
,
0100
0000
0000
0000
,
0010
0000
0000
0000
,
0100
0000
0000
0000
,
0001
0000
0000
0000
,
1000
0000
0000
0000
,
0010
0000
0000
0000
,
0100
0000
0000
0000
,
1000
0000
0000
0000
,
0001
0000
0000
0000
,
0010
0000
0000
0000
,
0100
0000
0000
0000
,
0001
0000
0000
0000
,
1000
0000
0000
0000
,
0010
0000
0000
0000
,
0100
0000
0000
0000
,
1000
0000
0000
0000
,
0001
0000
0000
0000
,
0010
0000
0000
0000
,
0100
0000
0000
0000
,
0001
0000
0000
0000
,
1000
0000
0000
0000
,
0010
0000
0000
0000
,
0001
0000
0000
0000
,
1000
0000
0000
0000
,
0100
0000
0000
0000
,
0010
0000
0000
0000
,
1000
0000
0000
0000
,
0001
0000
0000
0000
,
1000
0000
0000
0000
,
0010
0000
0000
0000
,
0001
0000
0000
0000
,
1000
0000
0000
0000
,
0100
0000
0000
0000
,
0020
0000
0000
0000
,
0000
0000
0030
0000
0000
0000
0000
0000
0000
0000
0000
0000
0000
0000
0000
0000
0000
0000
0000
0000
0000
0000
0000
0000
0000
0000
0000
0000
0000
0000
0000
0000
0000
0000
0000
0000
0000
0000
0000
0000
0000
0000
0000
0000
0000
0000
0000
0000
0000
0000
0000
0000
0000
0000
0000
0000
0000
0000
0000
0000
0000
0000
0000
0000
0000
0000
0000
0000
0000
0000
0000
0000
0000
0000
0000
0000
0000
0000
0000
0000
0000
0000
0000
0000
0000
0000
0000
0000
0000
0000
0000
0000
0000
0000
0000
0000
0000
0000
0000
0000
0000
0000
0000
0000
0000
0000
0000
0000
0000
0000
0000
0000
0000
0000
0000
0000
0000
0000
0000
0000
0000
0000
0000
0000
0000
0000
0000
0000
0000
0000
0000
0000
0000
0000
0000
0000
0000
0000
0000
0000
0000
0000
0000
0000
0000
0000
0000
0000
0000
0000
0000
0000
0000
0000
0000
0000
0000
0000
0000
0000
0000
0000
0000
0000
0000
0000
0000
0000
0000
0000
0000
0000
0000
0000
0000
0000
0000
0000
0000
0000
0000
0000
0000
0000
0000
0000
0000
0000
0000
0000
0000
0000
;

//---------------dance-single - ----------------
#NOTES:
     dance-single:
     :
     Hard:
     5:
     0.367,0.361,0.007,0.041,0:
0000
0000
0001
0000
,
1000
0001
0010
0100
,
0001
1000
0001
1000
,
0001
0010
0100
1000
,
0010
1000
0001
0010
,
1000
0001
0010
0100
,
0001
1000
0001
1000
,
0001
0100
0010
0001
,
1000
0010
0001
0100
,
0010
0100
1000
0100
,
0010
0001
0010
0001
,
0010
1000
0100
0001
,
1000
0010
0001
0100
,
0010
1000
0100
0001
,
0010
1000
0010
1000
,
0020
0000
0100
0000
1000
0000
0100
0030
,
0001
0100
0010
0001
,
2000
0000
0010
0000
0001
0000
0010
3000
,
0001
0010
1000
0100
,
0001
0100
1000
0001
,
0010
0100
0001
0010
,
1000
0001
0100
0001
,
0010
0001
1000
0010
,
0000
0010
1000
0001
,
0010
0001
0100
0001
,
1000
0010
0001
0010
,
0100
0001
1000
0000
,
0000
0010
0001
0010
,
0100
0001
0010
1000
,
0001
1000
0010
1000
,
0100
1000
0001
0000
,
1000
1000
0010
0010
,
0001
0001
1000
1000
,
0010
0010
1000
1000
,
0100
0100
1000
1000
,
0001
1000
0010
0100
,
1000
0001
0100
0010
,
0010
0100
0001
0100
,
1000
0010
1000
0010
,
1000
0010
0001
1000
,
0010
0100
1000
0001
,
0001
1000
0100
1000
,
0010
0001
0010
0001
,
0010
1000
0100
0010
,
1000
0001
0010
0100
,
0001
1000
0100
0010
,
1000
0001
1000
0001
,
1000
0100
0010
1000
,
0001
0010
0100
0100
,
0010
1000
0001
1000
,
0100
0010
0100
0010
,
0200
0000
0010
0000
0001
0000
0010
0300
,
1000
0010
0001
0100
,
1000
0100
0010
0000
,
0001
0010
1000
0001
,
0010
1000
0100
0010
,
0001
1000
0010
0001
,
1000
0010
0100
0010
,
0001
1000
0200
0000
,
0010
0300
0001
0000
1000
0000
0001
0000
,
0100
0001
1000
0010
,
0001
0100
0010
1000
,
0100
0001
1000
0000
,
0000
0001
1000
0001
,
0100
0001
0010
1000
,
0001
0010
0100
0010
,
1000
0010
0001
1000
,
0000
1000
0001
0010
,
0100
1000
0001
0010
,
0000
0001
0010
1000
,
0001
0000
0010
0000
1000
0000
0001
0010
,
0001
0010
1000
0000
0001
0000
0010
0000
,
0100
1000
0010
1000
,
0000
0001
0010
0100
,
1000
0010
0001
0000
,
0010
0010
0001
0001
,
0100
0100
0010
0010
,
1000
1000
0100
0100
,
0001
0001
1000
1000
,
0010
0010
0001
0001
,
0100
0100
0010
0010
,
0001
0001
0010
0010
,
1000
1000
0100
0100
,
0010
0010
1000
1000
,
0001
0001
0010
0010
,
1000
1000
0001
0001
,
0100
0100
0001
0001
,
0010
0010
0001
0001
,
1000
1000
0100
0100
,
0001
0001
0010
0010
,
1000
1000
0001
0001
,
0010
0010
1000
1000
,
0001
0001
0010
0010
,
1000
1000
0001
0001
,
0100
0100
1000
1000
,
2020
0000
0000
0000
,
3030
0000
0000
0000
;

//---------------dance-single - ----------------
#NOTES:
     dance-single:
     :
     Medium:
     3:
     0.205,0.263,0,0.027,0:
0000
0000
0001
0000
,
1000
0000
0010
0000
,
0001
1000
0001
1000
,
0001
0000
0100
0000
,
0010
0000
0001
0000
,
1000
0000
0010
0000
,
0001
1000
0001
1000
,
0001
0000
0010
0000
,
1000
0000
0001
0000
,
0010
0000
1000
0000
,
0010
0001
0010
0001
,
0010
0000
0100
0000
,
1000
0000
0001
0000
,
0010
0000
0100
0000
,
0010
1000
0010
1000
,
0020
0000
0000
0000
1000
0000
0000
0030
,
0001
0000
0010
0000
,
2000
0000
0001
3000
,
0010
0000
1000
0000
,
0001
0000
1000
0000
,
0010
0000
0001
0000
,
1000
0000
0100
0000
,
0010
0000
1000
0000
,
0001
0000
1000
0000
,
0010
0000
0100
0000
,
1000
0000
0001
0000
,
0100
0000
1000
0000
,
0010
0000
0001
0000
,
0100
0000
0010
0000
,
0001
0000
0010
0000
,
0100
0000
0001
0000
,
1000
0000
0010
0000
,
0001
0000
1000
0000
,
0010
0000
1000
0000
,
0100
0000
1000
0000
,
0001
0000
0010
0000
,
1000
0000
0100
0000
,
0010
0000
0001
0000
,
1000
0010
1000
0010
,
1000
0000
0001
0000
,
0010
0000
1000
0000
,
0001
0000
0100
0000
,
0010
0001
0010
0001
,
0010
0000
0100
0000
,
1000
0000
0010
0000
,
0001
0000
0100
0000
,
1000
0001
1000
0001
,
1000
0000
0010
0000
,
0001
0000
0100
0000
,
0010
0000
0001
0000
,
0100
0010
0100
0010
,
0200
0000
0000
0000
0001
0000
0000
0300
,
0010
0000
0001
0000
,
1000
0000
0010
0000
,
0001
0000
1000
0000
,
0010
0000
0100
0000
,
0001
0000
0010
0000
,
1000
0000
0100
0000
,
0001
0000
0100
0000
,
0010
0000
1000
0000
,
0100
0000
1000
0000
,
0001
0000
0010
0000
,
0100
0000
1000
0000
,
0010
0000
1000
0000
,
0100
0000
0010
0000
,
0001
0000
0100
0000
,
1000
0000
0001
0000
,
0010
0000
0001
0000
,
0100
0000
0001
0000
,
1000
0000
0010
0000
,
0001
0000
1000
0000
,
0010
0000
0001
0000
,
0100
0000
0010
0000
,
0001
0000
0010
0000
,
1000
0000
0001
0000
,
0010
0000
0001
0000
,
0100
0000
0010
0000
,
1000
0000
0100
0000
,
0001
0000
1000
0000
,
0010
0000
0001
0000
,
0100
0000
0010
0000
,
0001
0000
0010
0000
,
1000
0000
0100
0000
,
0010
0000
1000
0000
,
0001
0000
0010
0000
,
1000
0000
0001
0000
,
0100
0000
0001
0000
,
0010
0000
0001
0000
,
1000
0000
0100
0000
,
0001
0000
0010
0000
,
1000
0000
0001
0000
,
0010
0000
1000
0000
,
0001
0000
0010
0000
,
1000
0000
0001
0000
,
0100
0000
1000
0000
,
0020
0000
0000
0000
,
0000
0030
0000
0000
0000
0000
0000
0000
0000
0000
0000
0000
0000
0000
0000
0000
0000
0000
0000
0000
0000
0000
0000
0000
0000
0000
0000
0000
0000
0000
0000
0000
0000
0000
0000
0000
0000
0000
0000
0000
0000
0000
0000
0000
0000
0000
0000
0000
0000
0000
0000
0000
0000
0000
0000
0000
0000
0000
0000
0000
0000
0000
0000
0000
0000
0000
0000
0000
0000
0000
0000
0000
0000
0000
0000
0000
0000
0000
0000
0000
0000
0000
0000
0000
0000
0000
0000
0000
0000
0000
0000
0000
0000
0000
0000
0000
0000
0000
0000
0000
0000
0000
0000
0000
0000
0000
0000
0000
0000
0000
0000
0000
0000
0000
0000
0000
0000
0000
0000
0000
0000
0000
0000
0000
0000
0000
0000
0000
0000
0000
0000
0000
0000
0000
0000
0000
0000
0000
0000
0000
0000
0000
0000
0000
0000
0000
0000
0000
0000
0000
0000
0000
0000
0000
0000
0000
0000
0000
0000
0000
0000
0000
0000
0000
0000
0000
0000
0000
0000
0000
0000
0000
0000
0000
0000
0000
0000
0000
0000
0000
0000
0000
0000
0000
0000
0000
0000
0000
0000
0000
0000
0000
;

//---------------dance-single - ----------------
#NOTES:
     dance-single:
     :
     Challenge:
     7:
     0.533,0.723,0.390,0.602,0:
0000
0000
0000
0000
,
0002
0000
0200
0003
,
0301
1000
0100
0010
,
0002
0000
2000
0003
,
0200
3000
2000
0300
,
0020
3000
0200
0030
,
0301
1000
0001
0010
,
0002
0000
0200
0003
,
0020
0300
2000
0030
,
0200
3000
0020
0300
,
0031
1000
0100
0010
,
0002
0000
2000
0003
,
0002
3000
0200
0003
,
0020
0300
2000
0030
,
3001
0100
0001
1000
,
0100
0000
0100
0000
0010
0001
0010
0000
,
0001
0000
0001
0000
0100
0001
0100
0000
,
0010
0000
0010
0000
1000
0100
1000
0000
,
0100
0000
0100
0000
1000
0001
1000
0000
,
0001
0000
0001
0000
0100
0001
0100
0000
,
0010
0000
0010
0000
0100
0001
1000
0000
,
0001
0000
0001
0000
0100
0001
1000
0000
,
0100
1000
0010
0000
1000
0100
0010
0000
,
0001
0000
0100
0000
0001
0100
0001
0000
,
1000
0010
1000
0000
0010
0100
0010
0000
,
1000
0000
0100
0000
0010
0001
0010
0000
,
0001
0100
0001
0000
1000
0001
1000
0000
,
0001
0000
0100
0000
0010
1000
0010
0000
,
0100
0010
0100
0000
0001
0100
0001
0000
,
1000
0000
0100
0000
0010
0100
0010
0000
,
0100
1000
0100
0000
1000
0001
0100
0000
,
0010
0100
0101
0101
,
0001
1000
1100
1100
,
1000
0010
0110
0110
,
0100
0001
1001
0101
,
0001
0000
1000
0000
0001
0100
0001
0000
,
0100
0000
0010
0000
1000
0010
1000
0000
,
0010
0000
0100
0000
0010
1000
0100
0000
,
0010
0001
0100
0101
,
0100
0000
0010
0000
1000
0010
0100
0000
,
0010
0000
1000
0000
0100
0010
0001
0000
,
0100
0000
0010
0000
0100
0001
0010
0000
,
0100
0010
0001
1100
,
0001
0000
1000
0000
0100
1000
0010
0000
,
0100
0000
0010
0000
1000
0001
0100
0000
,
0001
0000
0100
0000
0010
0100
0001
0000
,
1000
0100
0010
1001
,
0100
0000
0010
0000
1000
0100
0010
0000
,
0100
0000
1000
0000
0001
0100
0001
0000
,
1000
0000
0100
0000
0010
0100
0010
0000
,
0100
1000
0001
0110
,
0010
1000
0010
0100
0010
1000
0100
1000
,
0100
0010
0100
1000
0010
0100
0010
1000
,
0100
0010
0001
0100
0010
0100
0001
0010
,
0100
0010
0001
0100
0010
0100
0001
0010
,
0100
0010
0001
0100
0010
1000
0100
0010
,
0100
1000
0010
0100
0010
1000
0100
0010
,
0100
1000
0010
0100
0010
1000
0100
1000
,
0020
0000
2000
3030
,
0001
0100
0010
1000
,
0001
0100
0020
2000
,
0030
3001
0100
0010
,
1000
0002
0200
0003
,
0301
1000
0100
0010
,
0001
0100
0020
2000
,
0030
3100
0010
0001
,
1000
0200
0020
0300
,
0031
0100
0001
0001
,
1000
0001
0010
0220
,
0330
1000
0010
0100
,
0100
0001
2020
3030
,
1000
0001
0001
0100
,
0001
1000
0100
2200
,
3300
1000
0010
0100
,
0010
1000
2002
3003
,
0202
0303
0202
0303
,
2002
3003
2002
3003
,
2020
3030
2020
3030
,
0220
0330
0220
0330
,
0101
0101
0101
0101
,
1010
1010
1010
1010
,
1100
1100
1100
1100
,
0011
0011
0011
0011
,
0010
0010
0001
0001
,
0100
0100
0001
0001
,
1000
1000
0001
0001
,
0100
0100
0010
0010
,
2020
0030
3001
0000
0202
0300
1003
0000
,
2002
0003
3001
0000
0022
0030
0013
0000
,
0220
0030
0310
0000
0022
0003
0031
0000
,
0202
0003
0301
0000
2002
3000
1003
0000
,
2020
0030
3010
0000
0220
0300
0130
0000
,
0202
0300
0103
0000
2002
0003
3010
0000
,
0202
0300
0013
0000
0220
0030
1300
0000
,
2020
0030
3100
0000
2002
3000
0103
0000
,
2200
0000
0000
0000
,
3300
0000
0000
0000
;
