#TITLE:Never Let Me Go;
#ARTIST:Family Force 5;
#BANNER:Never Let Me Go - Family Force 5.PNG;
#BACKGROUND:Never Let Me Go - Family Force 5-bg.PNG;
#LYRICSPATH:Never Let Me Go - Family Force 5.lrc;
#CDTITLE:.\CDTITLES\DP2FF52.png;
#MUSIC:Never Let Me Go - Family Force 5.mp3;
#OFFSET:-1.693;
#SAMPLESTART:44.54;
#SAMPLELENGTH:13;
#BPMS:0=119;
#BGCHANGES:0=Never Let Me Go - Family Force 5.AVI=1=1=1=0,999=-=1=0=0=0;

//---------------dance-single - ----------------
#NOTES:
     dance-single:
     :
     Easy:
     1:
     0.145,0.122,0.055,0.021,0:
0000
0000
0000
0010
,
0000
1000
0000
0010
,
0000
0001
0000
1000
,
0000
0010
0000
0001
,
0000
1000
0000
0010
,
0000
0001
0000
1000
,
0000
0010
0000
1000
,
0000
0010
0000
1000
,
0000
0001
0000
1000
,
0000
0001
0000
0010
,
0000
1000
0000
0001
,
0000
1000
0000
0100
,
0000
0010
0000
0100
,
0000
0001
0000
0100
,
0000
0010
0000
0100
,
0000
1000
0000
0100
,
0000
0010
0000
0100
,
0000
0001
0000
0100
,
0000
0010
0000
0100
,
0000
1000
0000
0100
,
0000
0001
0000
0100
,
0000
0010
0000
0100
,
0000
0001
0000
0100
,
0000
1001
0000
0100
,
0000
0010
0000
0001
,
0000
1000
0000
0010
,
0000
0001
0000
1000
,
0000
0010
0000
1000
,
0000
0001
0000
0010
,
0000
1000
0000
0001
,
0000
0010
0000
1000
,
0000
0002
0003
0010
,
0000
1000
0000
0100
,
0000
0020
0000
0030
,
0000
1000
0000
0001
,
0000
0010
0000
1000
,
0000
0001
0000
1000
,
0000
0010
0000
0001
,
0000
1000
0000
0010
,
0000
0001
0000
0100
,
0000
1000
0000
0010
,
0000
0001
0000
0100
,
0000
0000
0000
0001
,
0000
0010
0000
0010
,
0000
1000
0000
0100
,
0000
0010
0000
0001
,
0000
1000
0000
0001
,
0000
0010
0000
1000
,
0000
0001
0000
0100
,
0000
1010
0000
0001
,
0000
0001
0000
0010
,
0000
0010
0000
1000
,
0000
1000
0000
0001
,
0000
0001
0000
0010
,
0000
0010
0000
1000
,
0000
1000
0000
0100
,
0000
0001
0000
0100
,
0000
0020
0000
0000
,
0000
0000
0000
0000
,
0030
1001
0000
0010
,
0000
0001
0000
0100
,
0000
1001
0000
0100
,
0000
0001
0000
0100
,
0000
0011
0000
0100
,
0000
1000
0000
0001
,
0000
1010
0000
0100
,
0000
0010
0000
0100
,
0000
1001
0000
0100
,
0000
0010
0000
0100
,
0000
1010
0000
0100
,
0000
0001
0000
0100
,
0000
0010
0000
0000
;

//---------------dance-single - ----------------
#NOTES:
     dance-single:
     :
     Hard:
     8:
     0.412,0.417,0.192,0.034,0:
0000
0000
0000
0010
,
0100
1000
0001
0010
,
1000
0001
0010
1000
,
0100
0010
0100
0001
,
0010
0000
1000
0000
0001
0000
0010
0001
,
1000
0000
0001
0000
0010
0000
1000
0001
,
0100
1000
0010
1000
0001
0000
1000
0000
,
0100
0010
0001
1000
,
0010
1000
0001
0000
0100
0000
1000
0001
,
0010
1000
0001
0000
0100
0001
0010
0100
,
0010
0100
1000
0001
0100
0000
0001
0000
,
0010
0000
1000
0001
1000
0001
0000
1000
,
0001
0000
0010
0100
0010
0100
0000
0100
,
0010
0000
0001
0010
1000
0001
0000
0100
,
0001
0000
0001
0010
0100
1000
0001
0100
,
0001
0000
1000
0001
0010
0100
0100
0000
,
0001
0000
0010
1000
0001
1000
0100
0000
,
1000
0000
0001
1000
0010
0001
0100
0000
,
1000
0010
0010
0100
,
0010
0000
1000
0010
0001
0010
0100
0001
,
1000
0010
0001
1000
0010
0001
0100
1000
,
0001
1000
0010
1000
0001
1000
0100
0001
,
0010
1000
0200
0000
0000
0000
0000
0000
,
0000
0300
1001
0000
0010
1000
0100
0000
,
0001
0000
0010
0001
1000
0010
0001
0000
,
0010
0000
1000
0001
0100
1000
0010
0000
,
0100
0000
0001
1000
0010
0001
1000
0010
,
0001
1000
0110
0000
0001
0000
1000
0000
,
0010
0000
0001
1000
0100
1000
0010
0000
,
0001
0000
1000
0001
0010
1000
0001
0000
,
0100
0000
0010
0001
0100
0001
1000
0001
,
0010
1000
0002
0000
0000
0003
0010
0000
,
0100
1000
0001
0100
,
0001
0000
0020
0000
0000
0000
0000
0030
,
0000
1000
0010
0001
,
0100
1000
0010
0000
0100
0001
1000
0000
,
0010
0000
0001
0000
0100
0000
1000
0001
,
0100
0000
0010
0000
0100
1000
0001
1000
,
0010
0001
1000
0010
0100
0000
0010
0000
,
0100
0000
0001
0000
1000
0000
0100
1000
,
0001
0010
1000
0000
0100
0001
0010
0001
,
0100
0000
0001
0000
1000
0001
0100
0001
,
1000
0100
0010
0000
0000
0000
0001
0010
,
1000
0000
0010
0100
0010
0100
0000
0010
,
0100
0000
1000
0001
1000
0001
0000
0001
,
1000
0000
0010
1000
0100
0010
0001
1000
,
0010
0000
1000
0001
0100
0010
0001
0000
,
1000
0000
0010
1000
0001
0010
1000
0001
,
0010
1000
0200
0000
0000
0000
0000
0000
,
0000
0300
1010
0000
0100
1000
0001
0000
,
1000
0000
0001
0010
1000
0001
0010
0000
,
1000
0000
0010
0001
0100
0001
1000
0000
,
0001
0000
1000
0001
0010
1000
0001
1000
,
0100
1000
0011
0000
0100
0001
0010
0000
,
1000
0000
0010
1000
0100
0001
1000
0000
,
0001
0000
1000
0001
0010
0001
0100
0000
,
0010
0000
0001
1000
0010
0001
0100
0001
,
1000
0001
0020
0100
1000
0100
1000
0100
,
1000
0100
1000
0100
1000
0100
1030
0000
,
0000
0000
1001
0110
1001
0110
0000
0000
,
0100
0001
0010
0100
,
0010
0000
0110
1001
0110
1001
0000
0000
,
0010
0001
1000
0100
,
1000
0000
0011
1100
0011
1100
0000
0000
,
0000
0000
1000
0000
0010
0000
0001
0010
,
0100
0000
1010
0101
1100
0110
0000
0000
,
0000
0010
0001
0100
,
0010
0000
0101
1100
1010
0011
0000
0100
,
0001
0010
0001
0100
,
0001
0000
1100
0101
0011
1010
0000
0100
,
1000
0001
0010
0100
,
0001
0000
0010
0010
0010
0010
0000
0000
;

//---------------dance-single - ----------------
#NOTES:
     dance-single:
     :
     Medium:
     5:
     0.308,0.368,0.192,0.034,0:
0000
0000
0000
0010
,
0100
1000
0001
0010
,
1000
0001
0010
1000
,
0100
0010
0100
0001
,
0010
1000
0001
0010
,
1000
0001
0010
1000
,
0100
0010
0001
1000
,
0100
0010
0001
1000
,
0010
0001
0100
1000
,
0010
0001
0100
0010
,
0010
1000
0100
0001
,
0010
0000
1000
0001
1000
0001
0000
0000
,
0001
0000
0010
0100
0010
0100
0000
0000
,
0010
0001
1000
0100
,
0001
0010
1000
0100
,
0001
1000
0010
0100
,
0001
0010
0001
0100
,
1000
0001
0010
0100
,
1000
0010
0010
0100
,
0010
1000
0001
0100
,
1000
0001
0010
0100
,
0001
0010
0001
0100
,
0010
0200
0000
0000
,
0000
0300
1001
0000
0010
0000
0100
0000
,
0001
0010
1000
0001
,
0010
1000
0100
0010
,
0100
0001
0010
1000
,
0001
0110
0001
1000
,
0010
0001
0100
0010
,
0001
1000
0010
0001
,
0100
0010
0100
1000
,
0010
0002
0003
0010
,
0100
1000
0001
0100
,
0001
0000
0020
0000
0000
0000
0000
0030
,
0000
1000
0010
0001
,
0100
0010
0100
1000
,
0010
0001
0100
1000
,
0100
0010
0100
0001
,
0010
1000
0100
0010
,
0100
0001
1000
0100
,
0001
1000
0100
0010
,
0100
0001
1000
0100
,
1000
0010
0100
0001
,
1000
0000
0010
0100
0010
0100
0000
0000
,
0100
0000
1000
0001
1000
0001
0000
0000
,
1000
0010
0100
0001
,
0010
1000
0100
0001
,
1000
0010
0001
1000
,
0010
0200
0000
0000
,
0300
1010
0100
0001
,
1000
0001
1000
0010
,
1000
0010
0100
1000
,
0001
1000
0010
0001
,
0100
0011
0100
0010
,
1000
0010
0100
1000
,
0001
1000
0010
0100
,
0010
0001
0010
0100
,
1000
0020
1000
0000
,
1000
0000
1000
0000
,
0030
0000
1001
1001
1001
1001
0000
0000
,
0100
0001
0010
0100
,
0010
0000
0110
0110
0110
0110
0000
0000
,
0010
0001
1000
0100
,
1000
0000
0011
0011
0011
0011
0000
0000
,
0000
1000
0010
0001
,
0100
0000
1010
1010
1010
1010
0000
0000
,
0000
0010
0001
0100
,
0010
0000
0101
0101
0101
0101
0100
0000
,
0001
0010
0001
0100
,
0001
0000
1100
1100
1100
1100
0100
0000
,
1000
0001
0010
0100
,
0001
0000
0010
0010
0010
0010
0000
0000
;

//---------------dance-single - ----------------
#NOTES:
     dance-single:
     :
     Challenge:
     9:
     0.548,0.643,0.630,0.137,0.240:
0000
0000
0000
0000
,
0000
1001
0001
0011
,
0001
1100
1000
1010
,
0010
0000
0100
0000
0100
0000
0001
1000
,
0001
0000
0100
0000
0100
0000
0010
0100
,
0010
0000
0100
0000
0100
0000
0001
1000
,
0100
0000
1000
1000
0001
0022
0000
0033
,
0010
0000
0001
0000
0001
0000
1000
0100
,
1000
0000
0010
0000
0010
0000
1000
0001
,
1000
0000
0100
0000
0100
0000
0010
0001
,
0010
0000
0001
1000
0001
0202
0000
0303
,
0001
0000
0000
0000
0100
0000
0001
0000
0100
0000
0010
0000
0000
0010
0100
0010
,
0000
0000
0000
0000
0100
0000
0001
0000
0100
0000
0001
0000
0000
1000
0100
1000
,
0000
0000
0000
0000
0010
0000
0100
0000
0010
0000
1000
0000
0000
0001
1000
0001
,
0000
0000
0000
0000
1000
0000
0010
0000
0100
0000
0010
0000
0000
1000
0001
1000
,
0000
0000
0000
0000
0100
0000
1000
0000
0010
0000
0100
0000
0000
0010
0100
0010
,
0000
0000
0000
0000
0100
0000
0001
0000
1000
0000
0001
0000
1000
0100
1000
0100
,
1000
0000
0000
0000
1000
0000
0010
0000
0100
0000
0010
0000
0000
1000
0100
1000
,
0000
1000
0010
0100
0010
1000
0100
0010
,
0010
0000
0100
0000
0010
0001
0010
0001
0010
0000
0001
0000
0100
0001
0100
0001
,
0100
0000
0001
0000
0100
0010
0100
0010
0100
0000
0010
0000
1000
0010
1000
0010
,
1000
0000
1000
0000
0100
1000
0100
1000
0100
0000
1000
0000
0010
1000
0010
1000
,
0010
0000
1000
0000
0001
1000
0001
1000
0001
1000
0001
1000
0001
1000
0001
1000
,
0001
1000
0001
1000
1001
0000
0100
0000
0010
0000
0100
0000
0101
0000
0000
1001
,
0000
0000
1100
0000
0000
0000
1000
0000
0010
0000
0100
0000
0110
0000
0000
1010
,
0000
0000
1100
0000
0000
0000
0100
0000
1000
0000
0010
0000
0110
0000
0000
0101
,
0000
0000
0011
0000
0000
0000
0010
0000
0001
0000
0100
0000
0010
0100
0001
0100
,
0001
0000
0100
0000
0110
0000
0100
0000
0001
0000
0100
0000
0101
0000
0000
1010
,
0000
0000
1100
0000
0000
0000
1000
0000
0010
0000
0100
0000
0110
0000
0000
0101
,
0000
0000
1001
0000
0000
0000
0001
0000
0100
0000
0010
0000
0101
0000
0000
1001
,
0000
0000
0101
0000
0000
0000
0100
0000
0010
0000
0100
0000
0001
1000
0001
1000
,
0001
0000
0001
0000
1000
0000
0010
0000
0010
0000
0100
0000
0220
0000
0000
0330
,
2020
0000
0000
3030
0010
0000
0100
0000
0010
0000
1000
0000
2020
0000
0000
3030
,
0220
0000
0000
0330
0100
0000
0001
0000
0100
0000
0001
0000
2002
0000
0000
3003
,
2200
0000
0000
3300
1000
0000
0010
0000
0100
0000
0010
0000
2020
0000
0000
3030
,
2200
0000
0000
3300
1000
0000
0010
0000
0100
0000
0010
0000
1000
0000
0010
0000
,
0010
0100
0001
0010
0100
0010
0010
0001
,
0100
0010
0100
0001
1000
1000
0100
1000
,
0010
0100
0100
0010
0010
0110
0000
0100
,
0101
0000
1000
0100
0100
1000
0010
0100
,
0010
1000
0001
0001
0100
0010
0100
0001
,
1000
0100
1000
1000
0010
0100
1000
0100
,
0010
1000
0000
0000
0000
0000
0001
0100
,
0101
0000
0000
0000
0100
0000
0010
0000
0100
0000
0010
0000
0000
0100
0001
0100
,
0000
0000
0001
0000
0100
0000
0010
0000
0100
0000
0001
0000
0000
1000
0100
1000
,
0000
0000
0010
0000
0100
0000
0100
0000
0010
0000
1000
0000
0000
0100
1000
0100
,
0000
1000
0010
0100
0010
1000
0100
0010
,
0010
0000
0001
0000
0100
0001
0100
0001
0100
0000
0001
0000
0100
0010
0100
0010
,
0100
0000
0010
0000
1000
0010
1000
0010
1000
0000
0100
0000
1000
0100
1000
0100
,
1000
0000
0100
0000
1000
0010
1000
0010
1000
0000
0010
0000
0110
0000
0000
1001
,
0000
0000
0101
0000
0000
0000
0100
0000
0010
0000
1000
0000
1100
0000
0000
1001
,
0000
0000
0101
0000
0000
0000
0100
0000
0010
0000
0100
0000
0101
0000
0000
1001
,
0000
0000
0011
0000
0000
0000
0010
0000
0001
0000
0100
0000
0010
0100
0010
0100
,
0010
0000
1000
0000
0100
0000
1000
0000
0100
0000
1000
0000
1010
0000
0000
0110
,
0000
0000
0101
0000
0000
0000
1000
0000
0100
0000
0010
0000
0110
0000
0000
0011
,
0000
0000
0101
0000
0000
0000
0100
0000
0010
0000
1000
0000
1100
0000
0000
1010
,
0000
0000
1001
0000
0000
0000
0001
0000
0100
0000
0010
0000
0100
0001
0100
0001
,
0100
0001
1010
1010
1001
1001
1010
1010
,
0110
0110
0101
0101
1010
1010
1001
0000
,
0000
0000
1010
1010
1100
1100
0000
0000
,
0000
0000
0000
0000
,
0000
0000
0110
0110
0101
0101
0000
0000
,
0000
0000
0000
0000
,
0000
0000
0101
0101
1001
1001
0000
0000
,
0000
0000
0000
0000
,
0000
0000
1001
1001
0011
0011
0000
0000
,
0000
0000
0000
0000
,
0000
0000
1001
1001
0011
1100
0000
0000
,
0000
0000
0000
0000
,
0000
0000
1010
1010
0110
0101
0000
0000
;
