#TITLE:Mirror;
#ARTIST:Barlow Girl;
#BANNER:Mirror - Barlow Girl.PNG;
#BACKGROUND:Mirror - Barlow Girl-bg.PNG;
#LYRICSPATH:Mirror - Barlow Girl.lrc;
#CDTITLE:.\CDTITLES\DP2BARLOW3.png;
#MUSIC:Mirror - Barlow Girl.mp3;
#OFFSET:-4.323;
#SAMPLESTART:44.8;
#SAMPLELENGTH:12;
#DISPLAYBPM:66:132;
#BPMS:0=64.3,16=62.4,18=63,20=64.34,28=130.8,44=134.48,52=136.8,60=138.1,124=64,144=129.2,156=132.8,165.5=135.4,176=137.6,180=137.94;
#BGCHANGES:-0.015=Mirror - Barlow Girl1.AVI=0.977=1=1=0,137=Mirror - Barlow Girl2.AVI=0.960=1=1=0,999=-=1=0=0=0;

//---------------dance-single - ----------------
#NOTES:
     dance-single:
     :
     Easy:
     2:
     0.111,0.155,0.022,0.015,0.067:
0000
0000
0001
0000
,
1000
0000
0000
0000
0000
0010
0000
0000
0000
0001
0000
0000
0000
0000
0000
0000
,
0000
0000
0000
0000
0000
1000
0000
0000
0000
0000
0000
0010
0000
0000
0000
0001
,
0000
0000
0000
0010
0000
0000
0000
0000
1000
0000
0000
0000
0000
0000
0000
0000
,
0000
0000
0000
0000
0000
0010
0000
0000
0000
0000
0000
0001
0000
0000
0000
0000
,
1000
0000
0000
0000
0001
1000
0000
0000
,
0000
0000
0000
0000
0000
0010
0000
0100
0000
0000
0000
0000
0000
0000
0000
0000
,
1001
0000
0100
0000
,
0011
0000
0000
0000
,
1000
0000
0000
0010
,
0001
0000
0000
0000
,
1000
0000
0000
0001
,
0010
0000
0000
0000
,
1000
0000
0000
0001
,
0010
0000
0000
0000
,
1001
0000
0000
0100
0000
0000
0000
0000
,
0010
0000
0000
0000
,
1000
0000
0010
0000
,
0001
0000
0000
0000
,
0010
0000
0001
0000
,
1000
0000
0000
0000
,
0001
0000
1000
0000
,
0010
0000
0000
0000
,
1000
0000
0010
0000
,
0001
0000
0000
0000
,
1000
0000
0010
0000
,
0001
0000
0000
0000
,
1000
0000
0001
0000
,
0010
0000
0000
0000
,
0001
0000
0100
0000
,
1000
0000
0000
0000
,
0020
0000
0000
0000
,
0030
0000
0000
0001
0000
0000
0000
1000
0000
0000
0000
0000
0000
0000
0000
0001
,
0000
0000
0000
0000
0000
0010
0000
0000
0000
1000
0000
0000
0000
0000
0000
0001
,
0000
0000
0000
0010
0000
0000
0000
2000
0000
0000
0000
0000
0000
0000
0000
0000
,
0000
3000
0001
0000
,
1000
0000
0000
0010
,
0001
0000
0000
0000
,
0010
0000
0000
0001
,
1000
0000
0000
0000
,
0001
0000
0000
1000
,
0010
0000
0000
0000
,
1000
0000
0000
0010
,
0001
0000
0000
0000
,
0010
0000
0000
0001
,
1000
0000
0000
0000
,
0001
0000
0010
0000
,
1000
0000
0000
0000
,
0001
0000
1000
0000
,
0010
0000
0000
0000
,
0000
0000
1000
0000
,
0010
0000
0001
0000
,
0000
1000
0000
1000
,
0001
0000
0000
0000
,
0010
0000
0001
0000
,
1000
0000
0000
0000
,
0001
0000
1000
0000
,
0010
0000
0000
1000
,
0000
0010
0001
0000
,
0000
0000
0010
0000
,
0001
0000
0000
0000
;

//---------------dance-single - ----------------
#NOTES:
     dance-single:
     :
     Hard:
     6:
     0.276,0.425,0.015,0.163,0.148:
0000
0000
0001
1000
0000
0000
0001
0000
1000
0000
0010
0100
0000
0000
0001
0000
,
1000
0000
0001
0010
0000
1000
0000
0000
0000
0001
0010
2000
0000
0000
0000
0000
,
3000
0000
0000
0000
0000
0001
0010
0000
1000
0000
0000
0010
0000
0000
0000
0001
,
1000
0000
0001
0010
0000
0001
0000
0000
1000
0000
0002
0000
0000
0000
0000
0000
,
0003
0000
1000
0001
0000
0010
0001
0000
2000
0000
3010
0001
0000
0010
0001
0000
,
2000
0000
3000
0010
0000
1000
0000
0000
0001
0000
2000
0001
0000
0000
0000
3000
,
0001
0000
0010
0100
0000
0010
1000
0001
0000
2000
0000
0000
0000
3000
0000
0001
,
2000
0000
0000
0010
0000
3001
0010
0000
,
0002
0000
0000
0000
0000
0000
0100
0000
0000
0003
0010
0000
0001
0000
0000
0000
,
2000
0000
0000
0001
0000
3001
0010
0000
,
0002
0000
0000
1000
0003
0100
0010
0000
,
2000
0000
0000
0001
0000
0010
0001
3000
,
0020
0000
0000
0000
0000
0000
1000
0030
0000
0000
0010
0000
0001
0000
0000
0000
,
1002
0000
0000
1000
0003
0010
1000
0000
,
2000
0000
0000
0000
0000
0000
0001
0000
0000
0000
0010
3000
0001
0000
0000
0000
,
1001
0010
0000
0100
0000
0001
0000
0010
,
0000
1000
0000
0000
0001
0010
0000
0000
,
1000
0000
0001
0010
0000
1000
0000
0001
,
0000
0010
0000
0000
1000
0001
0000
0000
,
0020
0000
0000
0030
0001
0000
0000
0000
,
1000
0000
0000
0000
0001
1000
0000
0000
,
0002
0000
1000
0003
,
0010
0000
1000
0001
0000
0000
0010
0000
,
1000
0001
0000
0010
0000
1000
0000
0001
,
0000
0010
0000
1000
0001
0000
0000
0000
,
1000
0000
0001
0010
0000
1000
0000
0001
,
0000
0010
0000
0000
1000
0001
0000
0000
,
1000
0000
0001
1000
,
0010
0000
1000
0010
,
0001
0000
0100
0000
,
1000
0000
0001
1000
,
0020
0000
0000
0000
,
0031
0000
0000
0001
0000
0010
0000
1000
0000
0002
0000
0000
0000
0000
0000
0000
,
0003
0000
0000
0000
0000
0010
1000
0000
0001
1000
0000
0010
0000
0000
0000
0001
,
1000
0100
0001
0010
0000
0001
0000
2000
0000
0000
0000
0002
0000
0000
0000
0000
,
0000
0000
0000
3003
0000
0010
0000
0100
1000
0000
0001
0010
0000
0000
0000
0001
,
1000
0000
0000
0001
0000
0000
0010
0000
,
0001
0000
0000
1000
0000
0000
0001
1000
,
0010
0000
0001
1000
0000
0100
0001
0000
,
1000
0000
0000
0010
0000
0000
0000
0000
,
0001
0000
0000
0010
0000
0000
1000
0000
,
0010
0000
0000
0002
0000
0000
0000
0000
,
2000
0003
0000
0001
0000
3000
0010
0000
,
0001
0000
0000
1000
0000
0000
0000
0000
,
0000
0010
0000
0000
1000
0000
0001
0000
,
1000
0010
0000
0001
0000
1000
0000
0001
,
0000
1000
0000
0000
0010
0000
0001
0000
,
1000
0000
0000
0001
0000
0010
0000
1000
,
0000
0001
0000
0000
1000
0000
0001
0000
,
0010
0000
1000
0000
,
0001
0000
0000
0000
1000
0001
0000
0000
,
0010
0000
0001
0000
,
0010
1000
0001
1000
,
0001
0010
0000
0010
0000
1000
0000
0001
,
0000
0010
0000
0000
0001
0000
0010
0000
,
1000
0000
0000
0001
0000
0010
0000
1000
,
0000
0001
0000
0000
1000
0000
0001
0000
,
0010
0000
0001
1000
,
0000
0010
0001
0010
,
1000
0000
0010
0000
,
0001
0000
1000
0000
;

//---------------dance-single - ----------------
#NOTES:
     dance-single:
     :
     Medium:
     4:
     0.198,0.244,0.015,0.126,0.096:
0000
0000
0000
0000
0010
0000
0000
0001
,
1000
0000
0000
0000
0000
0010
0000
0000
0000
0001
0000
2000
0000
0000
0000
0000
,
3000
0000
0000
0000
0000
0001
0010
0000
1000
0000
0000
0010
0000
0000
0000
0001
,
1000
0000
0000
0010
0000
0001
0000
0000
1000
0000
0002
0000
0000
0000
0000
0000
,
0003
0000
0000
0000
0000
0010
0000
0000
1000
0000
0000
0001
0000
0000
0000
0000
,
1000
0000
0000
0010
0000
0000
0000
0000
0001
0000
2000
0000
0000
0000
0000
0000
,
3000
0000
0000
0000
0000
0010
0001
0100
0000
2000
0000
0000
3000
0000
0000
0000
,
2000
0000
0000
0010
0000
0000
3000
0000
,
0002
0000
0000
0100
0003
0000
0000
0000
,
2000
0000
0000
0000
0000
0000
0001
0000
0000
0000
0000
0000
0000
3000
0000
0000
,
0002
0000
0000
0010
0000
0000
0003
0000
,
2000
0000
0000
0001
0000
0000
0001
3000
,
0020
0000
0000
0001
0030
0000
0001
0000
,
1002
0000
0000
0000
0000
0000
1000
0000
0000
0000
0000
0000
0000
0003
0000
0000
,
2000
0000
0000
0010
0000
0000
3000
0000
,
1001
0010
0000
0100
0000
0001
0000
0010
,
0000
0000
0000
0000
0001
0010
0000
0000
,
1000
0000
0001
0010
0000
1000
0000
0001
,
0000
0000
0000
0000
1000
0001
0000
0000
,
0010
0000
0001
0000
,
1000
0000
0000
0000
0001
1000
0000
0000
,
0002
0000
0000
0000
0000
0003
0000
0000
,
0010
0000
1000
0001
0000
0000
0010
0000
,
1000
0000
0000
0010
0000
0001
0000
0010
,
0000
1000
0000
0000
0001
0000
0000
0000
,
1000
0000
0000
0010
0000
1000
0000
0001
,
0000
0010
0000
0000
1000
0000
0000
0000
,
1000
0000
0001
0000
,
0010
0000
1000
0010
,
0001
0000
0100
0000
,
1000
0000
0001
1000
,
0020
0000
0000
0000
0000
0000
0000
0030
,
0000
0000
0000
0001
0000
0000
0000
1000
0000
0002
0000
0000
0000
0000
0000
0000
,
0000
0003
0000
0000
0000
0010
0000
0000
0000
1000
0000
0010
0000
0000
0000
0001
,
0000
0000
0000
0010
0000
0001
0000
2000
0000
0000
0000
0002
0000
0000
0000
0000
,
0000
0000
3003
0000
0000
0000
0000
0000
0001
0000
0000
0010
0000
0000
0000
0000
,
1000
0000
0000
0001
0000
0000
0010
0000
,
0001
0000
0000
1000
0000
0000
0000
0000
,
0010
0000
0000
1000
0000
0000
0001
0000
,
1000
0000
0000
0010
0000
0000
0000
0000
,
0001
0000
0000
0010
0000
0000
1000
0000
,
0010
0000
0000
0001
0000
0000
0000
0000
,
1000
0000
0000
0001
0000
0000
0010
0000
,
0001
0000
0000
1000
0000
0000
0000
0000
,
0000
0010
0000
0000
0000
0000
0001
0000
,
1000
0000
0000
0001
0000
1000
0000
0001
,
0000
0010
0000
0000
0010
0000
0000
0000
,
1000
0000
0000
0010
0000
1000
0000
0001
,
0000
1000
0000
0000
1000
0000
0000
0000
,
0010
0000
1000
0000
,
0001
0000
1000
0000
,
0010
0000
0001
0000
,
0010
1000
0000
1000
,
0001
0000
0000
1000
0000
0010
0000
0100
,
0000
0001
0000
0000
0001
0000
0000
0000
,
1000
0000
0000
0010
0000
0100
0000
0001
,
0000
1000
0000
0000
1000
0000
0000
0000
,
0010
0000
0001
1000
,
0000
0010
0001
0000
,
1000
0000
0010
0000
,
0001
0000
0000
0000
;

//---------------dance-single - ----------------
#NOTES:
     dance-single:
     :
     Challenge:
     7:
     0.456,0.516,0.244,0.651,0.170:
1000
0000
0001
0010
0000
0000
0001
0000
0001
1000
0001
1000
0000
0000
1000
0000
,
0001
0000
0010
0001
0000
0002
0000
0000
0003
1000
0100
0020
0000
0000
0000
0030
,
0100
1000
0100
0010
0000
0000
0001
0000
1000
0001
0100
0010
0000
0000
0100
0000
,
0010
0000
1000
0100
0000
1000
0000
0000
1000
0000
0002
0000
0000
0000
0000
0003
,
0100
0010
0100
0010
0000
0000
1000
0000
0100
0010
0100
1000
0000
0000
0100
0000
,
2000
0000
0001
0001
0000
0010
0000
0000
0100
0000
0000
0010
0000
0000
0000
0000
,
3010
1000
0001
1000
0000
1000
0001
0000
0001
1000
0000
0010
0000
0100
0010
0000
,
1000
0001
0100
0010
0000
0100
0001
0000
,
1000
0001
1000
0010
0000
1000
0100
0000
,
0010
0100
0010
0001
0000
0010
0001
0000
,
0100
0010
0100
0010
0000
1000
0010
0000
,
1000
0010
1000
0100
0000
1000
0100
0000
,
0010
0100
0010
0100
0000
0010
0001
0000
,
0100
0001
0100
0001
0000
1000
0001
0000
,
1000
0100
1000
0100
0000
1000
0001
0000
,
0100
0010
0000
1000
0000
0001
0000
0200
,
0000
0000
0010
0000
0000
0000
0300
0000
0100
0000
0002
0000
0000
0003
0000
0000
,
1000
0000
0100
0010
0000
0100
0000
2000
,
0000
0002
0000
3003
0200
0020
0000
0330
,
0202
0000
0000
0300
2000
0000
0000
0003
,
0200
0000
0000
3000
0000
0000
0300
0000
0010
0000
0200
0000
0000
0300
0000
0000
,
2200
0000
0000
0000
0000
0300
0000
0000
0002
0000
0000
0000
0000
3000
0000
0000
,
0100
0003
0010
1000
0000
1000
0010
0000
,
0100
0010
0000
1000
0000
0001
0000
2000
,
0000
0000
0002
0000
0000
0000
3000
0000
0103
0000
0020
0000
0000
0000
0000
0030
,
1000
0000
0001
1000
0000
0100
0000
0010
,
0000
0200
0000
0300
2000
0002
0000
3003
,
2002
0000
0000
3003
0202
0000
0000
0303
,
2002
0000
0000
3003
2020
0000
0000
3030
,
0220
0000
0000
0330
0202
0000
0000
0303
,
2002
3003
0001
0010
0000
0020
0001
0030
,
0022
0000
0000
0000
0000
0000
0000
0000
0000
0000
0000
0000
0000
0000
0000
0033
,
0010
0000
0001
1000
0000
0100
0000
0010
0000
0200
0000
0000
0000
0000
0000
0000
,
1000
0300
1000
0001
0000
0001
0100
0000
0001
0100
0010
0100
0000
0100
0001
0000
,
1000
0001
1000
0100
0000
0010
0000
0200
0000
0000
0000
2000
3300
0001
0100
0000
,
0010
0100
0001
1000
0000
0001
1000
0000
1000
0001
1000
0100
0000
0000
0100
0000
,
1000
0010
1000
0100
0000
0100
0010
0000
,
0100
1000
0001
0100
0000
0100
0001
0000
,
0100
0010
1000
0100
0000
0100
1000
0000
,
0100
0100
0010
0100
0000
0100
1000
0000
,
1000
0010
1000
0100
0000
0100
0010
0000
,
0100
1000
0100
1000
0000
1000
0001
0000
,
0100
0001
0100
0001
0000
0001
0100
0000
,
0010
0100
0010
0100
0000
0010
1000
0000
,
1000
0020
0000
0030
0010
0100
0100
0000
,
0001
0010
0000
0002
0000
0200
0003
0020
,
0300
2000
0000
3030
1010
0020
0000
0030
,
0110
0000
0200
0001
0300
0002
0000
1000
,
0003
0002
0000
0003
0101
0002
0000
0003
,
2002
0000
0000
3003
1100
0000
1010
0000
,
0110
0000
0110
0000
0101
0202
0000
0303
,
2002
0000
0000
3003
1100
0000
0110
0000
,
0110
0000
1100
0100
0000
0200
2000
3300
,
1100
2000
0000
0020
3000
0200
0330
0200
,
0000
0020
0000
0330
0020
2000
0000
3030
,
1010
0000
0020
0200
0330
0200
0000
0002
,
0300
2000
0000
3003
1001
1000
0000
0000
,
2200
0000
0000
3000
0020
0000
0300
0000
,
0001
0000
0032
0000
0023
0002
0000
0033
,
0202
0000
0000
0303
2002
0000
0000
3003
,
2200
0000
0000
3300
0220
0330
0000
0000
;
