#TITLE:Love Addict;
#ARTIST:Family Force 5;
#BANNER:Love Addict - Family Force 5.PNG;
#BACKGROUND:Love Addict - Family Force 5-bg.PNG;
#LYRICSPATH:Love Addict - Family Force 5.lrc;
#CDTITLE:.\CDTITLES\DP2FF51.png;
#MUSIC:Love Addict - Family Force 5.mp3;
#OFFSET:-1.908;
#SAMPLESTART:40.0;
#SAMPLELENGTH:13.0;
#BPMS:0=107;
#BGCHANGES:0=Love Addict - Family Force 5.AVI=1=1=1=0,999=-=1=0=0=0;

//---------------dance-single - ----------------
#NOTES:
     dance-single:
     :
     Easy:
     2:
     0.141,0.197,0.097,0,0:
0000
0000
0000
0000
,
0011
0000
0010
0000
,
1000
0000
0001
0000
,
0010
0000
1000
0000
,
0001
0000
1000
0000
,
0010
0000
0001
0000
,
1000
0000
0010
0000
,
0001
0000
0010
0000
,
1000
0000
0001
0000
,
0010
0000
0001
0000
,
1000
0000
0001
0000
,
0010
0000
1000
0000
,
0001
0000
1000
0000
,
0010
0000
0001
0000
,
1000
0000
0001
0000
,
0010
0000
1000
0000
,
0001
0000
1000
0000
,
0010
0000
1000
0000
,
0001
0000
0010
0000
,
1000
0000
0001
0000
,
0010
0000
0001
0000
,
1000
0000
0100
0000
,
0011
0000
1100
0000
,
0001
0000
1000
0000
,
0001
0000
1000
0000
,
0010
0000
0100
0000
,
1010
0000
0101
0000
,
0010
0000
1000
0000
,
0001
0000
0010
0000
,
1000
0000
0100
0000
,
0001
0000
0010
0000
,
1000
0000
0100
0000
,
0001
0000
0010
0000
,
1000
0000
0001
0000
,
0010
0000
1000
0000
,
0100
0000
0001
0000
,
0010
0000
1000
0000
,
0001
0000
0010
0000
,
1100
0000
0011
0000
,
1000
0000
0100
0000
,
0001
0000
0010
0000
,
1000
0000
0001
0000
,
1010
0000
1100
0000
,
0001
0110
0000
0001
,
0000
1000
0000
0000
,
0001
1100
0000
0000
,
0010
0000
0001
0000
,
1000
0011
1000
0000
,
0001
1100
0001
0000
,
0010
1010
0100
0000
,
0001
0000
0010
0000
,
1000
0000
0100
0000
,
0001
0000
1000
0000
,
0010
0000
1000
0000
,
0001
0000
0010
0000
,
1000
0000
0100
0000
,
0001
0000
0100
0000
,
0010
0000
0001
0000
,
1000
0000
0100
0000
,
0001
0000
0010
0000
,
1000
0000
0100
0000
,
0001
0000
1000
0000
,
0010
0000
0001
0000
,
1000
0000
0000
0000
;

//---------------dance-single - ----------------
#NOTES:
     dance-single:
     :
     Hard:
     6:
     0.384,0.415,0.194,0,0:
0000
0000
0000
1000
,
0011
0100
1000
0001
0000
1000
0001
0010
,
1000
0000
0010
0000
0001
0010
1000
0000
,
0010
0001
1000
0010
,
0001
0100
1000
0001
,
0010
0001
1000
0010
0001
0000
0010
0000
,
1000
0100
0010
1000
,
0001
1000
0010
0001
,
1000
0010
0001
0100
,
0010
0001
1000
0010
0001
0000
0010
0000
,
1000
0001
0100
0000
0001
0000
1000
0000
,
0010
1000
0001
0010
1000
0000
0010
0000
,
0001
0010
0100
0001
1000
0000
0001
0000
,
0010
0001
1000
0010
0001
0000
0010
0000
,
1000
0001
0100
0010
0001
0000
1000
0000
,
0010
1000
0001
0010
1000
0000
0010
0000
,
0001
0010
0100
0001
1000
0000
0001
0000
,
0010
1000
0001
0010
1000
0000
0010
0000
,
0001
0100
0010
0100
,
1000
0001
0010
1000
0001
0000
0100
0000
,
0010
0001
0100
1000
0001
0000
0010
0000
,
1000
0010
0001
0010
0100
0000
1000
0000
,
0011
0110
1100
0110
,
0001
0010
0100
0001
1000
0000
0100
0000
,
0001
1000
0010
0001
1000
0000
1000
0000
,
0010
0100
0001
0010
0100
0000
0001
0000
,
1010
0101
0101
1010
,
0010
1000
0001
0010
1000
0000
0010
0000
,
0001
0010
1000
0001
0010
0000
0001
0000
,
1000
0001
0010
0001
0100
0000
1000
0000
,
0001
0010
0100
1000
0010
0000
0001
0000
,
1000
0010
0001
0010
0100
0000
0010
0000
,
0001
0010
1000
0001
0010
0000
0100
0000
,
1000
0010
0001
1000
,
0010
0001
1000
0001
,
0100
0010
0001
1000
,
0010
0001
1000
0010
,
0001
0100
0010
0001
,
1100
1010
0011
0101
,
1000
0001
0100
0010
,
0001
0100
0010
0001
,
1000
0010
0001
0100
,
1010
0011
0101
1100
,
0001
0000
0110
0001
1000
0010
0001
0000
,
0010
0000
1000
0001
0010
0001
1000
0000
,
0011
0000
1100
0010
0001
0010
0100
0000
,
0010
0000
0100
1000
0001
1000
0010
0000
,
1100
0000
0011
0100
1000
0000
0010
0000
,
0011
0000
1100
0010
0001
0010
0100
0000
,
0011
0000
1010
0001
0100
1000
0110
0000
,
1001
0000
1000
0001
0010
1000
0001
0000
,
1000
0000
0001
0010
0100
1000
0010
1000
,
0001
1000
0010
0001
1000
0010
0001
1000
,
0010
1000
0001
0010
1000
0001
0010
1000
,
0001
0010
1000
0100
0010
1000
0001
0010
,
1000
0001
0010
1000
0100
1000
0010
0100
,
0001
0010
1000
0001
0100
1000
0001
1000
,
0010
0100
1000
0010
0001
1000
0010
0001
,
1000
0100
0001
0010
0100
1000
0010
0100
,
0001
1000
0100
1000
0010
1000
0001
0010
,
1000
0001
0010
1000
0100
0001
1000
0010
,
0001
1000
0010
0100
1000
0001
0100
0001
,
0010
0100
1000
0010
0001
1000
0010
0100
,
1000
0000
0000
0000
;

//---------------dance-single - ----------------
#NOTES:
     dance-single:
     :
     Medium:
     4:
     0.261,0.262,0.097,0,0:
0000
0000
0000
0000
,
0011
1000
0010
0001
,
1000
0010
0001
1000
,
0010
0001
1000
0010
,
0001
0100
1000
0001
,
0010
1000
0001
0010
,
1000
0100
0010
1000
,
0001
1000
0010
0001
,
1000
0010
0001
0100
,
0010
1000
0001
0010
,
1000
0100
0001
1000
,
0010
0001
1000
0010
,
0001
0100
1000
0001
,
0010
1000
0001
0010
,
1000
0100
0001
1000
,
0010
0001
1000
0010
,
0001
0100
1000
0001
,
0010
0001
1000
0010
,
0001
0100
0010
0100
,
1000
0010
0001
0100
,
0010
0100
0001
0010
,
1000
0001
0100
1000
,
0011
0100
1100
0010
,
0001
0100
1000
0100
,
0001
0010
1000
1000
,
0010
0001
0100
0001
,
1010
0100
0101
1000
,
0010
0001
1000
0010
,
0001
1000
0010
0001
,
1000
0010
0100
1000
,
0001
0100
0010
0001
,
1000
0001
0100
0010
,
0001
1000
0010
0100
,
1000
0010
0001
1000
,
0010
0001
1000
0001
,
0100
0010
0001
1000
,
0010
0001
1000
0010
,
0001
0100
0010
0001
,
1100
0100
0011
0100
,
1000
0001
0100
0010
,
0001
0100
0010
0001
,
1000
0010
0001
0100
,
1010
0001
1100
0010
,
0001
0110
1000
0001
,
0010
1000
0010
1000
,
0001
1100
0001
0100
,
0010
0100
0001
0100
,
1000
0011
1000
0010
,
0001
1100
0001
0100
,
0010
1010
0100
0010
,
0001
1000
0010
0001
,
1000
0001
0100
0010
,
0001
0010
1000
0001
,
0010
0001
1000
0010
,
0001
1000
0010
0001
,
1000
0010
0100
0010
,
0001
1000
0100
0001
,
0010
1000
0001
0010
,
1000
0001
0100
0010
,
0001
0100
0010
0001
,
1000
0010
0100
1000
,
0001
0010
1000
0100
,
0010
1000
0001
0010
,
1000
0000
0000
0000
;

//---------------dance-single - ----------------
#NOTES:
     dance-single:
     :
     Challenge:
     8:
     0.590,0.524,0.756,0.326,0.066:
0000
0000
0000
0000
,
1010
0001
0101
0100
0000
0110
0000
0010
,
1010
1000
1001
0001
0000
0101
0000
0100
,
0110
0100
0101
0001
0000
1001
0000
1000
,
1010
1000
1100
1000
0000
1001
0000
0001
,
0101
0001
1001
0001
0101
0100
0110
0010
,
0010
1000
0001
0110
0000
0100
0010
1000
,
1010
0010
0110
0100
0101
0001
1001
0001
,
0101
0100
0010
1010
0000
0001
0100
0010
,
0100
0001
1000
1001
0000
1001
1000
0100
,
0010
0100
1000
1100
0000
1100
1000
0010
,
0100
0010
1000
1001
0000
1001
0001
0100
,
0000
0100
0010
0100
0010
1000
0010
0100
,
0010
1000
0010
1010
0000
1010
0010
0100
,
0010
1000
0001
0101
0000
0101
0100
0010
,
0100
0001
1000
1001
0000
1001
1000
0100
,
0010
0100
0100
1100
0000
1010
1010
0000
,
1020
0000
2030
0000
3001
0200
0010
0310
,
0100
0000
0002
0000
1000
0000
1000
0003
0002
0000
0200
0003
0010
0000
0010
0300
,
0101
1001
1010
0102
0000
0100
0000
0103
,
1010
0000
1001
0000
0101
0000
2001
0000
0000
3000
2000
0000
3000
0000
0010
0000
,
0110
1010
1001
0102
0000
1000
0003
0200
,
0010
0300
0020
1000
2000
0030
0100
3100
,
1001
0011
1001
2010
0001
0010
0001
3010
,
0110
1010
1001
1100
1000
0100
1000
1000
,
0101
1010
1001
0110
0000
0002
0000
0010
,
0010
0000
0000
0000
1000
0000
1000
0000
1000
0000
0000
0000
0100
0000
0100
0003
,
0010
1000
0001
0100
0010
1000
0001
0100
,
0110
0010
0010
0100
0001
1000
0101
0100
,
0110
0100
0001
1000
0001
0100
0110
0100
,
0101
0001
1000
0001
0100
0010
1000
0100
,
1100
1000
0010
0010
0101
0010
1000
0010
,
1010
1000
0100
0001
0100
1000
0010
0100
,
0201
0000
0302
0000
1003
0020
0100
0130
,
0010
0000
2000
0000
0001
0000
0001
3000
2000
0000
0020
3000
0100
0000
0100
0030
,
1010
1001
0101
2010
0000
0010
0000
3010
,
0101
0000
1001
0000
1010
0000
1002
0000
0000
0003
0002
0000
0003
0000
0100
0000
,
0110
0101
1001
2010
0000
0001
3000
0020
,
0100
0030
0200
0001
0002
0300
0010
0013
,
1001
1100
1001
0102
1000
0100
1000
0103
,
0110
0101
1001
0011
0001
0010
0001
0001
,
1010
0101
1001
0110
0000
2000
0000
0100
,
0100
0000
0000
0000
0001
0000
0001
0000
0001
0000
0000
0000
0010
0000
0010
3000
,
0001
0100
0000
0000
0100
0000
0010
0000
0010
0000
1000
0000
0001
0000
0100
0000
,
0020
0000
0000
0030
0100
0000
0100
0000
0001
0000
0001
0000
1000
0000
0001
0000
,
0100
0010
0000
0000
0100
0000
0001
0000
0001
0000
1000
0000
0001
0000
0100
0000
,
0020
0000
0000
0030
0100
0000
0001
0000
0001
0000
1000
0000
0001
0000
0100
0000
,
0010
0000
1000
0100
0010
0000
0010
0002
,
0000
0003
1000
0000
0001
0000
0010
0000
0001
0000
0100
0000
0010
0000
1000
0000
,
0100
0010
0001
0100
0010
0000
0010
2000
,
3000
1000
0100
0010
0100
1000
0010
0100
,
0010
1000
0010
0000
0100
0010
0100
0000
0010
0000
1000
0000
0100
0000
0010
0000
,
0100
0010
0000
0100
0000
0010
0100
0000
1000
0000
1000
0000
0100
0000
0010
0000
,
0100
0010
0000
0100
0000
0010
0100
0000
1000
0000
0010
0000
0100
0000
0010
0000
,
1000
0010
0000
1000
0000
0010
0100
0000
0010
0000
1000
0000
0100
0000
0010
0000
,
0001
0100
0000
0010
0000
0100
0001
0000
0100
0000
0001
0000
0100
0000
0010
0000
,
1000
0100
0000
0000
0010
0000
0100
1000
0010
0000
0100
0010
0000
0000
1000
0000
,
1020
0000
2030
0000
3001
0200
0010
0310
,
0100
0000
0002
0000
1000
0000
1000
0003
0002
0000
0200
0003
0010
0000
0010
0300
,
0101
1001
1010
0102
0000
0100
0000
0103
,
1010
0000
1001
0000
0101
0000
2001
0000
0000
3000
2000
0000
3000
0000
0010
0000
,
0110
1010
1001
0102
0000
1000
0003
0200
,
0010
0300
0020
1000
2000
0030
0100
3100
;
