#TITLE:Live For You;
#ARTIST:Rachael Lampa;
#BANNER:Live For You - Rachael Lampa.PNG;
#BACKGROUND:Live For You - Rachael Lampa-bg.PNG;
#LYRICSPATH:Live For You - Rachael Lampa.lrc;
#CDTITLE:.\CDTITLES\DP2LAMPA.png;
#MUSIC:Live For You - Rachael Lampa.mp3;
#OFFSET:-3.233;
#SAMPLESTART:59.9;
#SAMPLELENGTH:12;
#BPMS:0=88.4;
#BGCHANGES:8.860=Live For You - Rachael Lampa.AVI=0.910=1=1=0,999=-=1=0=0=0;

//---------------dance-single - ----------------
#NOTES:
     dance-single:
     :
     Easy:
     1:
     0.173,0.160,0.007,0.051,0:
0000
0000
0000
0001
,
0000
0000
0000
0010
,
0000
0000
1000
0010
,
0101
0000
0010
0000
,
1000
0010
0001
0000
,
0010
0000
1000
0010
,
0001
0000
0100
0000
,
1000
0001
0010
0000
,
1000
0000
0001
1000
,
0010
0000
0001
0000
,
1000
0001
0010
0000
,
1000
0000
0001
1000
,
0010
0000
0100
0000
,
1000
0001
2000
3000
,
0001
1000
0002
0000
,
0003
0000
1000
0001
,
0010
0000
1000
0000
,
0001
1000
0010
0000
,
0001
0000
1000
0001
,
0010
0000
1000
0000
,
0001
1000
0010
0000
,
1000
0001
2000
3000
,
0001
1000
0002
0003
,
0010
1000
0010
0001
,
1000
0001
1000
0010
,
0001
1000
0001
0100
,
0010
0100
1000
0001
,
1000
0001
1000
0001
,
1000
0000
0100
0000
0010
0000
0001
2000
,
0000
3000
0001
1000
,
0010
0001
1000
0001
,
0010
1000
0001
0010
,
1000
0001
0010
0010
,
1000
0010
0001
1000
,
0010
0100
0001
1000
,
0010
0001
1000
0001
,
0010
0001
1000
0010
,
0001
0100
0010
0100
,
1000
0001
0010
1000
,
0001
0010
1000
0100
,
0010
0100
0001
0010
,
1000
0001
0200
0300
,
1000
0100
0020
0000
,
1030
0010
0001
1000
,
0010
1000
0001
0010
,
1000
0100
0010
0001
,
1000
0010
0001
0100
,
0010
0001
1000
1000
,
0010
0100
0001
0010
,
1000
0000
0000
0000
;

//---------------dance-single - ----------------
#NOTES:
     dance-single:
     :
     Hard:
     7:
     0.383,0.374,0.232,0.101,0.007:
0001
1000
0010
0000
0000
0000
0001
0000
,
0010
0000
1000
0000
0010
1000
0100
0000
,
0001
0000
0010
0000
1000
0001
0010
1000
,
0101
0010
1000
0001
0010
0000
0001
0000
,
1000
0001
0010
1000
0001
0000
1000
0001
,
0010
0000
0001
0010
1000
0001
0010
1000
,
0001
0000
0000
0000
1000
0000
0000
0000
0100
0000
0000
0000
0001
1000
0001
1000
,
0001
0010
0001
1000
0010
1000
0001
0010
,
1000
0000
0200
0000
0010
0000
0000
0300
0001
0000
0010
0000
1000
0000
0001
0000
,
0010
0001
1000
0010
0001
1000
0010
0001
,
1000
0010
0001
1000
0010
1000
0001
1000
,
1000
1000
0010
0100
0001
0010
1000
0001
,
0010
0000
0002
0000
1000
0000
0000
0000
0100
0003
1000
0000
0001
0000
0010
0000
,
1000
0000
0010
0000
0001
0000
0010
0000
2000
0000
0000
0000
0010
3000
0000
0000
,
0001
0010
1000
0100
0002
0000
1000
0000
,
0000
0003
0000
0000
0010
0000
0001
0000
1000
0000
0010
0000
0001
0000
1000
0000
,
0010
0000
0020
0000
0002
0030
0000
0000
1003
0000
0001
0000
0010
0000
1000
0000
,
0001
0010
1000
0001
0010
0001
1000
0001
,
0001
0001
0010
0100
1000
0010
0001
1000
,
0010
0001
0100
0010
1000
0001
0010
0010
,
0001
0010
1000
0001
0010
1000
0001
0010
,
1000
0000
0100
0000
0001
0000
0010
0000
2000
0000
0000
0000
0000
3000
0000
0000
,
0001
0000
0010
0000
1000
0000
0010
0000
0002
0000
0000
0000
0000
0003
0000
0000
,
0110
0001
1100
0001
0110
1000
0011
0000
,
1000
0010
0001
0010
1000
0001
0010
1000
,
0101
1000
1010
0100
0011
0010
1100
0000
,
0010
1000
0100
0001
1000
0010
0001
0100
,
1010
0100
0101
0010
1100
0010
1100
0000
,
1000
0001
0100
0001
0010
0001
1000
2000
,
0000
3002
0000
0003
0010
0000
1000
0001
,
0010
1000
0001
0010
1000
0010
0001
1000
,
0020
0000
0000
0000
1000
0030
0000
0000
0001
0000
0000
0000
0010
0000
0000
0000
,
1000
0000
0001
0000
0010
1000
0010
0000
,
1000
0010
0001
1000
,
0011
0000
1100
0000
0011
0110
1100
0000
,
0010
0000
0001
0010
1000
0100
0001
1000
,
0010
1000
0001
0000
1000
0001
0010
0000
,
0001
0000
0100
1000
0010
0001
0100
0001
,
1000
0010
0001
1000
0010
0001
1000
0000
,
0001
0000
0010
0001
1000
0001
0100
1000
,
0010
1000
0100
0000
0001
1000
0010
0000
,
1000
0000
0010
0000
0001
0000
0010
0000
0200
0000
0000
0000
0000
0300
0000
0000
,
1000
0000
0001
0000
0100
0000
1000
0000
0020
0000
0000
0000
1000
0030
0000
0000
,
1100
0010
1100
0100
0011
0100
0011
0000
,
0010
0001
1000
0010
0001
1000
0010
0001
,
1010
0100
1010
0010
0101
0010
0101
0000
,
1000
0001
0010
1000
0001
0010
0100
1000
,
0110
1001
0110
0000
1001
0110
1001
0000
,
0010
1000
0100
0010
0001
1000
0020
0000
,
0000
0030
0000
0000
0000
0000
0000
0000
;

//---------------dance-single - ----------------
#NOTES:
     dance-single:
     :
     Medium:
     5:
     0.286,0.285,0.101,0.080,0:
0000
0010
0000
0001
,
0000
1000
0000
0010
,
0000
0001
1000
0010
,
0101
0000
1000
0000
0010
0000
0001
1000
,
0001
0000
0010
0000
1000
0001
1000
0010
,
0001
0000
0001
0000
1000
0001
0010
1000
,
0001
1000
0100
0001
,
1000
0010
0001
1000
0010
0000
0001
0000
,
1000
0000
0010
0000
0001
0010
1000
0001
,
0010
1000
0001
0010
,
1000
0010
0001
1000
0010
0000
0001
0000
,
1000
0000
0010
0000
0001
0010
1000
0001
,
0010
1000
0100
0001
,
1000
0010
0001
0010
2000
0000
0000
3000
,
0001
0010
1000
0000
0002
0000
0000
0000
,
0003
0000
0010
0000
1000
0010
0001
1000
,
0010
0000
0010
0000
0001
1000
0010
0000
,
0001
0010
1000
0001
0010
0000
1000
0000
,
0001
0000
0010
0000
1000
0010
0001
1000
,
0010
0100
1000
0010
,
0001
0010
1000
0001
0010
0000
0001
0000
,
1000
0100
0001
0010
2000
0000
0000
3000
,
0001
0010
1000
0000
0002
0000
0003
0000
,
0110
1000
0110
0001
,
1000
0010
0001
0010
1000
0000
0010
0000
,
0101
1000
0011
0100
,
0010
1000
0100
0001
1000
0000
0001
0000
,
1010
0001
1100
0001
,
1000
0001
0100
0001
0010
0001
0010
2000
,
0000
3002
0000
0000
0000
0000
1003
0000
,
0010
1000
0001
0010
1000
0010
0001
1000
,
0020
0000
0000
0030
0001
0000
0010
0000
,
1000
0000
0001
0000
0010
1000
0010
0000
,
1000
0010
0001
1000
,
0010
0000
0100
0000
0001
0110
1000
0000
,
0020
0030
0001
0010
1000
0100
0001
1000
,
0010
0001
1000
0010
,
0001
0000
0100
1000
0010
0001
0100
0001
,
1000
0001
0010
1000
,
0001
0000
0010
0001
1000
0001
0100
1000
,
0010
1000
0100
0000
0001
0000
0010
0000
,
1000
0010
0001
0010
0200
0000
0000
0300
,
1000
0001
0100
1000
0020
0000
0000
0030
,
1001
0100
0010
1000
0011
0100
1000
0000
,
0010
0001
1000
0010
0001
1000
0010
0001
,
1100
0100
1010
0001
,
1000
0001
0010
1000
0001
0010
0100
1000
,
0011
0100
1001
1000
,
0010
1000
0100
0010
0001
1000
0020
0000
,
0000
0030
0000
0000
0000
0000
0000
0000
;

//---------------dance-single - ----------------
#NOTES:
     dance-single:
     :
     Challenge:
     8:
     0.425,0.359,0.007,0.159,0.576:
0000
0000
0000
0000
,
1000
0000
0001
0000
1000
0010
1000
0000
,
0001
0000
1000
0000
0001
0100
0001
0000
,
1000
0000
0001
0100
0000
0010
0000
0000
0100
0000
0001
1000
0000
0000
0001
0000
,
0100
0000
0010
0100
0000
0001
0000
1000
0000
0001
0000
0010
0000
0001
0000
0100
,
0000
0001
0010
0000
0001
0000
0100
0010
0000
0100
0001
0000
0100
0000
0001
0000
,
1000
0000
0100
0000
0010
0000
0100
0000
2200
0000
0000
0300
0002
0000
3000
0000
,
0200
0000
0003
0000
0310
0100
0000
0010
0000
0100
0000
0001
0000
1000
0000
0001
,
0000
0001
0010
0000
0001
0000
0010
0001
0000
0001
0010
0000
0001
0000
0100
0000
,
0010
0000
0100
0000
0010
1000
0000
0001
0000
0100
0000
0010
0000
1000
0000
0000
,
0001
0000
0001
0100
0000
0010
0000
0200
0000
0000
0000
0000
0002
0000
0303
0000
,
0001
0000
1000
0000
0001
0100
0000
0010
0000
0000
0100
0000
0001
0000
1000
0000
,
0001
0000
0100
0000
0010
0000
0100
0010
0000
0100
0010
0000
0100
0000
0001
0000
,
1000
0000
1000
0001
0000
0100
0000
0010
0000
0010
0100
0000
0010
0000
1000
0000
,
0001
0000
0100
0001
0000
0100
0000
0010
0000
1000
0010
0000
0010
0000
0100
0000
,
0010
0000
1000
0000
0001
0100
0000
0010
0000
0100
0000
0001
0000
0000
1000
0000
,
0100
0000
0010
0000
0100
0000
0100
0010
0000
0010
0001
0000
0100
0000
0010
0000
,
0100
0000
0001
0000
1000
0001
0000
0100
0000
0000
0010
0000
0010
0000
0100
0000
,
0001
0000
0001
0100
0000
0002
0000
0000
2003
0000
0000
0000
0002
0000
3003
0000
,
0001
0000
0000
0000
0010
0001
0000
0100
0000
0000
0010
0000
0010
0000
0100
0000
,
0001
0000
0001
0000
1000
0000
0001
0100
0000
0100
0010
0000
0100
0000
0001
0000
,
1000
0000
0001
0100
0000
0010
0000
0100
0000
0000
0100
0000
0001
0000
0000
0001
,
0100
0000
0100
0001
0000
0100
0000
0010
0000
0000
0010
1000
0010
0000
0100
0010
,
0000
0010
1000
0000
0010
0000
0100
0010
0000
0010
1000
0000
0100
0000
0010
0000
,
0100
0000
0010
0001
0000
0100
0000
0010
0000
0100
0000
0001
0000
1000
0000
0001
,
0000
0001
0100
0000
0010
0000
0100
0001
0000
0001
1000
0000
0001
0000
0100
0000
,
0010
0000
1000
0100
0000
0010
0000
0100
0000
0010
0000
0001
0000
0100
0000
0001
,
0000
0001
1000
0000
0100
0000
0010
0010
0000
0100
0100
0000
1000
0000
0010
0000
,
0100
0000
0010
1000
0000
0010
0000
1000
0000
0010
0000
0100
0000
0020
0000
0000
,
0000
0000
2000
0000
0030
0000
0000
0000
3002
0000
0000
0000
0103
0000
1000
0010
,
1000
0000
0010
0010
0000
0100
0000
0010
0000
1000
0000
0001
0000
0100
0000
0000
,
0001
0000
1000
0000
0001
0000
0100
0001
0000
0100
0001
0000
0100
0000
0010
0000
,
1000
0000
0100
0000
0010
0000
0100
1000
0000
0100
1000
0000
0010
0000
0100
0000
,
0010
0000
1000
0000
0100
0000
0010
0100
0000
0010
0100
0000
0010
0000
0001
0000
,
0100
0000
0010
0000
0100
0000
0001
0010
0000
0001
0010
0000
0100
0000
0010
0000
,
0001
0000
0100
0000
0010
1000
0000
0100
0000
0010
0000
0100
0000
2000
0000
0000
,
0002
0000
3000
0000
0200
0003
0020
0300
,
1030
0000
0010
0000
0100
0010
0000
1000
0000
0000
0001
0000
0001
0000
0100
0000
,
0010
0000
0010
0100
0000
0002
0000
0000
2000
0000
0003
0000
0002
0000
3000
0000
,
0200
0000
0003
0000
0310
1000
0000
0010
0000
0000
0010
0000
0100
0000
0010
0000
,
0100
0000
0001
0000
1000
0000
0001
0001
0000
0100
0100
0000
0010
0000
1000
0000
,
0100
0000
0010
0100
0000
1000
0000
0010
0000
0010
1000
0000
0010
0000
1000
0000
,
0010
0000
0100
0100
0000
0010
0000
1000
0000
0010
0100
0000
0010
0000
1000
0000
,
0001
0000
0001
1000
0000
0000
0010
1000
0000
0010
1000
0000
0010
0000
0100
0000
,
0010
0000
1000
0100
0000
0010
0000
0100
0000
1000
0000
0001
0000
0100
0000
0001
,
0000
0001
0100
0000
0010
0000
0100
0010
0000
0010
0100
0000
0001
0000
1000
0000
,
0100
0000
1000
0100
0000
1000
0000
0010
0000
0100
0000
0010
0000
1000
0000
0010
,
0000
0100
0010
0000
1000
0000
0100
0010
0000
0100
0010
0000
0001
0000
0100
0000
,
0001
0000
1000
0001
0000
1000
0000
0100
0000
0010
0000
0100
0000
2000
0000
0000
,
0000
0002
0000
0000
0000
3003
0000
0000
;
