#TITLE:Let's Go Back;
#ARTIST:Everyday Sunday;
#BANNER:Let's Go Back - Everyday Sunday.png;
#BACKGROUND:Let's Go Back - Everyday Sunday-bg.png;
#LYRICSPATH:Let's Go Back - Everyday Sunday.lrc;
#CDTITLE:.\CDTITLES\DP2SUNDAY.png;
#MUSIC:Let's Go Back - Everyday Sunday.mp3;
#OFFSET:-1.886;
#SAMPLESTART:45.52;
#SAMPLELENGTH:12;
#BPMS:0=170;
#BGCHANGES:26.33=Let's Go Back - Everyday Sunday.AVI=1=1=1=0,999=-=1=0=0=0;

//---------------dance-single - ----------------
#NOTES:
     dance-single:
     :
     Easy:
     3:
     0.209,0.242,0.116,0.027,0.000:
0000
0000
0000
0000
,
1000
0000
0001
0000
,
1000
0000
0001
0000
,
1000
0000
0010
0000
,
0100
0000
0010
0000
,
0100
0000
0010
0000
,
0001
0000
0100
0000
,
1010
0000
0000
0101
0000
0000
0000
0000
,
0000
0001
0000
0000
0010
0000
0000
0000
,
1000
0000
0000
0010
0000
0000
0000
0000
,
0000
0001
0000
0000
0010
0000
0000
0000
,
0010
0000
0000
0001
0000
0000
0000
0000
,
0000
1000
0000
0000
0010
0000
0000
0000
,
0001
0000
0100
0000
,
0000
0010
0000
0000
0100
0000
0000
0000
,
1010
0000
0100
0000
,
0001
0000
1000
0000
,
0010
0000
1000
0000
,
0001
0000
0010
0000
,
1000
0000
0001
0000
,
0010
0000
1000
0000
,
0001
0000
0100
0000
,
1000
0000
0100
0000
,
1010
0101
0000
0000
,
0001
0000
0010
0000
,
1000
0000
0001
0000
,
0010
0000
1000
0000
,
0001
0000
0010
0000
,
1000
0000
0001
0000
,
0010
0000
1000
0000
,
0001
0000
0010
0000
,
1100
0000
0001
0000
,
0010
0000
0001
0000
,
1010
0000
0100
0000
,
0001
0000
1000
0000
,
0010
0000
1000
0000
,
0001
0000
1000
0000
,
0010
0000
0001
0000
,
1000
0000
0010
0000
,
1001
0000
0100
0000
,
0010
0000
1000
0000
,
0101
0000
1000
0000
,
0010
0000
0100
0000
,
1000
0000
0001
0000
,
1000
0000
0001
0000
,
0010
0000
1000
0000
,
0001
0000
0100
0000
,
0010
0000
0001
0000
,
1000
0000
0100
0000
,
0001
0000
0010
0000
,
1000
0000
0100
0000
,
0001
0000
0010
0000
,
1000
0000
0001
0000
,
0010
0000
1000
0000
,
0001
0000
0010
0000
,
1100
0011
0000
0000
,
0100
0000
1000
0000
,
0001
0000
0010
0000
,
1000
0000
0001
0000
,
0010
0000
1000
0000
,
0001
0000
0010
0000
,
2000
0000
0000
0000
,
3020
0000
0000
0030
,
0101
0000
0010
0000
,
1000
0000
0001
0000
,
0110
0000
1000
0000
,
0001
0000
0100
0000
,
1000
0000
0001
0000
,
0010
0000
0100
0000
,
1000
0000
0010
0000
,
0001
0000
0010
0000
,
1010
0000
0100
0000
,
0010
0000
1000
0000
,
0101
0000
0010
0000
,
1000
0000
0100
0000
,
0001
0000
0010
0000
,
1000
0000
0100
0000
,
0001
0000
1000
0000
,
0020
0000
2030
0000
,
0000
0000
0000
0000
,
0000
0000
0000
0000
,
0000
3000
0000
0000
,
1000
0000
0001
0000
,
0010
0000
1000
0000
,
0001
0000
0010
0000
,
1000
0000
0100
0000
,
0010
0000
1000
0000
,
0001
0000
0010
0000
,
1000
0000
0001
0000
,
0010
0000
0001
0000
,
1000
0000
0100
0000
,
0001
0000
1000
0000
,
0010
0000
0100
0000
,
1000
0000
0001
0000
,
0010
0000
1000
0000
,
0011
0000
0010
0000
,
1000
0000
0100
0000
,
0101
0000
1000
0000
,
0010
0000
0100
0000
,
1000
0000
0010
0000
,
0001
0000
0010
0000
,
1000
0000
0000
0000
;

//---------------dance-single - ----------------
#NOTES:
     dance-single:
     :
     Hard:
     7:
     0.408,0.452,0.151,0.096,0.000:
0000
0000
0000
0000
,
0002
0010
0010
0010
,
0010
0000
0010
0000
0010
0000
0010
0003
,
2000
0001
0001
0001
,
0001
0000
0001
0000
0001
0000
0001
3000
,
0002
1000
1000
1000
,
1000
1000
1000
1000
,
1003
0100
0000
0100
0001
0000
0012
0000
,
0003
1000
0100
0000
0010
0001
0010
0000
,
1100
0000
0010
0001
0100
0000
0011
0000
,
0000
1000
0010
0000
0100
0002
1000
0003
,
0110
0010
0000
1000
0001
0000
0110
0000
,
0000
1000
0001
0000
0010
0100
0001
0000
,
1100
0010
0000
0010
0001
0000
1100
0000
,
0000
0010
0001
0000
0100
0002
0100
0003
,
1010
0001
0100
1000
,
0001
0010
1000
0001
,
0010
0001
1000
0001
,
0001
0000
1000
0000
0010
0000
0001
0010
,
1000
0010
0001
1000
,
0010
1000
0001
0000
1000
0000
0010
0000
,
0001
0010
0100
0001
,
1000
0010
0001
0000
0100
0000
0001
0000
,
1010
0000
0101
0000
0000
0000
0010
1000
,
0001
0010
1000
0000
0010
0000
0001
0000
,
1000
0100
0010
0000
0001
0000
1000
0100
,
0010
0001
1000
0010
,
0001
1000
0010
0001
,
1000
0010
0001
1000
,
0010
0001
1000
0010
,
0001
0000
0100
0000
0020
0000
0000
0030
,
1100
0010
0001
1000
,
0010
0100
0001
0100
,
1010
0001
0100
1000
,
0001
0010
1000
0001
,
0020
0000
0000
0030
2000
0000
0000
3000
,
0001
0010
1000
0001
,
0010
1000
0001
0010
,
1000
0100
0010
0100
,
1001
0010
0100
0000
,
0010
0001
1000
0010
,
0101
0010
1000
0001
,
0010
0001
0100
0001
,
1000
0010
0001
0000
,
1000
0100
0001
1000
,
0010
0100
1000
0010
,
0001
0010
0100
0001
,
0010
1000
0001
0010
,
1000
0010
0100
1000
,
0001
0100
0010
0001
,
1000
0001
0100
1000
,
0001
0100
0010
0001
,
1000
0010
0001
1000
,
0010
0100
1000
0010
,
0001
0100
0010
0001
,
1100
0011
0000
1000
,
0100
0001
1000
0010
,
0001
0100
0010
0000
,
1000
0010
0001
1000
,
0010
0100
1000
0000
,
0001
0100
0010
0001
,
2000
0001
0001
0001
,
3020
0000
0000
0030
,
0101
1000
0010
0000
,
1000
0010
0001
1000
,
0110
0001
1000
0010
,
0001
0010
0100
0001
,
1000
0100
0001
0000
,
0010
0001
0100
0001
,
1000
0100
0010
0100
,
0001
1000
0010
0100
,
1010
0001
0100
0000
,
0010
0100
1000
0010
,
0101
1000
0010
0001
,
1000
0001
0100
1000
,
0001
0100
0010
0000
,
1000
0001
0100
0010
,
0001
0100
1000
0000
,
0020
0000
2030
0000
,
0000
0000
0000
0000
0000
0000
0000
3000
,
0002
0000
0000
0000
,
0000
0003
0000
0000
,
1000
0100
0001
0000
,
0010
0001
1000
0000
,
0001
0100
0010
0000
,
1000
0001
0100
0000
,
0010
0100
1000
0010
,
0001
1000
0010
0001
,
1000
0010
0001
0100
,
0010
1000
0001
0010
,
1000
0001
0100
1000
,
0001
0100
1000
0000
,
0010
0001
0100
0001
,
1000
0100
0001
1000
,
0010
0100
1000
0100
,
0011
1000
0010
0000
,
1000
0001
0100
0010
,
0101
0010
1000
0001
,
0010
1000
0100
0010
,
1000
0001
0010
0000
,
0001
0100
0010
0010
,
1000
0001
0100
0000
;

//---------------dance-single - ----------------
#NOTES:
     dance-single:
     :
     Medium:
     5:
     0.321,0.346,0.185,0.027,0.000:
0000
0000
0000
0000
,
1000
0001
1000
0001
,
1000
0001
1000
0001
,
0010
0100
0010
0100
,
0010
0100
0010
0100
,
0010
0001
0010
0001
,
0001
1000
0100
0001
,
1010
0000
0000
0101
0000
0000
0011
0000
,
0000
1000
0100
0000
0010
0000
0001
0000
,
1100
0000
0000
0101
0000
0000
0011
0000
,
0000
1000
0010
0000
0100
0000
0001
0000
,
0110
0000
0000
1001
0000
0000
0110
0000
,
0000
0001
1000
0000
0010
0000
0100
0000
,
1100
0000
0000
0011
0000
0000
1100
0000
,
0000
0010
0001
0000
0100
0000
0001
0000
,
1010
0001
0100
0000
,
0001
0010
1000
0000
,
0010
0001
1000
0000
,
0001
1000
0010
0000
,
1000
0010
0001
0000
,
0010
0001
1000
0000
,
0001
0010
0100
0000
,
1000
0001
0100
0000
,
1010
0101
0000
0000
,
0001
1000
0010
0000
,
1000
0010
0001
0000
,
0010
0001
1000
0000
,
0001
1000
0010
0000
,
1000
0010
0001
0000
,
0010
0001
1000
0000
,
0001
0100
0010
0000
,
1100
0010
0001
0000
,
0010
0100
0001
0000
,
1010
0001
0100
0000
,
0001
0010
1000
0000
,
0010
0100
1000
0000
,
0001
0010
1000
0000
,
0010
1000
0001
0000
,
1000
0100
0010
0000
,
1001
0010
0100
0000
,
0010
0001
1000
0000
,
0101
0010
1000
0000
,
0010
0001
0100
0000
,
1000
0010
0001
0000
,
1000
0100
0001
0000
,
0010
0100
1000
0000
,
0001
0010
0100
0000
,
0010
1000
0001
0000
,
1000
0010
0100
0000
,
0001
0100
0010
0000
,
1000
0001
0100
0000
,
0001
0100
0010
0000
,
1000
0010
0001
0000
,
0010
0100
1000
0000
,
0001
0100
0010
0000
,
1100
0011
0000
0000
,
0100
0001
1000
0000
,
0001
0100
0010
0000
,
1000
0010
0001
0000
,
0010
0100
1000
0000
,
0001
0100
0010
0000
,
2000
0000
0000
0000
,
3020
0000
0000
0030
,
0101
1000
0010
0000
,
1000
0010
0001
0000
,
0110
0001
1000
0000
,
0001
0010
0100
0000
,
1000
0100
0001
0000
,
0010
0001
0100
0000
,
1000
0100
0010
0000
,
0001
1000
0010
0000
,
1010
0001
0100
0000
,
0010
0100
1000
0000
,
0101
1000
0010
0000
,
1000
0001
0100
0000
,
0001
0100
0010
0000
,
1000
0001
0100
0000
,
0001
0100
1000
0000
,
0020
0000
2030
0000
,
0000
0000
0000
0000
,
0000
0000
0000
0000
,
0000
3000
0000
0000
,
1000
0100
0001
0000
,
0010
0001
1000
0000
,
0001
0100
0010
0000
,
1000
0001
0100
0000
,
0010
0100
1000
0000
,
0001
1000
0010
0000
,
1000
0010
0001
0000
,
0010
1000
0001
0000
,
1000
0001
0100
0000
,
0001
0100
1000
0000
,
0010
0001
0100
0000
,
1000
0100
0001
0000
,
0010
0100
1000
0000
,
0011
1000
0010
0000
,
1000
0001
0100
0000
,
0101
0010
1000
0000
,
0010
1000
0100
0000
,
1000
0001
0010
0000
,
0001
0100
0010
1000
,
0001
0100
0000
0000
;

//---------------dance-single - ----------------
#NOTES:
     dance-single:
     :
     Challenge:
     8:
     0.503,0.558,0.062,0.363,0.000:
0000
0000
0000
0000
,
0000
0000
0000
0000
,
0001
0100
0100
0100
,
0100
0001
0001
1000
,
0010
0010
0010
0010
,
1000
0001
0100
0010
,
0100
0100
0100
0100
,
0001
1000
0000
0001
0100
0000
0010
0100
,
0000
0010
0100
0000
0010
0000
1000
0000
,
0100
1000
0000
0010
1000
0000
0100
0010
,
0000
0100
0010
0000
0001
0000
0100
0000
,
0001
1000
0000
0001
0010
0000
0001
1000
,
0000
0001
0100
0000
0010
0000
1000
0000
,
0010
1000
0000
0010
1000
0000
0010
0100
,
0000
0010
0100
0000
0010
0000
1000
0000
,
0001
0100
0010
0000
0100
0000
0001
0000
,
1000
0000
0100
0000
0010
0000
0100
1000
,
0001
0100
0010
0100
,
0001
0000
1000
0000
0010
0000
0100
0010
,
1000
0100
0010
0100
,
0010
0000
0001
0000
0100
0000
0001
1000
,
0100
1000
0010
1000
,
0100
0000
0010
0000
0001
0000
0100
0010
,
1000
0010
0010
1000
,
0001
0000
0100
0000
0010
0000
0010
0100
,
0001
0000
0100
0000
0001
0000
0100
0010
,
0100
0000
0001
0000
1000
0000
0100
0010
,
0100
0000
1000
0000
0010
0000
0100
0010
,
1000
0000
0100
0000
0010
0000
0100
0010
,
0001
0000
0100
0000
0010
0000
0100
0010
,
1000
0000
0100
0000
0010
0000
0001
0010
,
0100
0000
1000
0000
1000
0100
0010
0000
,
0100
1000
0000
0010
0000
0100
0010
0000
,
1000
0100
0010
0000
0100
0000
1000
0000
,
0001
0100
0000
0010
0000
0100
0001
0000
,
0200
0000
0000
0000
0002
0300
0000
0000
,
2000
0003
3020
0000
0230
0000
0320
0000
,
2030
0000
0000
0002
0000
3000
0200
0000
,
0303
0100
0010
0000
0100
0000
0010
0000
,
1000
0001
0001
0100
,
0010
1000
0000
0100
0000
0010
0100
0000
,
1000
0001
0001
0100
,
0010
0100
0000
0010
0000
0100
0010
0000
,
0200
0000
0000
0000
0002
0300
0000
0000
,
2000
0003
3200
0000
0320
0000
0230
0000
,
2300
0000
0000
0020
3000
0000
0200
0000
,
0330
0100
0001
0000
0100
0000
0001
0000
,
1000
0100
0010
0000
0100
0000
1000
0000
,
0001
0100
0000
0010
0000
0100
0001
0000
,
1000
0100
0010
0000
0100
0000
1000
0000
,
0100
0010
0000
0001
0000
0100
0010
0000
,
0100
0001
0100
0000
0010
0000
0100
0000
,
0010
1000
0000
0100
0000
0010
0100
0000
,
1000
0010
0100
0000
0010
0000
1000
0000
,
0100
0010
0000
0001
0000
0100
0010
0000
,
0101
0101
0010
1000
,
0100
0010
0000
0100
0000
1000
0001
0000
,
0100
0001
0000
1000
0000
0000
0010
0000
,
0010
1000
0100
0100
,
1000
0010
0000
0100
0000
0100
0010
0000
,
1000
0100
0000
0010
0000
0100
0010
0000
,
0001
0100
0000
0010
0000
0100
0010
0000
,
1000
0100
0000
0010
0000
0100
1000
0010
,
0100
0010
1000
0000
0100
0000
0010
0000
,
0001
0100
0000
0010
0000
0100
0001
0000
,
0100
0001
0100
0000
0010
0100
0010
0000
,
1000
0010
1000
0000
0010
0100
0010
0000
,
2000
0000
0000
0000
0002
3000
0000
0000
,
0200
0003
0320
0000
2030
0000
3200
0000
,
0302
0000
0000
0200
0000
0003
2000
0000
,
3300
0010
0100
0000
0010
0000
1000
0000
,
0001
0100
0010
0000
0100
0001
1000
0000
,
0100
0010
0100
0000
1000
0001
0100
0000
,
0001
0100
0010
0000
0100
0001
0100
0000
,
0001
0100
0001
0000
1000
0100
1000
0000
,
0100
1000
0100
0000
0100
1000
0100
0010
,
0100
0010
0100
0000
0010
0001
0010
0000
,
0001
0100
0001
0000
0100
0010
0100
0000
,
0010
1000
0100
0010
0100
1000
0010
0100
,
0010
1000
0100
0100
,
0002
0000
0000
0200
0003
0000
1000
0300
,
1010
0010
0100
0100
,
0020
0000
0000
2000
0030
0000
0001
3000
,
0100
0100
0010
0010
,
2020
0000
3030
0202
0000
0303
0011
0000
,
0100
0100
0010
0010
,
0022
0000
0033
0220
0000
0330
1100
0000
,
1000
0010
0100
0000
0100
0000
0010
0000
,
2000
0000
0000
0020
3000
0000
0100
0030
,
0010
0100
0001
0100
,
0002
0000
0000
0100
0000
0000
0103
0000
,
0100
0010
1000
0100
,
2000
0000
0000
0010
0000
0000
3100
0000
,
0010
0100
0010
0001
,
0020
0000
0000
0100
0000
0000
1030
0000
,
0100
0010
0100
0000
0001
0100
0001
0000
,
0010
0001
0000
0100
0000
0010
0100
0000
,
0010
1000
0100
0000
0010
0100
1000
0000
,
0100
1000
0000
0010
0000
0100
0010
0000
,
2000
0000
0000
0000
0002
3000
0000
0000
,
0200
0003
0320
0000
2030
0000
3002
0000
,
0203
0000
0000
0002
0000
0300
2000
0000
,
3003
0000
0000
0000
;
