#TITLE:Let It Roll;
#ARTIST:Group 1 Crew;
#BANNER:Let It Roll - Group 1 Crew.PNG;
#BACKGROUND:Let It Roll - Group 1 Crew-bg.PNG;
#LYRICSPATH:Let It Roll - Group 1 Crew.lrc;
#CDTITLE:.\CDTITLES\DP2G1.png;
#MUSIC:Let It Roll - Group 1 Crew.mp3;
#OFFSET:-2.363;
#SAMPLESTART:41.2;
#SAMPLELENGTH:12;
#BPMS:0=142;

//---------------dance-single - ----------------
#NOTES:
     dance-single:
     :
     Easy:
     2:
     0.138,0.172,0.173,0.013,0.000:
0000
0000
0000
0000
,
0101
0000
0000
0000
,
0010
0000
0000
0000
,
1010
0000
0000
0000
,
0010
0000
0000
0000
,
0101
0000
0000
0000
,
1000
0000
0000
0000
,
0010
0000
0000
0000
,
0001
0000
0000
0000
,
1100
0000
0000
0000
,
0001
0000
0000
0000
,
0011
0000
0000
0000
,
1000
0000
0000
0000
,
0101
0000
0000
0000
,
0100
0000
0000
0000
,
0011
0000
0000
0000
,
1000
0000
0000
0000
,
1010
0000
0000
0000
,
1000
0000
0000
0000
,
1100
0000
0000
0000
,
0001
0000
0000
0000
,
1001
0000
0000
0000
,
0010
0000
0000
0000
,
1000
0000
0000
0000
,
0001
0000
0000
0000
,
0010
0000
0000
0000
,
1000
0000
0000
0000
,
0002
0000
0000
0000
0000
0003
0000
0000
,
1000
0000
0000
0000
,
0010
0000
0000
0000
,
0010
0000
0000
0000
,
2000
0000
0000
0000
0000
3000
0000
0000
,
0001
0000
0000
0000
,
0010
0000
0000
0000
,
1000
0000
0000
0000
,
0001
0000
0000
0000
,
1000
0000
0000
0000
,
0010
0000
0000
0000
,
1000
0000
0000
0000
,
0101
0000
0000
0000
,
0010
0000
0000
0000
,
1100
0000
0000
0000
,
1000
0000
0000
0000
,
0011
0000
0000
0000
,
0001
0000
0000
0000
,
0110
0000
0000
0000
,
1000
0000
0000
0000
,
0001
0000
0000
0000
,
0010
0000
0000
0000
,
1000
0000
0000
0000
,
0001
0000
0000
0000
,
0010
0000
0000
0000
,
0001
0000
0000
0000
,
1000
0000
0000
0000
,
0010
0000
0000
0000
,
0011
0000
1000
0000
,
0010
0000
0001
0000
,
1100
0000
0010
0000
,
0001
0000
1000
0000
,
0011
0000
1000
0000
,
0001
0000
0010
0000
,
1010
0000
0001
0000
,
0010
0000
1000
0000
,
0001
0000
0010
0000
,
1000
0000
0001
0000
,
0010
0000
0001
0000
,
1000
0000
0010
0000
,
0001
0000
1000
0000
,
0010
0000
0001
0000
,
1000
0000
0010
0000
,
0001
0000
1000
0000
,
0110
0000
1000
0000
,
0001
0000
0010
0000
,
1010
0000
0001
0000
,
0010
0000
1000
0000
,
0011
0000
0010
0000
,
1000
0000
0100
0000
,
1010
0000
0100
0000
,
0001
0000
1000
0000
,
0101
0000
1000
0000
,
0010
0000
0100
0000
,
0011
0000
0001
0000
,
1000
0000
1000
0000
,
1010
0000
0010
0000
,
0001
0000
0001
0000
,
1001
0000
1000
0000
,
0001
0000
0000
0000
;

//---------------dance-single - ----------------
#NOTES:
     dance-single:
     :
     Hard:
     7:
     0.433,0.516,0.180,0.013,0.000:
0010
0000
1000
0001
0000
0000
0110
0000
,
0101
0000
0010
1000
0000
0001
1000
0000
,
0010
0000
0001
0100
0000
0010
0100
0000
,
1010
0000
0001
0100
0000
1000
0100
0000
,
0010
0000
0001
1000
0000
0100
0010
0000
,
0100
0000
0001
1000
0000
0010
1000
0000
,
1010
0000
0010
0001
0000
1000
0100
0000
,
0010
0000
0001
1000
0000
0010
0100
0000
,
0001
0000
1000
0010
0000
1000
0010
0000
,
1100
0000
0001
0010
0000
1000
0100
0000
,
0001
0000
0010
1000
0000
0100
1000
0000
,
0011
0000
1000
0010
0000
0001
0100
0000
,
1000
0000
0001
0010
0000
1000
0010
0000
,
0101
0000
1000
0010
0000
1000
0010
0000
,
0100
0000
0001
1000
0000
0100
1000
0000
,
0011
0000
1000
0100
0000
0001
0010
0000
,
1000
0000
0001
0100
0000
0001
0100
0000
,
1010
0000
0100
0001
0000
1000
0010
0000
,
1000
0000
0100
0001
0000
0010
0001
0000
,
1100
0000
0001
0010
0000
0100
1000
0000
,
0001
0000
0010
0100
0000
0010
1000
0000
,
1000
0001
0010
0000
0100
0000
1000
0001
,
0010
0000
0001
0100
0000
0010
0001
0000
,
1000
0001
0010
1000
,
0001
0010
0100
1000
,
0010
1000
0001
0010
,
1000
0001
0010
1000
,
0002
0000
0003
0010
,
1000
0010
0001
1000
,
0010
0001
1000
0001
,
0010
1000
0100
0001
,
2000
0000
0000
3000
,
0001
0010
1000
0001
,
0010
1000
0001
0010
,
1000
0100
0010
0010
,
0001
1000
0100
0001
,
1000
1000
0001
0001
,
0010
0010
0100
0100
,
1000
0001
0010
1000
,
0101
0010
1000
0001
,
0010
0100
0001
0010
,
1100
0010
0001
0100
,
1000
0001
0100
1000
,
0011
1000
0100
1000
,
0001
0010
1000
0001
,
0110
1000
0001
0010
,
1000
0100
0010
0100
,
0001
1000
0100
1000
,
0010
0100
0001
0010
,
1000
0001
0010
1000
,
0001
0010
0100
1000
,
0010
0001
1000
0010
,
0001
0100
0010
0100
,
1000
0001
0100
1000
,
0010
0100
1000
0100
,
0011
0000
1000
0100
1000
0010
0001
0000
,
1001
0000
0001
1000
0001
1000
0010
0000
,
1100
0000
0001
0000
0010
0001
1000
0000
,
0001
1000
0010
0001
1000
0001
0100
1000
,
0011
0000
0100
0000
1000
0001
0010
1000
,
0001
0010
1000
0000
0010
0001
0100
0000
,
1010
0000
0100
0000
0001
0010
1000
0000
,
0010
1000
0001
0010
1000
0001
0010
1000
,
0001
0000
1000
0001
0010
1000
0001
0010
,
1000
0001
0100
0010
0001
0010
1000
0000
,
0010
0001
1000
0010
0001
0000
0010
0001
,
1000
0001
0100
0000
0010
0000
0100
0000
,
0001
0000
0010
0001
1000
0001
0100
0000
,
0010
0100
1000
0010
0001
1000
0010
0000
,
1000
0001
0000
0100
0010
0000
0100
0000
,
0001
1000
0010
0000
1000
0000
0001
1000
,
0110
0001
1000
0010
,
0001
0000
1000
0000
0010
0001
0100
0000
,
1010
0100
0001
1000
,
0010
0000
0100
0001
1000
0001
0100
1000
,
0011
1000
0010
0001
,
1000
0000
0001
0000
0100
0010
0001
0100
,
1010
0001
0100
0010
,
0001
0000
0010
0001
1000
0001
0010
0000
,
0101
0000
0010
0000
1000
0010
0001
0000
,
0010
0000
1000
0001
0100
0000
1000
0100
,
0011
0000
1000
0010
0001
1000
0010
0001
,
1000
0001
0100
0001
1000
0010
0001
0000
,
1010
0000
0100
0001
0010
0000
1000
0010
,
0001
1000
0010
1000
0001
0010
0100
0010
,
1000
0001
0100
0011
1000
0010
0010
1000
,
0001
0000
0000
0000
;

//---------------dance-single - ----------------
#NOTES:
     dance-single:
     :
     Medium:
     4:
     0.248,0.286,0.173,0.013,0.000:
0010
0000
0000
0001
0000
0000
0000
0000
,
0101
0000
0000
1000
0000
0000
0000
0000
,
0010
0000
0000
0100
0000
0000
0000
0000
,
1010
0000
0000
0100
0000
0000
0000
0000
,
0010
0000
0000
1000
0000
0000
0000
0000
,
0101
0000
0000
0010
0000
0000
0000
0000
,
1000
0000
0000
0001
0000
0000
0000
0000
,
0010
0000
0000
1000
0000
0000
0000
0000
,
0001
0000
0000
0010
0000
0000
0000
0000
,
1100
0000
0000
0010
0000
0000
0000
0000
,
0001
0000
0000
1000
0000
0000
0000
0000
,
0011
0000
0000
0010
0000
0000
0000
0000
,
1000
0000
0000
0010
0000
0000
0000
0000
,
0101
0000
0000
0010
0000
0000
0000
0000
,
0100
0000
0000
1000
0000
0000
0000
0000
,
0011
0000
0000
0100
0000
0000
0000
0000
,
1000
0000
0000
0100
0000
0000
0000
0000
,
1010
0000
0000
0001
0000
0000
0000
0000
,
1000
0000
0000
0001
0000
0000
0000
0000
,
1100
0000
0000
0010
0000
0000
0000
0000
,
0001
0000
0000
0100
0000
0000
0000
0000
,
1001
0000
0000
0100
0000
0000
0000
0000
,
0010
0000
0000
0100
0000
0000
0000
0000
,
1000
0000
0010
0000
,
0001
0000
0100
0000
,
0010
0000
0001
0000
,
1000
0000
0010
0000
,
0002
0000
0000
0003
,
1000
0000
0001
0000
,
0010
0000
1000
0000
,
0010
0000
0100
0000
,
2000
0000
0000
0000
0000
0000
0000
3000
,
0001
0000
1000
0000
,
0010
0000
0001
0000
,
1000
0000
0010
0000
,
0001
0000
0100
0000
,
1000
0000
0001
0000
,
0010
0000
0100
0000
,
1000
0000
0010
0000
,
0101
0000
1000
0000
,
0010
0000
0001
0000
,
1100
0000
0001
0000
,
1000
0000
0100
0000
,
0011
0000
0100
0000
,
0001
0000
1000
0000
,
0110
0000
0001
0000
,
1000
0000
0010
0000
,
0001
0000
0100
0000
,
0010
0000
0001
0000
,
1000
0000
0010
0000
,
0001
0000
0100
0000
,
0010
0000
1000
0000
,
0001
0000
0010
0000
,
1000
0000
0100
0000
,
0010
0000
1000
0000
,
0011
0100
1000
0001
,
0010
1000
0001
0010
,
1100
0001
0010
1000
,
0001
0010
1000
0100
,
0011
0100
1000
0010
,
0001
1000
0010
0100
,
1010
0100
0001
1000
,
0010
0001
1000
0010
,
0001
1000
0010
0001
,
1000
0100
0001
1000
,
0010
1000
0001
0010
,
1000
0100
0010
0100
,
0001
0010
1000
0100
,
0010
1000
0001
0010
,
1000
0100
0010
0100
,
0001
0010
1000
0001
,
0110
0001
1000
0010
,
0001
1000
0010
0100
,
1010
0100
0001
1000
,
0010
0100
1000
0100
,
0011
1000
0010
0001
,
1000
0001
0100
0001
,
1010
0001
0100
0010
,
0001
0010
1000
0010
,
0101
0010
1000
0001
,
0010
1000
0100
1000
,
0011
1000
0001
0010
,
1000
0100
1000
0001
,
1010
0100
0010
1000
,
0001
0010
0001
0100
,
1001
0010
1000
0010
,
0001
0000
0000
0000
;

//---------------dance-single - ----------------
#NOTES:
     dance-single:
     :
     Challenge:
     8:
     0.463,0.433,0.113,0.133,0.003:
0000
0000
0000
0000
,
1000
0000
0001
0010
0000
0010
0001
0000
,
1000
0000
0001
0100
0000
0100
0010
0000
,
0100
0000
0010
0000
1000
0001
0100
0000
,
0010
0000
0010
0100
0000
0100
0001
0000
,
1000
0000
0010
0100
0000
0010
1000
0000
,
0001
0000
0001
0100
0000
0100
0010
0000
,
0100
0001
1000
0000
0100
0010
0100
0010
,
0000
0100
0010
0001
0100
0010
0100
0000
,
0010
0000
1000
0010
0100
0000
0010
1000
,
0000
0010
0100
0010
1000
0100
0010
0000
,
0100
0000
0010
0001
0000
0100
0010
0000
,
0100
0001
0010
0100
0010
0001
0010
0000
,
0001
0000
0100
0010
0000
0100
0001
0000
,
1000
0100
1000
0010
0100
0010
1000
0000
,
0100
0010
0001
0000
0010
0001
0000
0100
,
0010
0000
0100
0010
0000
1000
0100
0000
,
1000
0000
0010
0100
0000
0100
0010
0000
,
0010
0100
0000
0100
0001
1000
0001
0000
,
0100
0000
0010
0100
0000
0001
1000
0000
,
0100
1000
0000
0010
0100
0010
1000
0000
,
0100
0010
0000
0010
0001
0000
0100
0010
,
0100
0000
0100
0010
0000
0010
1000
0000
,
0100
0010
0001
0100
0010
0100
0010
0000
,
1000
0100
0010
0100
0010
0001
0100
0000
,
0010
1000
0010
0100
0010
1000
0100
0000
,
0010
0001
0100
0010
1000
0100
0010
0001
,
0100
0000
0100
0000
0010
1000
0100
0000
,
0010
0001
0100
0001
0100
0010
1000
0000
,
0100
0010
0001
0010
0001
0100
0010
0000
,
0100
0001
0010
0100
1000
0010
0100
0010
,
1000
0000
0100
0000
0100
1000
0010
0000
,
0100
0000
0100
0001
1000
0000
0001
0000
,
0100
0010
0100
0000
0001
0100
0001
0000
,
0100
0010
0100
0000
0010
1000
0100
0000
,
1100
0000
1000
0000
0010
0100
0010
0000
,
1010
0000
0010
0000
0100
0010
0100
0000
,
0101
0000
0001
0000
0100
0010
0100
0000
,
0101
0000
0100
0000
0010
1000
0100
0000
,
0010
0000
0010
0000
0100
0010
0100
0000
,
2002
0000
3003
0000
0100
0010
0100
0000
,
2200
0000
0000
3300
0010
0100
0010
0000
,
0100
0000
0100
0000
0001
1000
0100
0000
,
0010
0000
0010
0000
0001
0010
0001
0000
,
0100
0000
0100
0000
0001
0010
0001
0000
,
0010
0000
0010
0000
0100
0010
0100
0000
,
0010
0000
0010
0000
0001
0100
0010
0000
,
0100
0000
0020
0000
2000
0000
0000
3030
,
0010
0000
0200
0000
0002
0000
0000
0303
,
0100
0000
0020
0000
2000
0000
0000
3030
,
1000
0000
0020
0000
0200
0000
0000
0330
,
0100
0000
0002
0000
2000
0000
0000
3003
,
1000
0000
0020
0000
0200
0000
0000
0330
,
0100
0000
0002
0000
2000
0000
0000
3003
,
1000
0000
0200
0000
0020
0000
0000
0330
,
0010
0001
0100
0000
0100
0010
1000
0000
,
0100
0010
0100
0000
0010
0001
0100
0000
,
0010
0100
0010
0000
1000
0100
0010
0000
,
0001
0100
0010
1000
0100
0010
0001
0100
,
0010
0000
0100
0000
0010
1000
0100
0000
,
0010
0000
0100
0000
0010
0001
0100
0000
,
0010
0000
0100
0000
0010
1000
0100
0000
,
0010
0001
0100
0010
1000
0100
0010
0001
,
0100
0000
0010
0000
0010
0100
0010
0000
,
0100
0000
0100
0000
0001
0100
0001
0000
,
0100
0010
0100
0000
0010
1000
0010
0000
,
0100
0010
1000
0000
0010
0100
0010
0000
,
0100
0000
0100
0000
0001
0100
0001
0000
,
0100
0000
0100
0000
0010
1000
0010
0000
,
0100
0010
1000
0100
0000
0010
0010
0000
,
0001
0100
0010
0100
0000
0100
0001
0000
,
1001
1000
0010
0010
,
0110
0100
0010
0010
,
0110
0010
1000
1000
,
1010
0010
0010
0100
,
0110
0100
0100
0001
,
0101
0001
1000
1000
,
1001
1000
1010
0010
,
0110
0100
0101
0001
,
1001
0000
0001
1000
0001
0000
0000
0000
1000
0000
0010
0000
0100
0000
0000
0000
,
0010
0000
0010
0000
0100
0010
1000
0000
,
0001
0001
0100
0100
,
0001
0000
0001
1000
0000
1000
0001
0000
,
0010
0000
0010
0000
0001
1000
0001
0000
,
0100
0000
0100
0000
0001
1000
0001
0000
,
0100
0000
0010
0000
1000
0010
1000
0000
,
0010
0000
0100
0010
0000
0010
1000
0000
;
