#TITLE:In Christ;
#ARTIST:Big Daddy Weave;
#BANNER:In Christ - Big Daddy Weave.PNG;
#BACKGROUND:In Christ - Big Daddy Weave-bg.PNG;
#LYRICSPATH:In Christ - Big Daddy Weave.lrc;
#CDTITLE:.\CDTITLES\DP2BIG2.png;
#MUSIC:In Christ - Big Daddy Weave.mp3;
#OFFSET:-2.453;
#SAMPLESTART:48.6;
#SAMPLELENGTH:12;
#BPMS:0=118;
#BGCHANGES:31.8=In Christ - Big Daddy Weave.AVI=0.95=1=1=0,999=-=1=0=0=0;

//---------------dance-single - ----------------
#NOTES:
     dance-single:
     :
     Easy:
     2:
     0.151,0.193,0.069,0.038,0.000:
0000
0000
0000
0000
,
1000
0000
0010
0000
,
0001
0000
0010
0000
,
1000
0000
0010
0000
,
0001
0000
1000
0000
,
0010
0000
0100
0000
,
0001
0000
1000
0000
,
0010
0000
0001
0000
,
1000
0000
0001
0000
,
0010
0000
1000
0000
,
0001
0000
1000
0000
,
0010
0000
1000
0000
,
0001
0000
1000
0000
,
0010
0000
0001
0000
,
1000
0000
0001
0000
,
0010
0000
1000
0000
,
0001
0000
1000
0000
,
0010
0000
0100
0000
,
1000
0000
0100
0000
,
0010
0000
1000
0000
,
0001
0000
1000
0000
,
0010
0000
0001
0000
,
1000
0000
0001
0000
,
0010
0000
0100
1000
,
0011
0000
0000
0010
,
0000
1000
0000
0001
,
1001
0000
0000
0010
,
0000
1000
0000
0001
,
1010
0000
0000
0010
,
0000
1000
0000
0001
,
0000
0000
1000
0000
0000
0020
0000
0000
,
2030
0000
3000
0001
,
1010
0000
0000
0010
,
0000
1000
0000
0001
,
0000
0000
0000
0010
,
0000
0100
0000
1000
,
0000
0001
0000
0010
,
0000
0100
0000
1000
,
0000
0001
0000
0010
,
0000
0100
0000
1000
,
0000
0001
0000
1000
,
0000
0001
0000
1000
,
0000
0010
0000
0100
,
0000
0020
0030
0100
,
0000
0010
0000
0001
,
0000
0100
0000
1000
,
0000
0001
0000
0010
,
0000
0100
0000
0001
,
0000
0100
0000
1000
,
0000
0001
0000
0010
,
0000
1000
0000
0001
,
0000
0100
0000
0010
,
1001
0000
0000
1000
,
0000
0001
0000
0010
,
1001
0000
0000
0001
,
0000
0010
0000
1000
,
0011
0000
0000
0010
,
0000
1000
0000
0001
,
0000
0000
0100
0000
0000
2000
0000
0000
,
3020
0000
0030
0001
,
1010
0000
0000
0010
,
0000
0001
0000
1000
,
0011
0000
0000
0001
,
0000
0010
0000
0000
;

//---------------dance-single - ----------------
#NOTES:
     dance-single:
     :
     Hard:
     6:
     0.375,0.386,0.153,0.053,0.000:
0000
0000
0000
0000
0000
0000
0010
0100
,
0001
0000
1000
0001
0010
0000
0001
1000
,
0000
0000
0001
1000
0010
0000
1000
0001
,
0000
0000
1000
0001
0010
0000
0001
1000
,
0010
0001
0010
0000
1000
0000
0001
0100
,
0000
0010
0100
0010
0000
0100
1000
0000
,
0001
0000
0100
1000
0000
0010
0001
0000
,
0010
1000
0001
1000
0001
0000
0010
0000
,
1001
0010
0100
0000
0001
0000
0100
1000
,
0010
0000
0100
0001
1000
0001
0010
0000
,
0001
0000
0100
0001
1000
0000
0001
0000
,
1000
0001
1000
0001
,
1000
0010
0001
0100
1000
0000
0100
0000
,
0010
1000
0100
1000
0001
1000
0010
0000
,
1000
0000
0100
1000
0001
0010
0100
0000
,
0010
1000
0001
0000
1000
0000
1000
0000
,
0001
0000
0001
0010
1000
0000
1000
0001
,
0010
0000
0010
1000
0100
0000
0100
0000
,
1000
0000
0001
0000
0100
1000
0100
0001
,
0010
0000
0010
0001
1000
0000
0010
0000
,
0001
0000
0100
0000
1000
0000
0001
1000
,
0010
1000
0001
0010
,
1000
0000
0100
0000
0001
0000
1000
0001
,
0010
1000
0001
0010
0100
0000
1100
0000
,
0011
1000
1000
0010
,
0001
1000
0001
0110
,
1001
0000
0100
1000
0001
0000
0010
1000
,
0001
1000
0010
0101
,
1010
0000
0100
1000
0001
0000
0010
1000
,
0001
1000
0010
0001
,
0100
0000
1000
0000
0001
0020
0000
0000
,
2030
0000
0000
3000
0100
0000
0101
0000
,
1010
0100
0001
0010
,
0001
1000
0010
0001
,
0100
0001
0100
0010
,
0001
0100
0001
1000
,
0010
1000
0001
0010
0100
0000
0010
1000
,
0001
1000
0100
1000
0001
0000
1000
0000
,
0100
0000
0001
1000
0100
0001
0010
0000
,
1000
0100
0001
1000
,
0010
1000
0001
0010
0100
0000
1000
0000
,
0100
1000
0001
1000
0010
0001
1000
0000
,
0001
0000
0010
0001
1000
0001
0200
0000
,
0000
0320
0000
0000
0030
0000
0100
0000
,
1000
0000
0010
0001
1000
0000
0001
0000
,
1000
0001
0100
1000
0001
0000
1000
0000
,
0010
0000
0001
0000
0100
0000
0010
1000
,
0001
0100
1000
0001
,
1000
0000
0100
0000
0001
0000
1000
0001
,
0010
0000
0001
1000
0100
0000
0010
0000
,
0001
1000
0010
0001
,
0010
1000
0100
0001
1000
0000
0110
0000
,
1001
0000
0100
0000
0010
0001
1000
0000
,
0010
0001
1000
0110
,
1001
0000
0100
0001
1000
0000
0001
0010
,
1000
0010
0001
1100
,
0011
0000
0100
0001
1000
0000
0010
1000
,
0001
0000
1000
0000
0020
0000
0000
0030
,
0001
1000
0100
0000
1001
0100
0001
2000
,
0020
3000
0000
0000
0130
0000
0101
0000
,
1010
0000
0100
0000
0001
0010
0100
1000
,
0001
0010
0100
1100
,
0011
0000
0100
0000
1000
0000
0001
0010
,
1000
0001
0000
0000
;

//---------------dance-single - ----------------
#NOTES:
     dance-single:
     :
     Medium:
     4:
     0.295,0.290,0.145,0.053,0.000:
0000
0000
0010
0000
,
1000
0001
0010
1000
,
0001
1000
0010
0001
,
1000
0001
0010
1000
,
0001
0010
1000
0100
,
0010
0100
0010
0100
,
0001
0100
1000
0001
,
0010
1000
0001
0010
,
1001
0100
0001
0100
,
0010
0100
1000
0010
,
0001
0100
1000
0001
,
1000
0001
1000
0001
,
1000
0001
1000
0100
,
0010
0100
0001
0010
,
1000
0100
0001
0100
,
0010
0001
1000
1000
,
0001
0001
1000
1000
,
0010
0010
0100
0100
,
1000
0001
0100
0100
,
0010
0010
1000
0010
,
0001
0100
1000
0001
,
0010
1000
0001
0010
,
1000
0100
0001
1000
,
0010
0001
0100
1100
,
0011
1000
0000
0010
,
0001
1000
0001
0110
,
1001
0100
0001
0010
,
0001
1000
0010
0101
,
1010
0100
0001
0010
,
0001
1000
0010
0001
,
0100
0000
1000
0000
0001
0020
0000
0000
,
2030
0000
0000
3000
0100
0000
0101
0000
,
1010
0100
0001
0010
,
0001
1000
0010
0001
,
0100
0001
0100
0010
,
0001
0100
0001
1000
,
0010
0001
0100
0010
,
0001
0100
0001
1000
,
0100
0001
0100
0010
,
1000
0100
0001
1000
,
0010
0001
0100
1000
,
0100
0001
0010
1000
,
0001
0010
1000
0200
,
0000
0320
0000
0000
0030
0000
0100
0000
,
1000
0010
1000
0001
,
1000
0100
0001
1000
,
0010
0001
0100
0010
,
0001
0100
1000
0001
,
1000
0100
0001
1000
,
0010
0001
0100
0010
,
0001
1000
0010
0001
,
0010
0100
1000
0110
,
1001
0100
0010
1000
,
0010
0001
1000
0110
,
1001
0100
1000
0001
,
1000
0010
0001
1100
,
0011
0100
1000
0010
,
0001
1000
0020
0030
,
0001
0000
0100
0000
0001
2000
0000
0000
,
3020
0000
0000
0030
0100
0000
0101
0000
,
1010
0010
0001
0010
,
1000
0001
0100
1100
,
0011
0100
1000
0001
,
1000
0001
0000
0000
;

//---------------dance-single - ----------------
#NOTES:
     dance-single:
     :
     Challenge:
     7:
     0.375,0.429,0.053,0.214,0.286:
0000
0000
0000
0000
,
0000
0000
0000
0000
,
0000
0000
0000
0000
,
0000
0000
0000
0000
,
0011
0000
1001
0000
1000
1000
0010
0010
,
0110
0000
1010
0000
1000
0001
0001
1000
,
1010
0000
0101
0000
0001
1000
0100
0000
,
0010
0001
0010
0000
0001
0100
0010
0000
,
1000
0000
0001
0100
0010
0100
0001
0001
,
0100
0000
0010
0000
0100
0000
0001
1000
0000
0001
0000
0100
0000
0000
0000
0000
,
0010
0000
0100
0001
2000
0000
3002
0000
,
0203
0000
0301
1000
,
0001
0000
0100
0010
0100
0000
0001
1000
,
0001
0000
0100
0000
0001
0000
0100
0010
0000
0100
0000
0001
0000
0000
0000
0000
,
1000
0000
0100
0010
0100
0000
0100
1000
,
0010
0000
1000
0000
0001
0001
0100
0010
,
1000
0000
0000
0010
0000
0010
0000
0000
1000
0000
0000
0001
0000
0001
0000
0000
,
0100
0000
0000
0010
0000
0010
0000
0000
1000
0000
0000
0001
0000
0001
0000
0000
,
1000
0000
0100
0000
0010
0010
0100
0000
,
1000
0000
0100
0000
0010
0100
1000
0000
,
0100
0000
0000
1000
0000
1000
0000
0000
0001
0000
0000
0100
0000
0001
0000
0000
,
1000
0000
0000
0100
0000
0010
0000
0000
0010
0000
0100
0000
0010
0000
0000
0000
,
0001
0000
0100
0000
0010
0000
0100
0001
,
1000
0100
0000
0010
0000
0100
0000
0000
0010
0000
0000
0000
0002
0000
0000
0000
,
0200
0000
0000
0000
0000
0000
0000
0000
0303
0000
0001
0000
0000
1000
0000
0000
,
0010
0000
0000
1000
0000
0000
0001
0000
0000
0000
0000
0000
2000
0000
0000
0000
,
0002
0000
0000
0000
3003
0000
1000
0000
0001
0000
0000
0001
0000
0000
0100
0000
,
0100
0000
0000
0001
0000
0000
1000
0000
0000
0000
0000
0000
0020
0000
0000
0000
,
0200
0000
0000
0000
0330
0000
0100
0000
0001
0000
0000
0001
0000
0000
1000
0000
,
0001
0000
0000
0001
0000
0000
0100
0000
0000
0000
0000
0000
0010
0000
0000
0000
,
1000
0001
0000
0100
0010
0020
0000
0000
,
0130
0000
0001
0001
1000
0000
0200
0000
,
0020
0000
0000
0000
0000
0330
0010
0000
,
0001
0000
0001
1000
0100
0000
0010
0010
,
0001
0000
0000
0100
0000
0000
0100
0000
0010
0000
0000
1000
0000
0000
0001
0000
,
0100
0000
0000
0001
0000
0000
1000
0000
0100
0000
0000
0010
0000
0000
0100
0000
,
0010
0000
0001
0100
0001
1000
0001
0100
,
0010
0000
0100
0010
0000
1000
0000
0000
0020
0000
0000
0000
1030
0000
0000
0000
,
0100
0000
1000
1000
0100
0010
0001
0020
,
0000
0000
0031
0000
0001
1000
0010
0000
,
1000
0000
0001
1000
1000
0100
1000
0000
,
1000
0000
0010
0000
0100
0000
0010
1000
0000
0100
0000
0010
0000
0000
0000
0000
,
0100
0000
1000
0001
1000
0001
2000
0000
,
3200
0000
0000
0020
0300
0000
0030
0000
0100
0000
0000
1000
0000
0000
1000
0000
,
0010
0000
0000
0100
0000
0100
0000
0000
0010
0000
0000
1000
0000
1000
0000
0000
,
0010
0000
0000
0100
0000
0100
0000
0000
0001
0000
0000
1000
0000
1000
0000
0000
,
0100
0000
0000
0010
0000
0010
0000
0000
0100
0000
0000
1000
0000
1000
0000
0000
,
0001
0000
0000
0100
0000
0100
0000
0000
0001
0000
0000
1000
0000
1000
0000
0000
,
0100
0000
0000
0010
0000
0010
0000
0000
0100
0000
0000
1000
0000
0001
0000
0000
,
0100
0000
0000
0001
0000
0100
0000
0000
0010
0000
0000
1000
0000
0010
0000
0000
,
1000
0000
0000
1000
0100
0000
1000
0100
,
0010
0100
0000
0010
0000
0001
0000
0000
0100
0000
0000
0000
0002
0000
0000
0000
,
2000
0000
0000
0000
0000
0000
0000
0000
3003
0000
0100
0000
0000
0010
0000
0000
,
0010
0000
0000
0100
0000
0000
0001
0000
0000
0000
0000
0000
2000
0000
0000
0000
,
0002
0000
0000
0000
3003
0000
0001
0000
0010
0000
0000
0001
0000
0000
0100
0000
,
0010
0000
0000
0010
0000
0000
1000
0000
0000
0000
0000
0000
0002
0000
0000
0000
,
2000
0000
0000
0000
3003
0000
0010
0000
1000
0000
0000
0010
0000
0000
1000
0000
,
0001
0000
0000
0001
0000
0000
0100
0000
0000
0000
0000
0000
0110
0000
0000
0000
,
0100
0001
0000
0001
1000
0200
0000
0000
,
0310
0000
0010
0001
0001
0000
0200
0000
,
0002
0000
0000
0000
0000
0000
0303
0000
0001
0000
0000
0001
0000
0000
0100
0000
,
0010
0000
0000
0010
0000
0000
1000
0000
0000
0000
0000
0000
0002
0000
0000
0000
,
0020
0000
0033
0000
;
