#TITLE:I Need You To Love Me;
#ARTIST:Barlow Girl;
#BANNER:I Need You To Love Me - Barlow Girl.PNG;
#BACKGROUND:I Need You To Love Me - Barlow Girl-bg.PNG;
#LYRICSPATH:I Need You To Love Me - Barlow Girl.lrc;
#CDTITLE:.\CDTITLES\DP2BARLOW2.png;
#MUSIC:I Need You To Love Me - Barlow Girl.mp3;
#OFFSET:-4.121;
#SAMPLESTART:40.28;
#SAMPLELENGTH:12;
#BPMS:0=71;
#BGCHANGES:0=I Need You To Love Me - Barlow Girl.AVI=1=1=1=0,999=-=1=0=0=0;

//---------------dance-single - ----------------
#NOTES:
     dance-single:
     :
     Easy:
     1:
     0.089,0.085,0.034,0.089,0:
0000
0000
0000
0000
,
0002
0000
0003
1000
0000
0000
0000
0000
,
0001
0000
0000
0010
0000
0000
0000
0000
,
1000
0000
0000
0100
0000
0000
0000
0000
,
0001
0000
0000
0100
0000
0000
0000
0000
,
0010
0000
0000
0100
0000
0000
0000
0000
,
0010
0000
0000
0100
0000
0000
0000
0000
,
0020
0000
0000
0030
0000
0000
0000
0000
,
1000
0000
0000
0010
0000
0000
0000
0000
,
0002
0000
0003
0100
0000
0000
0000
0000
,
1000
0000
0000
0010
0000
0000
0000
0000
,
1001
0000
0000
0010
0000
0000
0000
0000
,
2000
0000
3000
0000
,
0001
0000
0000
1000
0000
0000
0000
0000
,
0010
0000
0000
1000
0000
0000
0000
0000
,
0010
0000
0000
0100
0000
0000
0000
0000
,
2000
0000
0000
0000
0000
3000
0000
0000
,
0001
0000
0000
1100
0000
0000
0000
0000
,
0020
0000
0000
0000
0000
0030
0000
0000
,
1000
0000
0000
0001
0000
0000
0000
0000
,
0110
0000
0000
1000
0000
0000
0000
0000
,
0001
0000
0000
0010
0000
0000
0000
0000
,
2000
0000
3000
0100
0000
0000
0000
0000
,
0010
0000
0000
1000
0000
0000
0000
0000
,
0002
0000
0003
0010
0000
0000
0000
0000
,
1000
0000
0000
0001
0000
0000
0000
0000
,
0020
0000
0030
0000
,
0001
0000
0000
1000
0000
0000
0000
0000
,
0020
0000
0030
0000
,
1000
0000
0000
0010
0000
0000
0000
0000
,
0002
0000
0003
0000
,
0010
0000
0000
0100
0000
0000
0000
0000
,
1001
0000
0000
0010
0000
0000
0000
0000
,
0002
0000
0003
0000
,
0010
0000
0000
0100
0000
0000
0000
0000
,
1000
0000
0000
0010
0000
0000
0000
0000
,
0001
0000
0000
1000
0000
0000
0000
0000
,
0020
0000
0000
0030
,
1000
0000
0000
0010
0000
0000
0000
0000
,
0001
0000
0000
1100
0000
0000
0000
0000
,
0010
0000
0000
1000
0000
0000
0000
0000
,
0001
0000
0000
0100
0000
0000
0000
0000
;

//---------------dance-single - ----------------
#NOTES:
     dance-single:
     :
     Hard:
     6:
     0.306,0.271,0.164,0.096,0.219:
0000
0000
0000
0000
0000
0000
0000
0000
0000
0000
0010
0000
0100
0000
0000
1000
,
0002
0010
1000
0010
0003
0010
0100
1000
,
0001
0000
1000
0001
0000
0100
0010
0000
0000
0000
0001
0000
1000
0000
0000
0000
,
1000
0000
0001
0010
0000
0100
0010
0000
0000
0000
0010
0000
0100
0000
0000
0000
,
0001
0000
1000
0001
0000
0010
0100
0000
0000
0000
0001
0000
1000
0000
0000
0000
,
0010
0000
1000
0001
0000
0010
0100
0000
0000
0000
0001
0000
1000
0000
0000
0000
,
0010
0000
1000
0001
0000
0010
0100
0000
0000
0000
0001
0000
1000
0000
0000
0000
,
0020
0000
0000
0000
1000
0000
1000
0000
0000
0030
0100
0000
0010
0000
0000
0000
,
1001
0000
0001
1000
0000
0100
0010
0000
0000
0000
0100
0000
0010
0000
0000
0000
,
0002
0000
1000
1000
0000
0000
0100
0000
0003
0000
0001
0000
0100
0000
0000
0000
,
1000
0000
0001
1000
0000
0100
0010
0000
0000
0000
0100
0000
1000
0000
0000
0000
,
1001
0000
0100
0010
0000
0100
0010
0000
0000
0100
0010
0000
0001
0000
0000
0000
,
2000
0000
0001
0000
0001
0000
0001
0000
0000
3000
0001
0000
0110
0000
0000
0000
,
0001
0000
0100
0010
0000
0001
1000
0000
0000
0001
0010
0000
1000
0000
0000
0000
,
0010
0000
0100
0010
0000
0001
1000
0000
0000
0001
0010
0000
0100
0000
0000
0000
,
0010
0000
1000
0000
0001
0000
0010
0100
0000
0001
1000
0000
0010
0000
0100
0000
,
2000
0001
0001
0001
0001
0001
3010
0000
,
0001
0000
0000
0000
0011
0000
1100
0000
0000
0000
1000
0000
0001
0000
0010
0100
,
0020
0000
0000
0000
0000
0000
0000
0000
0000
0000
0030
0000
0110
0000
0001
1000
,
0010
0000
0000
0002
0000
0000
1000
0000
0000
0000
0000
0000
0000
0000
0003
0000
,
0110
0000
0000
1000
0001
0000
0001
1000
0000
0000
0010
0000
0100
0000
0000
0000
,
1001
0000
1000
0001
0000
0100
0010
0000
0000
0000
0100
0000
0010
0000
0000
0000
,
2001
0000
0000
0000
3000
0000
0110
0000
0000
0000
0001
0000
1000
0000
0000
0100
,
0010
0000
0100
0010
0000
0001
1000
0000
0000
0000
0010
0000
0100
0000
0000
1000
,
0002
0000
0000
1000
0000
0000
0010
0000
0003
0000
0100
0000
0010
0000
0000
0001
,
1000
0000
0010
0100
0000
0000
1001
0000
0000
0000
1000
0000
0001
0000
0000
0000
,
0120
0000
0000
1000
0000
0000
1000
0000
0000
0000
0000
0030
0100
0000
0000
0000
,
0001
0000
0000
0110
0000
0000
1001
0000
0000
0000
0001
0000
1000
0000
0000
0100
,
0020
0000
1000
0000
0030
0001
1000
0000
,
1001
0000
0000
1001
0000
0000
0110
0000
0000
0000
1000
0000
0001
0000
0000
0010
,
1002
0000
0000
1000
0000
0000
1000
0000
0003
0000
0000
0100
0010
0000
0100
0000
,
0010
0000
1000
0001
1000
0000
0010
0000
1100
0000
0000
0000
0010
0000
0000
0000
,
1001
0000
0010
0000
0100
0000
1000
0010
0000
1000
0001
0000
1000
0000
0000
0000
,
0002
1000
1000
1000
0003
0010
1001
0000
,
0010
0000
0001
0000
1000
0000
0001
0100
0000
0001
1000
0000
0001
0000
0000
0000
,
1000
0010
0001
1000
0010
0001
0010
1000
,
0001
0000
1000
0000
0010
0000
0001
1000
0000
0100
0010
0000
0100
0000
0000
0000
,
0020
0000
1000
0000
1000
0000
1000
0000
0000
0000
0000
0030
0100
0000
0000
0000
,
1000
0000
0001
0000
1000
0000
0010
0000
0000
0000
0001
0000
1000
0001
0000
0010
,
1000
0001
0000
0000
0010
0001
1100
0000
0000
0000
0010
0000
0110
0000
0000
0100
,
0010
0000
0001
0100
0000
0000
0000
0000
1000
0000
0000
0010
0100
0000
0000
0000
,
1001
0000
0001
1000
0001
0000
0010
0000
0100
0000
0000
1000
0001
0000
0000
0000
;

//---------------dance-single - ----------------
#NOTES:
     dance-single:
     :
     Medium:
     3:
     0.172,0.157,0.034,0.096,0:
0000
0000
0000
1000
,
0010
0000
0001
1000
0000
0000
0010
0000
,
0001
0000
1000
0010
0000
0000
0001
0000
,
1000
0000
0001
0100
0000
0000
0010
0000
,
0001
0000
1000
0100
0000
0000
0001
0000
,
1000
0010
1000
0100
0000
0000
0001
0000
,
0010
0000
1000
0100
0000
0000
0001
0000
,
0020
0000
0000
1000
0030
0000
0100
0000
,
1000
0000
0001
0010
0000
0000
0100
0000
,
0002
0000
1000
0103
0000
0001
0100
0000
,
1000
0000
0001
0010
0000
0000
0100
0000
,
1001
0000
0100
0010
0000
0100
0010
0000
,
2000
0000
0000
0001
0000
3000
0010
0000
,
0001
0000
0100
1000
0000
0001
0010
0000
,
0010
0000
0100
1000
0000
0001
0010
0000
,
0010
0000
1000
0100
0000
0000
0001
0000
,
2000
0000
0000
0001
0000
3000
0010
0000
,
0001
0000
0010
1100
0000
0000
0001
0000
,
0020
0000
0000
0000
0000
0030
0110
0000
,
1000
0000
0002
1000
0000
0000
0003
0000
,
0110
0000
0001
1000
0000
0010
1000
0000
,
0001
0000
1000
0010
0000
0000
0100
0000
,
2000
0000
0000
3100
0000
0001
0001
0000
,
0010
0000
0100
1000
0000
0010
0000
0000
,
0002
0000
0000
0010
0003
0100
0000
0000
,
1000
0010
0000
0001
0000
1000
0000
0000
,
0020
0000
0000
0000
0000
0030
0100
0000
,
0001
0000
0100
2000
0000
0000
0000
0000
,
3020
0000
0030
0001
,
1000
0000
0001
0010
0000
0000
1000
0000
,
0002
0000
0000
1000
0003
0000
0100
0000
,
0010
0000
0001
0100
0000
0000
0010
0000
,
1001
0000
0100
0010
0000
0000
1000
0000
,
0002
0000
0000
1000
0003
0000
1000
0000
,
0010
0000
1000
0100
0000
0000
0001
0000
,
1000
0000
0001
0010
0000
0000
1000
0000
,
0001
0000
0010
1000
0000
0000
0100
0000
,
0020
0000
0000
1000
0000
0000
0130
0000
,
1000
0000
0001
0010
0000
0000
1000
0000
,
0001
0000
0010
0100
0000
1000
0100
0000
,
0010
0000
0100
1000
0000
0000
0010
0000
,
0001
0000
1000
0100
0000
0000
0001
0000
;

//---------------dance-single - ----------------
#NOTES:
     dance-single:
     :
     Challenge:
     7:
     0.326,0.345,0.034,0.383,0.202:
1000
0001
0000
0001
0000
0000
0010
0000
,
2002
0000
0000
0000
3003
0000
1000
0100
,
0010
0010
0000
0100
0000
1000
0000
2002
,
0000
0000
0000
0000
3003
0000
1000
0010
,
0100
0100
0000
0010
0000
1000
0000
2002
,
0000
0000
0000
0000
3003
0000
1000
0010
,
0000
0010
0000
0100
0000
0000
0100
0000
,
0220
0000
0000
0000
0330
0000
0100
0010
,
1000
0000
0001
0001
0000
0100
0000
2020
,
0000
0000
0000
0000
3030
1000
0010
1000
,
0100
0000
2000
0000
0000
0000
0000
0000
0001
0000
0000
0000
3001
0000
0001
0010
,
0001
0000
0001
0000
1000
0000
1000
0100
0000
0100
1000
0000
0010
0000
0100
0000
,
0010
0000
1000
0001
0100
0000
0100
0001
0000
0001
0100
0000
0010
0000
1000
0000
,
0100
0000
0010
0100
0010
0000
0010
0001
0000
0001
0100
0000
0010
0000
1000
0000
,
0100
0000
1000
0100
1000
0000
1000
0010
0000
0010
1000
0000
0010
0000
0100
0001
,
0100
0000
0100
0010
1000
0000
0010
1000
0000
1000
0010
0000
1000
0000
0100
0000
,
0010
0000
0001
0100
0001
0000
0010
0100
0000
0100
0010
0000
0010
0000
0100
0000
,
0010
0000
0001
0010
0001
0000
0100
0010
0000
0010
0100
0000
0001
0000
0010
0000
,
0001
0000
0100
0010
0100
0001
0010
0100
0000
0100
0010
0000
0001
0000
0000
0000
,
1000
1000
0002
0000
0000
0000
0100
0000
,
0200
0000
0000
0000
0000
0000
0000
0000
0303
0000
0000
0000
0200
0000
0020
0300
,
2000
0030
0020
0000
0000
0030
0002
0000
0000
3000
2000
0000
0000
3000
0200
0000
,
0000
0000
0000
0000
0000
0000
0000
0000
0303
0000
0000
0000
0200
0000
0020
0030
,
0002
0003
0020
0000
0000
0300
2000
0000
0000
0030
0200
0000
0000
3000
2000
0000
,
0000
0000
0000
0000
0000
0000
0000
0000
3300
0000
0000
0000
0002
0000
2000
0003
,
0020
3000
0002
0000
0000
0003
2000
0000
0000
0030
0020
0000
0000
0030
0002
0000
,
0000
0000
0000
0000
3003
0000
0200
2000
,
0000
0300
0020
0000
0000
0030
0002
0000
0000
0000
3003
0000
2000
0000
0000
0000
,
0020
0000
0000
0000
0000
0000
0000
0000
3030
0000
0000
0000
0200
0000
0020
0030
,
0002
0000
0000
0300
2000
3000
2000
0000
0000
0003
0020
0030
0200
0300
0020
0000
,
0000
0000
0000
0000
0000
0000
0000
0000
3030
0000
0200
0000
0002
0300
2000
0003
,
0200
3000
0020
0300
0000
0000
0000
0000
0200
0000
0000
0330
1000
0000
0010
1000
,
0100
0000
0100
0010
0000
0010
0001
0000
0100
0010
0100
0000
0001
0000
0010
0000
,
0100
0000
0010
0001
0100
0000
0100
0001
0000
0001
0100
0000
0001
0000
0010
0100
,
0010
0000
0001
0100
0010
0000
0010
0100
0000
0100
0010
0000
1000
0000
0100
0000
,
0010
0000
0100
1000
0001
0000
1000
0001
0000
0100
0010
0000
0010
0000
0100
0010
,
1000
0000
0100
0010
0100
0000
0100
0010
0000
0010
0001
0000
0100
0000
0010
0000
,
0100
0000
0001
0010
0100
0000
0010
0001
0000
0001
0100
0000
0010
0000
0100
0001
,
0010
0000
0100
1000
0010
0000
0100
0010
1000
0000
0010
0100
0010
0000
1000
0100
,
0010
0000
0100
0010
0001
0100
0010
0100
0000
0100
0001
0000
0010
0000
0100
0000
,
0010
0000
0001
0000
0100
0010
0100
0000
0001
0100
0001
0000
1000
0001
1000
0000
,
1000
1000
0010
0020
0000
0200
0000
0000
,
0330
0000
0000
0000
;
