#TITLE:I Need You;
#ARTIST:Relient K;
#BANNER:I Need You - Relient K.PNG;
#BACKGROUND:I Need You - Relient K-bg.PNG;
#LYRICSPATH:I Need You - Relient K.lrc;
#CDTITLE:./CDTITLES/DP2RELIENT.png;
#MUSIC:I Need You - Relient K.mp3;
#OFFSET:-1.940;
#SAMPLESTART:48.9;
#SAMPLELENGTH:12;
#BPMS:0=188;
#BGCHANGES:0=I Need You - Relient K.AVI=1=1=1=0,999=-=1=0=0=0;

//---------------dance-single - ----------------
#NOTES:
     dance-single:
     :
     Easy:
     3:
     0.186,0.267,0.169,0.015,0:
0000
0000
0000
0000
,
0000
0000
0000
0000
,
0000
0000
0000
0000
,
1000
0000
0001
0000
,
0000
0000
0000
0000
,
1001
0010
0000
0100
,
0000
0000
0000
0000
,
1100
0010
0000
0001
,
0000
0000
0000
0000
,
0101
0010
0000
1000
,
0000
0000
0000
0000
,
1010
0100
0001
0000
,
0000
0000
0000
1001
,
0000
0010
0000
0100
,
0000
0000
0000
1000
,
0000
0010
0000
0100
,
0000
0000
0000
0001
,
0000
0010
0000
0100
,
0000
0000
0000
1000
,
0000
0010
0000
0100
,
0000
0000
0000
0001
,
0000
0010
0000
0100
,
0000
0000
0000
1000
,
0000
0010
0000
0001
,
0000
0000
0000
0001
,
0000
0010
0000
0100
,
0000
0000
0000
1000
,
0000
0010
0000
0001
,
0000
0000
0000
0000
,
0000
0010
0000
0100
,
0000
0000
0000
1000
,
0000
0010
0000
0001
,
0000
0000
0000
0000
,
0000
0001
0000
0010
,
0000
0100
0000
0000
,
0000
2000
0000
0010
,
3000
0100
0000
0011
,
0000
0100
0000
0001
,
0000
0000
0000
1100
,
0000
0010
0000
0100
,
0000
0000
0000
0101
,
0000
0010
0000
0100
,
0000
0000
0000
1001
,
0000
0010
0000
0100
,
0000
0000
0000
0101
,
0000
0010
0000
0001
,
0000
0000
0000
1010
,
0000
0001
0000
0100
,
0000
0000
0000
0001
,
0000
0010
0000
0100
,
0000
0000
0000
1000
,
0000
0010
0000
0100
,
0000
0000
0001
1010
,
0000
0001
0001
0001
,
0001
0001
0000
0000
,
0011
0000
0000
0000
,
0000
0000
0000
0000
,
1010
0100
0000
0001
,
0000
0000
0000
0001
,
0000
0010
0000
0100
,
0000
0000
0000
1000
,
0000
0010
0000
0001
,
0000
0000
0000
0001
,
0000
0010
0000
0100
,
0000
0000
0000
1000
,
0000
0010
0000
0001
,
0000
0000
0000
0001
,
0000
0010
0000
0100
,
0000
0000
0000
1000
,
0000
0010
0000
0001
,
0000
0000
0000
0001
,
0000
0010
0000
0100
,
0000
0000
0000
0000
,
0000
0010
0000
0001
,
0000
0000
0000
0001
,
0000
0010
0000
0001
,
0000
0000
0000
1000
,
0000
0010
0000
1000
,
0000
0000
0000
0001
,
0000
0010
0000
0001
,
0000
0000
0000
0000
0000
0000
0000
1010
,
0000
0000
0011
0000
0000
0000
0000
1100
,
0000
0000
0000
0000
,
1010
0100
0000
0001
,
0000
0100
0000
0101
,
0000
0010
0000
0100
,
0000
0000
0000
1100
,
0000
0010
0000
0001
,
0000
0000
0000
0001
,
0000
0010
0000
0001
,
0000
0000
0000
1000
,
0000
0010
0000
1000
,
0000
0000
0000
0101
,
0000
0010
0000
0001
,
0000
0000
0000
1000
,
0000
0010
0000
1000
,
0000
0000
0000
0001
,
0000
0010
0000
0001
,
0000
0000
0000
1000
,
0000
0010
0000
1000
,
0000
0000
0000
1001
,
0000
0010
0000
0100
,
0000
0000
0000
1100
,
0020
0000
0000
0000
,
0000
0030
0000
0000
0000
0000
0000
0000
0000
0000
0000
0000
0000
0000
0000
0000
0000
0000
0000
0000
0000
0000
0000
0000
0000
0000
0000
0000
0000
0000
0000
0000
0000
0000
0000
0000
0000
0000
0000
0000
0000
0000
0000
0000
0000
0000
0000
0000
0000
0000
0000
0000
0000
0000
0000
0000
0000
0000
0000
0000
0000
0000
0000
0000
0000
0000
0000
0000
0000
0000
0000
0000
0000
0000
0000
0000
0000
0000
0000
0000
0000
0000
0000
0000
0000
0000
0000
0000
0000
0000
0000
0000
0000
0000
0000
0000
0000
0000
0000
0000
0000
0000
0000
0000
0000
0000
0000
0000
0000
0000
0000
0000
0000
0000
0000
0000
0000
0000
0000
0000
0000
0000
0000
0000
0000
0000
0000
0000
0000
0000
0000
0000
0000
0000
0000
0000
0000
0000
0000
0000
0000
0000
0000
0000
0000
0000
0000
0000
0000
0000
0000
0000
0000
0000
0000
0000
0000
0000
0000
0000
0000
0000
0000
0000
0000
0000
0000
0000
0000
0000
0000
0000
0000
0000
0000
0000
0000
0000
0000
0000
0000
0000
0000
0000
0000
0000
0000
0000
0000
0000
0000
0000
;

//---------------dance-single - ----------------
#NOTES:
     dance-single:
     :
     Hard:
     7:
     0.415,0.382,0.176,0.037,0:
0000
0000
0000
0000
,
1100
0000
0001
0000
,
1000
0000
0001
0000
,
1000
0000
0001
1000
,
0001
1000
0001
0000
,
1001
0010
0001
0100
,
1000
0010
0100
0010
,
1100
0010
1000
0001
,
0010
1000
0010
0000
,
0101
0010
0001
1000
,
0010
0000
0001
0000
0100
0010
1000
0000
,
0000
0101
0000
0001
,
0010
1000
0010
1001
,
0100
0010
0001
0100
,
1000
0001
0010
1000
,
0001
0010
0001
0100
,
0001
0010
1000
0001
,
1000
0010
1000
0100
,
1000
0001
0010
1000
,
0100
0010
0001
0100
,
1000
0010
1000
0001
,
1000
0010
1000
0100
,
1000
0001
0010
1000
,
0001
0010
1000
0001
,
0010
1000
0100
0001
,
1000
0010
1000
0100
,
1000
0001
0010
1000
,
0001
0010
1000
0001
,
1000
0010
1000
0010
,
1000
0010
1000
0100
,
0010
0002
0000
1003
,
0000
0010
1000
0001
,
1000
0010
0000
0000
,
0100
0001
1000
0010
,
1000
0100
1000
0001
,
0010
2000
0000
0010
,
0000
3100
0000
0000
,
0011
0100
1000
0001
,
0100
0010
0001
1100
,
0000
0010
0001
0100
,
0001
0010
1000
0101
,
1000
0010
1000
0100
,
1000
0010
0100
1001
,
0100
0010
1000
0100
,
1000
0010
1000
0101
,
1000
0010
0100
0001
,
0010
0100
0001
1010
,
0100
0001
0010
0100
,
1000
0010
1000
0001
,
1000
0010
1000
0100
,
1000
0000
0001
1000
,
0001
0010
0001
0000
,
0100
0010
0100
0001
,
1010
0001
0001
0001
,
0001
0000
0001
0000
0010
0001
0100
0000
,
0001
1001
0000
0000
,
0000
0000
0000
0000
,
1010
0100
0010
0001
,
1000
0010
1000
0001
,
1000
0010
1000
0100
,
0010
0001
0100
1000
,
0001
0010
1000
0001
,
0010
1000
0010
0001
,
1000
0010
1000
0100
,
1000
0001
0010
1000
,
0001
0010
1000
0001
,
0010
1000
0010
0001
,
1000
0010
1000
0100
,
1000
0001
0010
1000
,
0001
0010
1000
0001
,
0010
0100
1000
0001
,
1000
0010
1000
0100
,
0010
0001
0010
0001
,
1000
0010
1000
0001
,
1000
0200
0000
0000
,
0300
0010
1000
0001
,
1000
0010
0000
0000
,
1000
0010
0001
1000
,
0001
0010
1000
0001
,
1000
0020
0000
1000
,
0030
0000
0100
0000
0000
0000
0000
1010
,
0000
0000
0011
0000
0000
0000
0000
1100
,
0000
0000
0000
0000
,
1010
0100
0010
0001
,
0010
0100
1000
0101
,
0000
0010
1000
0100
,
0010
0001
0010
1100
,
0001
0010
1000
0001
,
1000
0010
1000
0001
,
1000
0010
1000
0001
,
0010
0100
0001
1000
,
0001
0010
0001
1000
,
0001
0010
1000
0101
,
1000
0010
1000
0001
,
1000
0000
0100
1000
,
0001
0010
0100
1000
,
0001
0000
0100
0001
,
1000
0010
1000
0000
,
1000
0010
0100
1000
,
0001
0010
0100
1000
,
0100
0010
0100
1001
,
0000
0010
1000
0100
,
1000
0010
0001
1100
,
0020
0000
0000
0000
,
0030
0000
0000
0000
;

//---------------dance-single - ----------------
#NOTES:
     dance-single:
     :
     Medium:
     5:
     0.250,0.306,0.169,0.015,0:
0000
0000
0000
0000
,
1100
0000
0001
0000
,
1000
0000
0001
0000
,
1000
0000
0001
1000
,
0001
1000
0001
0000
,
1001
0010
0000
0100
,
0000
0010
0100
0010
,
1100
0010
0000
0001
,
0000
1000
0010
0000
,
0101
0010
0000
1000
,
0000
0001
0100
1010
,
0000
0100
0001
0000
,
1000
0010
1000
0001
,
0000
0010
0000
0100
,
0000
0001
0000
1000
,
0000
0010
0000
0100
,
0000
0010
0000
0001
,
0000
0010
0000
0100
,
0000
0001
0000
1000
,
0000
0010
0000
0100
,
0000
0010
0000
0001
,
0000
0010
0000
0100
,
0000
0001
0000
1000
,
0000
0010
0000
0001
,
0000
1000
0000
0001
,
0000
0010
0000
0100
,
0000
0001
0000
1000
,
0000
0010
0000
0001
,
0000
0000
0000
0000
,
0000
0010
0000
0100
,
0000
0001
0000
1000
,
0000
0010
0000
0001
,
0000
0010
0000
0100
,
0000
0001
0000
0010
,
0000
0100
0000
0001
,
0000
2000
0000
0010
,
0000
3100
0000
0000
,
0011
0100
0000
0001
,
0000
0010
0000
1100
,
0000
0010
0000
0100
,
0000
0010
0000
0101
,
0000
0010
0000
0100
,
0000
0010
0000
1001
,
0000
0010
0000
0100
,
0000
0010
0000
0101
,
0000
0010
0000
0001
,
0000
0100
0000
1010
,
0000
0001
0000
0100
,
0000
0010
0000
0001
,
0000
0010
0000
0100
,
0000
0001
0000
1000
,
0000
0010
0000
0100
,
0000
0010
0001
0000
,
1010
0001
0001
0001
,
0001
0000
0001
0000
0010
0001
0100
0000
,
0001
1001
0000
0000
,
0000
0000
0000
0000
,
1010
0100
0000
0001
,
0000
0010
0000
0001
,
0000
0010
0000
0100
,
0000
0001
0000
1000
,
0000
0010
0000
0001
,
0000
1000
0000
0001
,
0000
0010
0000
0100
,
0000
0001
0000
1000
,
0000
0010
0000
0001
,
0000
1000
0000
0001
,
0000
0010
0000
0100
,
0000
0001
0000
1000
,
0000
0010
0000
0001
,
0000
0100
0000
0001
,
0000
0010
0000
0100
,
0000
0000
0000
0000
,
0000
0010
0000
0001
,
0000
0100
0000
0001
,
0000
0010
0000
0001
,
0000
0010
0000
1000
,
0000
0010
0000
1000
,
0000
0010
0000
0001
,
0000
0010
0000
0001
,
0000
0000
0100
0000
0000
0000
0000
1010
,
0000
0000
0011
0000
0000
0000
0000
1100
,
0000
0000
0000
0000
,
1010
0100
0000
0001
,
0000
0100
0000
0101
,
0000
0010
0000
0100
,
0000
0001
0000
1100
,
0000
0010
0000
0001
,
0000
0010
0000
0001
,
0000
0010
0000
0001
,
0000
0100
0000
1000
,
0000
0010
0000
1000
,
0000
0010
0000
0101
,
0000
0010
0000
0001
,
0000
0010
0000
1000
,
0000
0010
0000
1000
,
0000
0100
0000
0001
,
0000
0010
0000
0001
,
0000
0010
0000
1000
,
0000
0010
0000
1000
,
0000
0010
0000
1001
,
0000
0010
0000
0100
,
0000
0010
0000
1100
,
0020
0000
0000
0000
,
0030
0000
0000
0000
;

//---------------dance-single - ----------------
#NOTES:
     dance-single:
     :
     Challenge:
     8:
     0.488,0.646,0.191,0.118,0:
0000
0000
0000
0000
,
0000
1000
0001
1000
,
0001
1000
0001
1000
,
0010
0100
0010
0100
,
0010
0100
0010
0100
0010
0100
0010
0100
,
0010
0110
0110
0110
,
0101
0000
0101
0000
0001
1000
0001
1000
,
0000
0110
0110
0110
,
0101
0000
0101
0000
0001
1000
0001
1000
,
0000
0110
0110
0101
,
1100
0000
1100
0000
0010
0100
0010
1000
,
0000
0000
1000
0100
0000
0100
0000
1000
,
0000
0000
0010
0100
0000
0010
0000
0000
,
0100
0000
0001
0000
1000
0000
0100
1000
,
0100
0000
1000
0000
0010
0000
0100
0010
,
0100
0000
0001
0000
1000
0000
0001
1000
,
0001
0000
1000
0000
0010
0000
0100
0010
,
1000
0000
0100
0000
0010
0000
0100
0010
,
0001
0000
0100
0000
0010
0000
0100
0010
,
1000
0000
0100
0000
0010
0000
0100
1000
,
0010
0000
1000
0000
0010
0000
0100
0010
,
0100
0000
0001
0000
0010
0000
0001
0010
,
0001
0000
0010
0000
0100
0000
0010
0001
,
0100
0000
0001
0000
0100
0000
0010
0100
,
0001
0000
1000
0000
0100
0000
1000
0100
,
0010
0000
0100
0000
1000
0000
0001
0100
,
0001
0000
0001
1000
0000
0100
0000
0010
,
0000
0000
0001
1000
0100
0000
1000
0100
,
1000
0010
1000
0010
,
0100
0010
0000
1000
0000
0001
0100
0010
,
0000
0101
0000
0001
,
0001
0000
1000
0000
0001
0100
0000
0010
,
0000
0200
0000
0000
0000
0000
0300
0000
,
0001
1000
0000
0001
0000
0000
0100
0000
,
0010
0100
0000
0010
0000
0000
1000
0001
,
0000
0100
0000
0000
0010
0000
0000
1000
,
0000
0001
0100
0000
0010
1000
0100
0010
,
0000
0000
0100
1000
0000
0010
0000
1000
,
0000
0000
0010
0100
0000
0020
0000
0000
,
0000
0030
1000
0001
0000
0100
0000
0010
,
0000
0000
1000
0100
0000
2000
0000
0010
,
0000
3000
0010
0100
0000
0010
0000
0020
,
0000
0000
0030
1000
0001
0000
0100
0000
,
0010
1000
0000
0100
0000
0010
0000
0100
,
0000
0000
1000
0010
0000
0100
0000
0010
,
0000
0000
1000
0001
0000
0100
0000
0010
,
0000
0000
0100
0001
0000
1000
0000
0100
,
0000
1000
0010
0100
,
0010
1000
0001
0100
,
0010
0100
0001
1000
,
0001
0000
0100
0000
0001
0100
0000
0010
,
0000
0100
0000
0001
0000
0000
0000
0000
,
0100
0001
0000
1000
0000
0000
0001
0200
,
0000
0300
1001
0000
1001
0000
0110
0000
,
0101
0000
0101
0000
1000
0100
1000
0010
,
0000
2000
0000
0000
0000
0000
3000
0000
,
0010
0100
0010
1000
,
0010
0100
0010
0010
,
1000
0000
0001
0000
0100
0010
0000
0100
,
0000
0001
1000
0001
,
0001
1000
0000
0100
0000
1000
0000
0010
,
0000
0100
0010
1000
,
0001
0100
0000
0010
0000
0000
0100
0001
,
0000
1000
0001
0100
,
0001
0100
0000
0010
0000
0100
0000
0001
,
0000
1000
0001
0010
,
0001
0010
0001
0100
,
0010
1000
0100
0010
,
0100
1000
0010
1000
,
0001
0100
0010
0100
,
0001
1000
0000
0100
0000
0010
0000
0100
,
0000
1000
0001
0100
,
0010
0100
0000
0001
0000
0000
1000
0000
,
0001
0100
0000
0010
0000
0100
0001
1000
,
0000
0001
0100
0010
,
0100
0000
0010
0000
1000
0100
0000
0010
,
0000
0220
0000
0000
0000
0330
0000
0001
,
0010
0001
0000
0000
1000
0000
0010
0000
,
0010
1000
0000
0010
0000
0000
1000
0010
,
0000
1000
0010
0000
0100
0000
0010
0000
,
1000
0100
0010
0001
0010
0100
1000
2020
,
0000
3030
2002
0000
0000
0000
3003
2200
,
0000
0000
0000
0000
0000
3300
0000
0010
,
0000
0000
1000
0001
0000
0100
0000
0010
,
0000
0000
0100
0001
0000
1000
0000
0001
,
0000
0000
0001
1000
0000
0010
0000
1000
,
0000
0000
0100
0010
0000
0100
0000
0010
,
0000
0000
0001
0100
0000
0010
0000
0100
,
0000
0000
0000
0010
1000
0000
0010
0000
,
1000
0010
0000
0100
0000
0001
0000
0010
,
0000
0000
0100
0010
0000
0001
0000
0100
,
0000
0000
0010
0100
0000
0001
0000
0010
,
0000
0000
0100
0000
0010
0001
0000
0010
,
0000
0001
0100
0010
,
0100
0001
1000
0100
,
0010
0100
0010
0001
,
0001
0000
0000
0000
0100
0010
0000
0100
,
0000
0010
0000
1000
0000
0000
0000
0000
,
0001
0100
0000
0010
0000
0000
0100
0001
,
0000
0000
1000
0001
0000
0100
0000
0010
,
0000
0000
0100
0001
0000
1000
0000
0001
,
0000
0000
0001
1000
0000
0001
0000
0100
,
0000
0000
0010
0100
0000
0001
0000
2002
,
0000
0000
3003
0000
;
