#TITLE:I Am;
#ARTIST:Ginny Owens;
#BANNER:I Am - Ginny Owens.PNG;
#BACKGROUND:I Am - Ginny Owens-bg.PNG;
#LYRICSPATH:I Am - Ginny Owens.lrc;
#CDTITLE:.\CDTITLES\DP2GIN.png;
#MUSIC:I Am - Ginny Owens.mp3;
#OFFSET:-2.470;
#SAMPLESTART:48.4;
#SAMPLELENGTH:17.0;
#BPMS:0=110.19;
#BGCHANGES:12=BG Image Changes\I Am - Ginny Owens-bg-01.PNG=1=1=0=1,28=BG Image Changes\I Am - Ginny Owens-bg-02.PNG=1=1=0=1,44=BG Image Changes\I Am - Ginny Owens-bg-03.PNG=1=1=0=1,60=BG Image Changes\I Am - Ginny Owens-bg-04.PNG=1=1=0=1,74=BG Image Changes\I Am - Ginny Owens-bg-05.PNG=1=1=0=1,83=BG Image Changes\I Am - Ginny Owens-bg-06.PNG=1=1=0=1,91=BG Image Changes\I Am - Ginny Owens-bg-07.PNG=1=1=0=1,99=BG Image Changes\I Am - Ginny Owens-bg-08.PNG=1=1=0=1,107=BG Image Changes\I Am - Ginny Owens-bg-09.PNG=1=1=0=1,120=BG Image Changes\I Am - Ginny Owens-bg-10.PNG=1=0=0=1,129=BG Image Changes\I Am - Ginny Owens-bg-11.PNG=1=1=0=1,137=BG Image Changes\I Am - Ginny Owens-bg-12.PNG=1=1=0=1,145=BG Image Changes\I Am - Ginny Owens-bg-13.PNG=1=1=0=1,158.5=BG Image Changes\I Am - Ginny Owens-bg-14.PNG=1=1=0=1,167=BG Image Changes\I Am - Ginny Owens-bg-15.PNG=1=1=0=1,175=BG Image Changes\I Am - Ginny Owens-bg-16.PNG=1=1=0=1,188=BG Image Changes\I Am - Ginny Owens-bg-17.PNG=1=1=0=1,197=BG Image Changes\I Am - Ginny Owens-bg-18.PNG=1=1=0=1,205=BG Image Changes\I Am - Ginny Owens-bg-19.PNG=1=1=0=1,999=-=1=0=0=0;

//---------------dance-single - ----------------
#NOTES:
     dance-single:
     :
     Easy:
     1:
     0.127,0.134,0.008,0.017,0.000:
0000
0000
0010
0000
,
1000
0000
0000
0001
0000
0000
0000
1000
,
0000
0000
0001
0000
,
1000
0000
0000
0010
0000
0000
0000
0001
,
0000
0000
0010
0000
,
1000
0000
0000
0100
0000
0000
0000
0001
,
0000
0000
0010
0000
,
1000
0000
0000
0100
0000
0000
0000
0001
,
0000
0000
1000
0000
,
0010
0000
0001
0000
,
1000
0000
0010
0000
,
1001
0000
0100
0000
,
0010
0000
0100
0000
,
1000
0000
0010
0000
,
0001
0000
1000
0000
,
0010
0000
0001
0000
,
1000
0000
0100
0000
,
0001
0000
1000
0000
,
0010
0000
0100
0000
,
1000
0000
0020
0000
,
0000
0030
1000
0000
,
0010
0000
0100
0000
,
1000
0000
0010
0000
,
0001
0000
1000
0000
,
0010
0000
0001
0000
,
1000
0000
0100
0000
,
0001
0000
0010
0000
,
1000
0000
0100
0000
,
0001
0000
0010
0000
,
1000
0000
0100
0000
,
0001
0000
1000
0000
,
0010
0000
0001
0000
,
1000
0000
0001
0000
,
0010
0000
0010
0000
,
0001
0000
0001
0000
,
0010
0000
0010
0000
,
1000
0000
1000
0000
,
0010
0000
1000
0000
,
0001
0000
2000
0000
,
0000
0000
0000
0000
0000
3000
0000
0000
,
0001
0000
0010
0000
,
0001
0000
0100
0000
,
1000
0000
0010
0000
,
0001
0000
0100
0000
,
1000
0000
0010
0000
,
0001
0000
1000
0000
,
0010
0000
0001
0000
,
1000
0000
0100
0000
,
0010
0000
1000
0000
,
0001
0000
1000
0000
,
0010
0000
1000
0000
,
0001
0000
0010
0000
,
1000
0000
0001
0000
,
0010
0000
0100
0000
,
1000
0000
0000
0000
;

//---------------dance-single - ----------------
#NOTES:
     dance-single:
     :
     Hard:
     6:
     0.362,0.336,0.017,0.050,0.033:
0000
0000
0000
0000
0100
0001
0010
0000
,
1000
0010
0000
0001
0000
0000
0000
1000
,
0000
0010
1000
0000
0001
0100
0000
0000
,
1000
0001
0000
0010
0000
0000
1000
0002
,
0000
0003
0000
0010
0100
0010
0100
0000
,
1000
0001
0000
0100
0000
0001
1000
0001
,
0010
0000
1000
0000
0010
1000
0001
0010
,
1000
0001
0000
1000
0100
0000
0010
0001
,
0000
0000
0010
0000
0000
0000
0000
0000
1000
0010
0000
0001
0000
0000
0010
0000
,
0000
0000
0000
0000
0000
0000
0000
0000
0001
1000
0000
0010
0000
0000
0001
0000
,
1000
0000
0001
0010
0000
0000
0000
0000
,
1001
0010
0101
1000
,
0010
0000
0001
1000
0100
1000
0001
0010
,
1000
0000
0001
1000
0010
0001
1000
0010
,
0001
1000
0010
0000
1000
0010
0001
1000
,
0010
0000
0100
1000
0001
0000
0010
0001
,
1000
0001
0010
0000
0100
1000
0010
1000
,
0001
0000
0010
0000
1000
0010
0001
1000
,
0010
0001
1000
0000
0100
1000
0001
0010
,
1000
0010
0001
0000
0020
0000
1000
0000
,
1000
0000
0000
0000
0000
0030
0000
0000
1000
0000
0000
0000
0001
0000
0000
0000
,
0010
0000
0001
1000
0100
1000
0001
0010
,
1000
0000
0000
0100
0000
0000
0010
0000
0000
0000
0000
0000
0100
0000
0000
0000
,
0001
1000
0010
0001
1000
0001
1000
0001
,
0010
0000
0000
1000
0000
0000
0001
0000
0000
0000
0000
0000
0010
0000
0001
0000
,
1000
0001
0010
0100
0010
0100
0010
0100
,
0001
1000
0001
1000
0000
0010
0000
0001
,
1000
0010
0000
0001
0100
1000
0000
0010
,
0000
0001
2000
0000
0010
0000
0001
0000
,
0000
3000
0000
0000
0002
0000
0000
0000
0100
0003
0010
0000
1000
0000
0010
0000
,
0001
0000
0010
0000
1000
0000
0001
1000
,
0010
0000
1000
0010
0001
1000
0010
0001
,
1000
0000
0100
1000
0001
0000
0100
0001
,
0010
1000
0100
0001
0010
0001
0100
0010
,
0001
0000
1000
0010
0001
0010
1000
0001
,
0010
0000
0100
0000
0010
1000
0001
0010
,
1000
0100
0001
0000
1000
0010
0001
1000
,
0010
0001
0100
0000
1000
0001
0000
0010
,
0000
0001
0010
0001
2000
0000
3002
0000
,
0000
0000
0000
0000
0000
0000
0000
0000
0000
0003
0000
0000
0010
0000
0000
0000
,
0001
0000
1000
0001
0010
0001
1000
0010
,
0001
0000
0000
1000
0000
0000
0010
0000
0100
0000
0000
0000
0010
0000
0000
0000
,
1000
0010
0001
1000
0010
0001
1000
0100
,
0001
0000
0000
0010
0000
0000
0100
0000
0000
0000
0000
0000
0001
0000
0010
0000
,
1000
0000
0100
1000
0010
0000
1000
0010
,
0001
1000
0010
0000
1000
0000
0100
0000
,
0010
0000
0100
1000
0001
0000
0010
0000
,
1000
0000
0001
0000
0100
1000
0001
1000
,
0010
0001
1000
0010
,
0001
0000
0100
0000
1000
0001
0100
0000
,
0010
0000
0001
0000
1000
0000
0010
1000
,
0001
0000
0100
0000
0010
0001
0100
0000
,
1000
0000
0010
0000
0001
0010
0100
0000
,
0010
0000
0001
0000
0100
1000
0001
0000
,
1000
0001
0100
0000
0000
0000
0000
0000
;

//---------------dance-single - ----------------
#NOTES:
     dance-single:
     :
     Medium:
     4:
     0.248,0.202,0.017,0.017,0.008:
0000
0000
0100
0010
,
1000
0010
0000
0001
0000
0000
0000
1000
,
0000
0000
0010
0000
0001
0100
0000
0000
,
1000
0001
0000
0010
0000
0000
1000
0001
,
0000
0000
0000
0010
0100
0000
0000
0000
,
1000
0001
0000
0100
0000
0000
1000
0001
,
0000
1000
0010
0001
,
1000
0001
0000
0000
0100
0000
0010
0001
,
0000
0000
0000
0000
0000
0000
0000
0000
1000
0000
0000
0001
0000
0000
0010
0000
,
0000
0000
0000
0000
0000
0000
0000
0000
0001
0000
0000
0010
0000
0000
0001
0000
,
1000
0000
0001
0010
0000
0000
0000
0000
,
1001
0000
0110
1000
,
0010
0001
0100
0001
,
1000
0001
0010
1000
,
0001
0010
1000
0001
,
0010
0100
0001
0010
,
1000
0010
0100
0010
,
0001
0010
1000
0001
,
0010
1000
0100
0001
,
1000
0001
0020
0000
,
1000
0000
0000
0030
1000
0000
0001
0000
,
0010
0001
0100
0001
,
1000
0100
0010
0100
,
0001
0010
1000
0001
,
0010
1000
0001
0010
,
1000
0010
0100
0010
,
0001
1000
0010
0001
,
1000
0001
0100
0010
,
0001
1000
0010
0001
,
1000
0010
0100
0010
,
0001
0010
1000
0001
,
0010
1000
0001
0010
,
1000
0100
0001
0100
,
0010
0100
0010
0100
,
0001
1000
0001
1000
,
0010
0100
0010
0001
,
1000
0001
1000
0001
,
0010
0100
1000
0010
,
0001
0010
2000
0000
,
0001
0000
0000
0000
0000
3000
0010
0000
,
0001
1000
0010
1000
,
0001
0010
0100
0010
,
1000
0001
0010
1000
,
0001
0010
0100
0001
,
1000
0100
0010
1000
,
0001
0010
1000
0100
,
0010
0100
0001
0010
,
1000
0001
0100
0001
,
0010
0001
1000
0010
,
0001
0100
1000
0100
,
0010
0001
1000
0010
,
0001
0100
0010
0100
,
1000
0010
0001
0100
,
0010
0001
0100
0001
,
1000
0100
0000
0000
;

//---------------dance-single - ----------------
#NOTES:
     dance-single:
     :
     Challenge:
     6:
     0.361,0.404,0.182,0.107,0.074:
0000
0000
0000
0000
,
1000
0001
0000
0001
0000
0000
0000
1000
,
0000
1000
0010
0000
0100
0000
0010
0000
,
1000
0001
0000
0001
0000
0000
0000
0100
,
0000
0010
0100
0000
0001
0000
1000
0000
,
0001
0100
0000
0010
0000
0000
0000
0100
,
0000
0001
1000
0000
0100
0010
0100
0000
,
1000
0001
0000
0100
0000
0000
0000
0010
,
0000
0100
0001
1000
0001
0100
0010
0000
,
0100
0001
0000
0000
1000
0001
0100
0010
,
1010
0000
0000
0110
0000
0000
0101
0000
0000
0000
0000
0000
1000
0000
0000
0000
,
1001
0000
0100
0010
0100
0000
0001
1000
,
0001
0000
0100
0000
0010
0100
0001
1000
,
0001
0000
0100
0000
0010
1000
0100
0010
,
0100
1000
0000
1000
0010
1000
0100
0010
,
0100
0000
0010
0000
0001
0100
0001
0100
,
0010
0100
0010
1000
0010
1000
0010
0100
,
0010
0000
1000
0000
0010
0100
0001
0010
,
0100
0000
0010
0001
0000
0000
0000
0000
0000
0000
0100
0000
0010
0000
0100
0000
,
0000
0001
1000
0002
0000
0000
0000
0000
,
0200
0000
0000
0303
,
0100
0000
0000
0000
0010
0000
1000
0000
0100
0010
0000
0100
0000
1000
0000
0000
,
1010
0000
0000
0110
0000
0000
0101
0000
0000
0000
0000
0000
0100
0000
0000
0000
,
0001
0000
1000
0000
0001
0000
0100
0010
0000
0000
1000
0000
0001
0000
1000
0000
,
1100
0000
0000
0101
0000
0000
0110
0000
0000
0000
0000
0000
0100
0000
0000
0000
,
1000
0000
0100
0000
1000
0000
0010
1000
0000
0000
0010
0000
0100
0000
0010
0000
,
1000
0000
0100
0000
0110
0000
0000
1100
0000
0000
1001
0000
0000
0000
0010
0000
,
0100
0000
0010
1000
0100
0010
0100
1000
,
0000
0002
0200
0000
0000
0000
0000
0000
,
0000
0000
0000
0303
,
1000
0001
0000
1000
0000
0000
0000
0010
,
0000
0100
0010
0000
1000
0000
0001
0000
,
1000
0010
0000
0100
0000
0000
0000
0010
,
0000
1000
0001
0000
0010
0100
0010
0000
,
0001
1000
0000
0010
0000
0000
0000
0100
,
0000
0010
1000
0001
1000
0010
0100
0000
,
0020
0000
0030
0000
1000
1000
0010
0100
,
0010
0100
0001
0000
0001
0000
0001
0000
,
1000
0001
1000
0002
2000
0000
0000
0003
,
0010
0001
0010
3001
,
0010
0000
0000
0000
0100
0000
0001
0000
0010
0100
0000
0010
0000
0001
0000
0000
,
0101
0000
0000
0110
0000
0000
1010
0000
0000
0000
0000
0000
0010
0000
0000
0000
,
1000
0000
0001
0000
1000
0000
0010
0100
0000
0000
0001
0000
1000
0000
0001
0000
,
0011
0000
0000
1010
0000
0000
0110
0000
0000
0000
0000
0000
0100
0000
0000
0000
,
0001
0000
0010
0000
0001
0000
0100
0001
0000
0000
0100
0000
0010
0000
0100
0000
,
0001
0000
0010
0000
0110
0000
0000
0011
0000
0000
1001
0000
0000
0000
0100
0000
,
0010
0000
0100
0001
0010
0100
0010
0001
,
0000
0000
0000
0000
0200
0010
0010
0310
,
0000
0010
0000
1000
0000
0001
0000
0100
,
0000
0000
0010
0000
0020
1000
1000
1030
,
0000
0001
0000
0100
0000
0010
0100
0000
,
0100
0000
0100
0000
0002
0010
0010
0013
,
0000
0010
0000
0010
0000
0010
0100
0000
,
0100
0000
0100
0000
0200
1000
1000
1300
,
0000
2000
0002
3003
0000
0000
0000
0000
;
