#TITLE:Hold On;
#ARTIST:Stellar Kart;
#BANNER:Hold On - Stellar Kart.PNG;
#BACKGROUND:Hold On - Stellar Kart-bg.PNG;
#LYRICSPATH:Hold On - Stellar Kart.lrc;
#CDTITLE:.\CDTITLES\DP2KART.png;
#MUSIC:Hold On - Stellar Kart.mp3;
#OFFSET:-1.919;
#SAMPLESTART:44.1;
#SAMPLELENGTH:12;
#BPMS:0=87;
#BGCHANGES:-2.2=Hold On - Stellar Kart.AVI=0.89=1=1=0,999=-=1=0=0=0;

//---------------dance-single - ----------------
#NOTES:
     dance-single:
     :
     Easy:
     2:
     0.160,0.176,0.054,0.000,0.000:
0000
0000
0000
0000
,
0010
0001
1000
0000
,
1000
0001
1000
0000
,
0001
1000
0001
0000
,
0010
0001
0010
0000
,
0010
1000
0010
0000
,
0001
1000
0001
0000
,
1000
0001
1000
0000
,
1000
0010
0100
0000
,
0001
0010
0001
0000
,
0001
1000
0001
0000
,
1000
0001
1000
0000
,
0010
0001
0010
0000
,
0010
1000
0010
0000
,
0010
0001
0010
0000
,
0010
1000
0010
0000
,
0001
1000
0001
0000
,
1000
0001
1001
0010
,
0001
1100
0001
0000
,
0010
0010
0010
0000
,
1000
1000
1000
0000
,
0001
0001
0001
0000
,
1000
0010
0001
0000
,
0001
0010
1000
0000
,
1000
0010
0001
0000
,
0001
0010
0100
0000
,
1000
0010
0100
0000
,
0001
1000
0100
0000
,
0010
0001
1000
0000
,
1000
0010
0001
0000
,
0010
1000
0001
0000
,
0001
1000
0100
0000
,
0010
1000
0010
0000
,
0010
0001
1010
0100
,
1000
0011
1000
0000
,
0001
1000
0001
0000
,
0010
1001
0010
0000
,
0010
0000
0001
0110
1000
0000
0000
0000
,
0010
1000
0100
0000
,
0010
0001
0100
0000
,
1000
0011
1000
0000
,
0010
1000
0010
0000
,
0010
0001
0010
0000
,
1000
0001
1000
0000
,
0010
1000
0010
0000
,
0010
0001
0100
0000
;

//---------------dance-single - ----------------
#NOTES:
     dance-single:
     :
     Hard:
     6:
     0.303,0.301,0.054,0.046,0.000:
0000
0000
0000
0000
,
0001
1000
0010
1000
0100
0001
1000
0001
,
1000
0001
0010
1000
0001
0010
1000
0001
,
0010
0001
0010
0001
0100
1000
0100
1000
,
0100
1000
0001
1000
0001
1000
0001
0010
,
1000
0000
0000
0010
0001
0000
2000
0000
,
0010
0000
0000
3000
0001
1000
0010
0001
,
1000
0000
0001
0010
1000
0100
0001
1000
,
0001
1000
0010
0001
0100
0001
1000
0010
,
0001
1000
0010
1000
0001
0100
2000
0000
,
0010
0000
3000
0000
0001
1000
0010
0001
,
1000
0010
0001
0100
1000
0010
0001
1000
,
0010
1000
0001
0000
0010
0100
1000
0001
,
0010
0001
1000
0001
0010
0000
0001
1000
,
0010
1000
0001
1000
0020
0000
0000
0000
,
0030
0000
1000
0001
0010
0001
1000
0010
,
0001
0100
1000
0010
0002
0000
1000
0000
,
0000
0003
0010
0000
1001
0000
0010
0000
,
0001
0000
1100
0010
0001
0100
1000
0001
,
0020
1000
0000
1000
,
0000
1000
0000
0030
,
0001
1000
0001
1000
0001
0000
0100
0000
,
1000
0000
0010
0000
0001
0000
1000
0010
,
0001
1000
0010
0000
1000
0010
0001
0100
,
1000
0000
0010
1000
0001
0000
1000
0001
,
0001
0010
0100
0001
,
1000
0001
0010
0000
0100
1000
0010
1000
,
0001
0000
1000
0001
0100
1000
0001
0000
,
0010
0001
1000
0001
,
1000
0001
0010
1000
0001
1000
1000
0001
,
0010
0001
1000
0010
0001
0000
1000
0000
,
0001
0000
1000
0001
0100
0010
0001
1000
,
0010
1000
0010
1000
,
0010
1000
0001
0100
1010
0000
0100
0000
,
1000
0011
1000
0100
,
0002
1000
0000
1000
,
0003
0000
1001
0000
0010
0000
1000
0001
,
0010
1000
0001
0110
1000
0000
0001
0000
,
0010
0001
1000
0000
0100
0000
0001
1000
,
0010
1000
0001
0010
0100
1000
0001
0010
,
1000
0100
0011
0000
1000
0000
0001
1000
,
0010
0001
1000
0001
0010
0100
1000
0000
,
0010
0000
0001
0000
0010
0001
0100
0001
,
1000
0000
0001
0010
1000
0000
0001
1000
,
0010
1000
0010
1000
,
0010
0001
0100
0001
;

//---------------dance-single - ----------------
#NOTES:
     dance-single:
     :
     Medium:
     3:
     0.200,0.195,0.054,0.046,0.000:
0000
0000
0000
0000
,
0010
0001
1000
0001
,
1000
0001
1000
0010
,
0001
1000
0001
1000
,
0010
0001
0010
1000
,
0010
1000
0010
2000
,
0000
0000
3000
0000
0001
0000
0010
0001
,
1000
0001
1000
0001
,
1000
0010
0100
1000
,
0001
0010
0001
2000
,
0000
3000
0001
0010
,
1000
0001
1000
0001
,
0010
0001
0010
1000
,
0010
1000
0010
0001
,
0010
0001
0020
0000
,
0030
1000
0010
1000
,
0001
1000
0002
0000
,
0003
0001
1001
0010
,
0001
1100
0001
1000
,
0020
1000
0000
1000
,
0000
1000
0000
0030
,
0001
0001
0001
0100
,
1000
0010
0001
1000
,
0001
0010
1000
0001
,
1000
0010
0001
1000
,
0001
0010
0100
0001
,
1000
0010
0100
0010
,
0001
1000
0100
0001
,
0010
0001
1000
0001
,
1000
0010
0001
1000
,
0010
1000
0001
1000
,
0001
1000
0100
0001
,
0010
1000
0010
1000
,
0010
0001
1010
0100
,
1000
0011
1000
0100
,
0002
1000
0000
1000
,
0003
1001
0010
1000
,
0010
0000
0001
0110
1000
0000
0001
0000
,
0010
1000
0100
0001
,
0010
0001
0100
0001
,
1000
0011
1000
0001
,
0010
1000
0010
1000
,
0010
0001
0010
0100
,
1000
0001
1000
0001
,
0010
1000
0010
1000
,
0010
0001
0100
0001
;

//---------------dance-single - ----------------
#NOTES:
     dance-single:
     :
     Challenge:
     7:
     0.388,0.428,0.279,0.046,0.015:
0000
0000
0000
0000
,
1001
1000
0010
0010
1000
1000
0001
0001
,
0100
0100
0001
0001
1000
0001
1001
1000
,
0010
0010
0100
0100
0010
0010
1000
0001
,
0100
0010
0100
0001
1000
0001
1001
0010
,
0110
0000
0100
0000
0001
1000
0100
0010
,
0010
0000
0100
1000
0001
0000
0100
0010
,
0000
0100
0001
1000
0001
0100
0010
0010
,
0100
0100
0001
0001
1000
0100
0010
0100
,
1000
1000
0001
0001
0100
0010
0100
0001
,
1000
0100
1000
0001
0100
0001
1000
0010
,
1000
0001
0010
0001
1000
0001
1000
0010
,
0100
0010
0100
0010
1000
0001
1000
0001
,
0011
0000
0001
1000
1000
0010
0100
0010
,
0110
0100
0001
1000
0001
0100
0010
0100
,
0101
0001
1000
0001
0100
0010
1000
0100
,
1100
1000
0010
0100
0010
1000
0001
1000
,
1001
1000
1010
0010
,
0110
0100
0101
0001
,
1001
1001
1001
1001
0110
0110
0110
0110
,
0101
0101
1010
1010
1100
1100
0011
0011
,
0011
0000
0001
1000
0010
0000
1000
0001
,
0100
0010
0100
0001
1000
0100
0010
0100
,
1000
0001
0100
0010
0100
0100
0001
0000
,
1000
0001
0010
0001
1000
0100
0010
0100
,
1000
0001
1000
0001
0010
0001
0010
0001
,
1000
0001
1000
0001
1000
0100
1000
0100
,
0010
0100
0010
0100
1000
0001
0100
0010
,
0100
0001
1000
0001
0100
0010
0100
0001
,
1001
0000
1000
0010
0100
0000
0100
0000
,
0001
0000
0001
1000
0000
1000
0001
0000
,
0010
0000
0010
0001
1000
0000
1000
0000
,
0001
0000
0001
0100
0000
0100
0010
0000
,
0100
0001
1001
2002
,
0000
3003
0010
0000
0220
0000
0000
0330
,
0100
0100
0001
0001
1000
1000
0001
0001
,
0100
0100
0010
0010
1000
0001
1000
0100
,
0010
0100
0010
0001
0000
0000
1001
0000
0000
0000
0100
0000
1000
0000
0010
0000
,
0100
0100
0010
0010
1000
0001
1000
0100
,
0010
0010
0100
0000
0010
0010
0001
0000
,
1000
1000
0100
0000
0010
0010
0100
0000
,
1000
0001
0100
0010
0000
0000
0110
0000
0000
0000
0001
0000
1000
0000
0000
0000
,
0100
0010
0100
1000
0001
1000
0100
0010
,
0010
0100
0010
0001
0100
0010
0010
0100
,
0001
1000
0001
1000
0100
0010
0100
1000
,
2002
0000
0000
0000
,
3003
0000
0000
0000
;
