#TITLE:Great and Mighty;
#ARTIST:Smokie Norful;
#BANNER:Great and Mighty - Smokie Norful.PNG;
#BACKGROUND:Great and Mighty - Smokie Norful-bg.PNG;
#LYRICSPATH:Great and Mighty - Smokie Norful.lrc;
#CDTITLE:.\CDTITLES\DP2SMOKIE.png;
#MUSIC:Great and Mighty - Smokie Norful.mp3;
#OFFSET:-3.319;
#SAMPLESTART:38.5;
#SAMPLELENGTH:12;
#BPMS:0=98.8;

//---------------dance-single - ----------------
#NOTES:
     dance-single:
     :
     Easy:
     2:
     0.139,0.119,0.089,0,0:
0000
0000
0000
0001
0100
0000
0000
0000
,
1000
0000
0000
0010
0100
0000
0000
0000
,
0001
0000
0000
1000
0010
0000
0000
0000
,
0001
0000
1000
0000
,
0010
0000
1000
0000
,
0110
0000
0001
0000
,
1000
0000
0010
1000
,
0001
0000
0010
0000
,
1000
0000
0100
0000
,
1001
0000
0100
0000
,
1000
0000
0001
1000
,
0010
0000
0001
0000
,
1000
0000
0001
0000
,
0110
0000
1000
0000
,
0001
0000
0100
0001
,
0010
0000
1000
0000
,
0001
0000
1000
0000
,
0110
0000
0001
0000
,
0010
0000
0001
0010
,
1000
0000
0001
0000
,
0010
0000
0100
0000
,
1001
0000
0100
0000
,
0010
0000
1000
0100
,
0001
0000
1000
0000
,
0010
0000
1000
0000
,
0101
0000
0100
0000
,
1000
0000
0001
1000
,
0010
0000
0100
0000
,
0001
0000
0010
0000
,
1001
0000
0001
0000
,
0010
0000
1000
0010
,
0001
0000
0100
0000
,
1000
0000
0001
0000
,
0110
0000
1000
0000
,
0001
0000
0100
0001
,
1000
0000
0001
0000
,
0010
0000
1000
0000
,
0101
0000
0100
0000
,
1000
0000
0001
1000
,
0010
0000
0000
0000
,
0001
0000
0000
0000
,
1010
0000
0000
0000
,
0010
0000
1000
0010
,
0001
0000
0010
0000
,
1000
0000
0100
0000
,
0110
0000
1000
0000
,
0001
0000
1000
0001
,
0010
0000
0001
0000
,
1000
0000
0010
0000
,
0101
0000
1000
0000
,
0010
0000
0001
0010
,
1000
0000
0010
0000
,
0001
0000
1000
0000
,
0110
0000
0001
0000
,
1000
0000
0100
1000
,
0001
0000
1000
0000
,
0010
0000
0001
0000
,
1000
0000
0010
0000
,
0001
0000
0000
0000
;

//---------------dance-single - ----------------
#NOTES:
     dance-single:
     :
     Hard:
     6:
     0.308,0.278,0.034,0.048,0.233:
0000
0000
0000
0001
0100
0000
0010
0000
,
0001
0000
0000
0000
0000
0000
0010
0000
0100
0000
0000
0100
0010
0000
0000
0000
,
0010
0000
0000
0000
0001
0000
1000
0000
0010
0000
0000
0100
0001
0000
0000
0000
,
0001
0000
0000
0000
0010
0000
0000
0000
1000
0000
0000
0001
0100
0000
0000
0000
,
0010
0000
0000
0000
1000
0000
0000
0000
1001
0000
0000
1000
0001
0000
0000
0000
,
0110
0000
0000
0000
1001
0000
0000
0000
0001
0000
0000
0010
0100
0000
0000
0000
,
1000
0000
0000
0000
0101
0000
0000
0000
0010
0000
0000
1000
0010
0000
0000
0000
,
0001
0000
0000
0000
1000
0000
0000
0000
0010
0000
0000
0001
0100
0000
0000
1000
,
0001
0000
0000
0000
0010
0000
0000
0000
0100
0000
0000
0010
0100
0000
0000
1000
,
0001
0000
0000
0000
0010
0000
0000
0000
0100
0000
0000
0001
0100
0000
0000
0000
,
1000
0000
0000
0000
0010
0000
0000
0000
0001
0000
0000
0001
1000
0000
0000
0000
,
0010
0000
0000
0000
0100
0000
0000
0000
0001
0000
0000
0010
0100
0000
0000
0000
,
1000
0000
0000
0000
0010
0000
0000
0000
0001
0000
0000
0010
1000
0000
0000
0010
,
0100
0000
0000
0000
0001
0000
0000
0000
1000
0000
0000
0010
0100
0000
0000
0000
,
0001
0000
0000
0010
1000
0000
0000
0001
0100
0000
0000
0001
1000
0000
0000
0000
,
0010
0000
0000
0000
0001
0000
0000
0000
1000
0000
0000
0010
0100
0000
0000
0000
,
0001
0000
0000
0000
0010
0000
0000
0000
1000
0000
0000
0001
1000
0000
0000
0100
,
0010
0000
0000
0000
1000
0000
0000
0000
0001
0000
0000
1000
0100
0000
0000
0000
,
0010
0000
0000
0000
1000
0000
0000
0000
0001
0000
0000
0010
0001
0000
0000
0000
,
1000
0000
0000
0000
0010
0000
0000
0000
0001
0000
0000
1000
0001
0000
0000
0000
,
0010
0000
0000
0000
0001
0000
0000
0000
0100
0000
0000
0010
0100
0000
0000
0001
,
1000
0000
0000
0000
0001
0000
0000
0000
0100
0000
0000
1000
0001
0000
0000
0000
,
0020
0000
0000
0000
1000
0000
0000
0000
1000
0030
0000
0000
0110
0000
0000
0000
,
0001
0000
0000
0000
0010
0000
0000
0000
1000
0000
0000
0001
1000
0000
0000
0010
,
0100
0000
0000
0000
0001
0000
0000
0000
1000
0000
0000
0010
1000
0000
0000
0100
,
0001
0000
0000
0000
0010
0000
0000
0000
0100
0000
0000
0001
0100
0000
0000
0000
,
1000
0000
0000
0010
1000
0000
0000
0000
0001
0000
0000
1000
0001
0000
0000
0000
,
0010
0000
0000
0000
0001
0000
0000
0000
0100
0000
0000
1000
0010
0000
0000
0000
,
0001
0000
0000
0000
1000
0000
0000
0000
0010
0000
0000
0100
0010
0000
0000
0001
,
1000
0000
0000
0000
0010
0000
0000
0000
0001
0000
0000
1000
0001
0000
0000
0000
,
0010
0000
0000
0000
0002
0000
0000
0000
1000
0000
0000
0010
1003
0000
0000
0000
,
1000
0000
0000
0000
0010
0000
0000
0000
0100
0000
0000
0001
0010
0000
0000
0000
,
1000
0200
0302
1000
,
0100
0000
0003
0000
0010
0000
0000
0000
1000
0000
0000
0010
0100
0000
0000
0000
,
0002
0000
1000
0000
1000
0003
0010
0000
,
1000
0000
0000
0000
0010
0000
0000
0000
0001
0000
0000
1000
0001
0000
0000
0000
,
0010
0000
0000
0000
0001
0000
0000
0000
1000
0000
0000
1000
0010
0000
0000
0100
,
0001
0000
0000
0000
1000
0000
0000
0000
0100
0000
0000
0001
0010
0000
0000
0000
,
2000
0000
0002
0000
0000
0000
3000
0003
,
0100
0001
1000
0000
0000
0000
0001
1000
,
0001
0000
1000
0000
0001
0000
0000
0000
0000
0000
0000
1000
0001
0000
0000
0000
,
0010
0000
1000
0010
1000
0000
0010
0000
1000
0000
0000
0010
1000
0000
0000
0000
,
0010
0000
0000
1000
0010
0000
0000
0000
1000
0000
0100
0001
0010
0000
0000
0000
,
0001
0000
0000
0000
1000
0000
0000
0000
0010
0000
0000
0001
0010
0000
0000
0000
,
1000
0000
0000
0000
0001
0000
0000
0000
0100
0000
0000
0001
1000
0000
0000
0100
,
0010
0000
0000
0000
0001
0000
0000
0000
1000
0000
0000
0010
0100
0000
0000
0000
,
0001
0000
0000
0000
0010
0000
0000
0000
1000
0000
0000
0001
1000
0000
0000
0000
,
0010
0000
0000
0000
1000
0000
0000
0000
0001
0000
0000
0010
0100
0000
0000
0000
,
1000
0000
0000
0000
0001
0000
0000
0000
0010
0000
0000
1000
0001
0000
0000
0100
,
0001
0000
0000
0000
0010
0000
0000
0000
1000
0000
0000
0001
1000
0000
0000
0000
,
0010
0000
0000
0000
1000
0000
0000
0000
0001
0000
0000
0010
0100
0000
0000
0000
,
1000
0000
0000
0000
0001
0000
0000
0000
0010
0000
0000
1000
0010
0000
0000
0000
,
0001
0000
0000
0000
0010
0000
0000
0000
1000
0000
0000
1000
0001
0000
0000
0100
,
0010
0000
0000
0000
1000
0000
0000
0000
0001
0000
0000
0010
0100
0000
0000
0000
,
1000
0000
0000
0000
0001
0000
0000
0000
0100
0000
0000
1000
0010
0000
0000
0000
,
0001
0000
0000
0000
0010
0000
0000
0000
1000
0000
0000
0001
1000
0000
0000
0000
,
0010
0000
0000
0000
1000
0000
0000
0000
0001
0000
0000
0010
0100
0000
0000
0000
,
1000
0001
0010
0100
,
0001
0000
0000
0000
;

//---------------dance-single - ----------------
#NOTES:
     dance-single:
     :
     Medium:
     4:
     0.216,0.238,0,0.048,0.038:
0000
0000
0000
0001
0100
0000
0010
0000
,
1000
0000
0000
0010
0100
0000
0100
0000
,
0010
0000
0001
1000
0001
0000
0010
0000
,
0100
0000
0001
0010
1000
0000
0010
0001
,
1000
0001
0100
0010
,
0010
0100
0010
1000
0001
0000
0001
0000
,
0010
0000
1000
0001
0010
1000
0010
0000
,
0001
0000
0010
0001
,
1000
0000
0000
0000
0000
0000
0000
0000
0100
0000
0000
0000
0010
0000
0000
1000
,
0001
0000
0100
0001
,
1000
0000
0001
1000
,
0010
0100
0001
0010
,
1000
0000
0000
0000
0010
0000
0000
0000
0001
0000
0000
0000
0100
0000
0000
0010
,
0100
0001
1000
0010
,
0001
1000
0100
0001
,
0010
0001
1000
0000
,
0001
0000
0000
0000
0010
0000
0000
0000
1000
0000
0000
0000
0000
0000
0000
0100
,
0010
1000
0001
1000
,
0010
0000
0001
0010
,
1000
0010
0001
1000
,
0010
0000
0000
0000
0001
0000
0000
0000
0100
0000
0000
0000
0010
0000
0000
0001
,
1000
0000
0100
1000
,
0020
0000
0000
0000
0000
0000
0000
0030
1000
0000
0000
0000
0100
0000
0000
0000
,
0001
0010
1000
0000
,
0010
0000
0000
0000
0001
0000
0000
0000
1000
0000
0000
0000
0010
0000
0000
0100
,
0001
0000
0100
0001
,
1000
0000
0001
1000
,
0010
0001
0100
0000
,
0001
0000
0000
0000
1000
0000
0000
0000
0010
0000
0000
0000
0100
0000
0000
0001
,
1000
0000
0001
1000
,
0010
0002
1000
0010
,
1000
0003
0000
0000
0000
0000
0000
0000
0100
0000
0000
0000
0001
0000
0000
0000
,
1000
0200
0302
0000
,
0103
0000
1000
0010
,
0002
0000
1000
0010
,
1000
0003
0000
0000
0000
0000
0000
0000
0001
0000
0000
0000
1000
0000
0000
0000
,
0010
0000
0000
0000
0001
0000
0000
0000
1000
0000
0000
0000
0010
0000
0000
0100
,
0001
0000
0100
0001
,
2000
0000
0000
0000
0002
0000
0000
0000
0000
0000
0000
0000
3000
0000
0000
0003
,
0100
0000
0000
0000
,
0001
0000
0000
0000
0000
0000
0000
0000
0000
0000
0000
0000
0000
0000
0000
0010
,
1000
0000
0000
0000
,
0010
0000
1000
0010
,
0001
0000
0010
0000
,
1000
0000
0000
0000
0001
0000
0000
0000
0100
0000
0000
0000
0000
0000
0000
0100
,
0010
0000
1000
0010
,
0001
0010
1000
0001
,
0010
1000
0001
0010
,
1000
0000
0000
0000
0001
0000
0000
0000
0010
0000
0000
0000
1000
0000
0000
0100
,
0001
0010
1000
0001
,
0010
1000
0001
0010
,
1000
0001
0010
1000
,
0001
0000
0000
0000
0010
0000
0000
0000
1000
0000
0000
0000
0001
0000
0000
0100
,
0010
1000
0001
0010
,
1000
0001
0100
1000
,
0001
0010
1000
0001
,
0010
1000
0001
0010
,
1000
0001
0010
0100
,
0001
0000
0000
0000
;

//---------------dance-single - ----------------
#NOTES:
     dance-single:
     :
     Challenge:
     6:
     0.346,0.357,0.185,0,0.010: // measure 1
0000
0000
0000
0000
,  // measure 2
1001
0000
0000
0000
,  // measure 3
0110
0000
0000
0000
,  // measure 4
1001
0000
0110
0000
,  // measure 5
0101
0000
1001
0000
,  // measure 6
1100
0000
0110
0000
,  // measure 7
1100
1001
0101
1001
,  // measure 8
0010
0000
1000
0100
0010
0100
1000
0100
,  // measure 9
1000
0001
0100
0010
0100
0000
0001
0001
,  // measure 10
1000
0000
0100
0010
0100
0001
0100
1000
,  // measure 11
0100
0010
0100
1000
0001
0000
0100
0100
,  // measure 12
0010
0000
0000
0010
0000
0000
0100
0000
0001
0000
1000
0000
0100
0000
0010
0000
,  // measure 13
0100
0000
0000
0100
0000
0000
1000
0000
0010
0000
0100
0000
0001
0000
0001
0000
,  // measure 14
1000
0000
0000
1000
0000
0000
0100
0000
0000
0000
0100
0000
0000
0000
0010
0000
,  // measure 15
0100
1000
0001
0001
1000
0100
0010
0100
,  // measure 16
1000
0000
1000
0001
1000
0100
0010
0100
,  // measure 17
0010
0000
0001
1000
0001
0000
0100
0000
,  // measure 18
0010
0000
0000
1000
0001
0100
0100
0001
,  // measure 19
1000
0000
0100
0000
1000
0010
1000
0001
,  // measure 20
0100
0000
0010
1000
0001
0100
0010
1000
,  // measure 21
0100
0000
0010
0100
1000
0000
0001
0000
,  // measure 22
0100
0000
0001
1000
0010
1000
0001
0100
,  // measure 23
0010
0000
1000
0001
,  // measure 24
1000
0000
0100
0000
0010
0100
1000
0001
,  // measure 25
1000
0010
0100
0100
0010
0000
1000
0000
,  // measure 26
0001
0000
0001
1000
0001
0100
0010
0100
,  // measure 27
0001
1000
0001
0100
,  // measure 28
0010
1000
1000
0001
1000
0100
1000
0000
,  // measure 29
0010
0010
1000
0001
0100
0010
0100
0000
,  // measure 30
0001
0001
1000
0100
0010
0100
1000
0001
,  // measure 31
1000
0100
0100
1000
0010
0100
0010
0010
,  // measure 32
1000
0000
0001
0100
0001
1000
0100
1000
,  // measure 33
0010
0000
1000
0001
0010
0000
0001
0000
,  // measure 34
1000
0000
0100
0010
0100
1000
0001
0100
,  // measure 35
0101
1000
1010
0010
,  // measure 36
0101
0000
0100
0001
1000
0100
0010
0100
,  // measure 37
1000
0000
0001
1000
0001
0000
0100
0000
,  // measure 38
0010
0000
0100
0001
1000
0001
0100
0010
,  // measure 39
1000
0000
0001
0000
1000
0100
0010
0001
,  // measure 40
0010
0001
0100
0010
,  // measure 41
1001
0010
0100
0001
,  // measure 42
1001
1000
0100
0010
,  // measure 43
0110
0100
1000
1000
,  // measure 44
1001
0000
1000
0000
0010
0100
0010
1000
,  // measure 45
1001
0000
0001
1000
0100
0010
0100
1000
,  // measure 46
1010
0000
1000
0010
0100
0001
0010
0100
,  // measure 47
0011
0000
0010
0001
0100
1000
0100
0001
,  // measure 48
0101
0000
0100
0010
1000
0100
1000
0010
,  // measure 49
0110
0000
0100
0001
1000
0100
0010
0100
,  // measure 50
1001
0000
1000
0010
0100
0010
1000
0001
,  // measure 51
0101
0000
0100
0000
0010
1000
0001
0100
,  // measure 52
0110
0000
0010
1000
0001
0100
0001
0100
,  // measure 53
0010
0000
0100
0001
1000
0000
0100
0000
,  // measure 54
0010
0000
0100
1000
0001
1000
0010
0100
,  // measure 55
0010
1000
0100
0010
,  // measure 56
0001
0000
0100
0010
1000
0010
0100
0010
,  // measure 57
0100
0000
0001
0010
0100
0000
0010
0000
,  // measure 58
0001
0000
0001
1000
0100
0010
0100
0100
,  // measure 59
1000
0000
0000
0000
;
