#TITLE:Glorify Him;
#ARTIST:Darwin Hobbs;
#BANNER:Glorify Him - Darwin Hobbs.PNG;
#BACKGROUND:Glorify Him - Darwin Hobbs-bg.PNG;
#LYRICSPATH:Glorify Him - Darwin Hobbs.lrc;
#CDTITLE:.\CDTITLES\DP2DARWIN.png;
#MUSIC:Glorify Him - Darwin Hobbs.mp3;
#OFFSET:-1.723;
#SAMPLESTART:29.86;
#SAMPLELENGTH:12;
#BPMS:0=112;
#BGCHANGES:0=Glorify Him - Darwin Hobbs.AVI=1=1=1=0,999=-=1=0=0=0;

//---------------dance-single - ----------------
#NOTES:
     dance-single:
     :
     Easy:
     1:
     0.128,0.112,0,0,0:
0000
0000
0001
0000
,
0010
0000
1000
0000
,
0100
0000
0001
0000
,
0010
0000
1000
0000
,
0001
0000
0010
0000
,
1000
0000
0001
0000
,
1000
0000
0010
0000
,
0001
0000
1000
0000
,
0001
0000
0010
0000
,
1000
0000
0001
0000
,
1000
0000
0001
0000
,
1000
0000
0010
0000
,
1000
0000
0010
0000
,
0001
0000
1000
0000
,
1000
0000
1000
0000
,
0010
0000
0010
0000
,
0010
0000
0001
0000
,
0001
0000
0010
0000
,
0010
0000
1000
0000
,
0001
0000
0010
0000
,
1000
0000
0001
0000
,
0010
0000
0010
0000
,
0100
0000
1000
0000
,
0100
0000
0010
0000
,
1000
0000
0001
0000
,
0100
0000
1000
0000
,
0010
0000
0001
0000
,
0100
0000
1000
0000
,
0010
0000
0001
0000
,
0100
0000
1000
0000
,
0001
0000
0010
0000
,
0001
0000
1000
0000
,
0001
0000
0010
0000
,
1000
0000
0001
0000
,
1000
0000
0010
0000
,
0001
0000
1000
0000
,
0010
0000
0010
0000
,
0100
0000
0001
0000
,
0100
0000
0010
0000
,
0001
0000
1000
0000
,
0100
0000
0010
0000
,
1000
0000
0001
0000
,
1000
0000
0010
0000
,
0010
0000
1000
0000
,
1000
0000
0010
0000
,
0100
0000
0001
0000
,
0010
0000
1000
0000
,
0100
0000
0001
0000
,
0010
0000
1000
0000
,
0001
0000
0010
0000
,
0001
0000
1000
0000
,
0100
0000
0010
0000
,
1000
0000
0001
0000
,
0100
0000
0010
0000
,
0001
0000
1000
0000
,
0001
0000
0010
0000
,
1000
0000
0001
0000
,
1000
0000
0010
0000
,
0001
0000
1000
0000
,
0100
0000
0010
0000
,
1000
0000
0001
0000
,
1000
0000
0010
0000
,
0001
0000
1000
0000
,
0100
0000
0010
0000
,
1000
0000
0001
0000
,
0100
0000
0010
0000
,
0001
0000
1000
0000
,
0010
0000
0000
0000
;

//---------------dance-single - ----------------
#NOTES:
     dance-single:
     :
     Hard:
     5:
     0.347,0.340,0.087,0.148,0:
0000
0000
0001
1000
,
0010
0000
0001
0010
1000
0000
0001
0000
,
0110
0000
2000
0000
0001
0000
0000
3000
,
0010
0000
0100
0001
1000
0000
0001
0000
,
1100
0002
1000
0000
0010
0000
0100
0000
,
1000
0003
0100
1000
0001
0000
0010
0000
,
1010
0001
0100
0000
0010
1000
0100
0000
,
0002
0003
1000
0010
,
0002
0000
1000
0003
0010
0000
0001
0000
,
1100
0010
0001
0100
,
1001
0000
0010
0000
0001
0000
0100
0001
,
1000
0001
0010
0001
,
1100
0002
0100
0000
0010
0000
0100
0000
,
1000
0003
0010
0000
1000
0000
0001
0000
,
1010
0001
1000
0001
,
0020
0000
0030
0000
1000
0000
0100
0020
,
0000
0000
1000
0030
0001
0000
0001
0000
,
0001
1000
0010
1000
0010
0000
0010
0000
,
0010
0000
0010
0100
1000
0000
0001
0000
,
0001
1000
0001
1000
0010
0000
0001
0000
,
1000
0001
1000
0010
0001
0000
0001
0000
,
0010
1000
0010
1000
0010
0000
0100
0000
,
0100
0001
1000
0001
1000
0000
0100
0000
,
0002
0000
0000
0003
0010
0000
0010
2000
,
0001
0000
0001
0000
0001
3000
0100
0000
,
0100
0010
0001
0010
1000
0000
0100
0000
,
0010
0001
1000
0010
0001
0000
0010
0000
,
0100
1000
0001
0010
1000
0000
0100
0000
,
0010
0001
1000
0010
0001
0000
0010
0000
,
0100
1000
0001
0010
1000
0000
0010
0000
,
0001
1000
0100
1000
0010
0000
1000
0000
,
0002
0000
0000
0003
1000
0000
0100
0002
,
0010
1000
0010
0103
,
1000
0000
0010
1000
0001
0000
0100
0011
,
2000
0001
0010
0010
,
0001
3000
0010
0001
1000
0100
0011
0002
,
0010
1000
0010
1000
,
0010
0003
1000
0010
0001
0000
0010
0000
,
0110
0000
1000
0001
0010
0000
1000
0000
,
0002
0000
0000
0003
1000
0000
0001
0000
,
0020
0000
0000
0030
0010
0000
0001
0000
,
1000
0001
0010
1000
0001
0000
0010
0000
,
1000
0010
0001
1000
0010
0000
1000
0000
,
0010
1000
0001
0010
1000
0000
0001
0000
,
1000
0010
0001
1000
0010
0000
1000
0000
,
0100
0001
0010
1000
0001
0000
1000
0000
,
0010
1000
0001
0010
1000
0000
0001
0000
,
0200
0000
0000
0300
0001
0000
1000
0000
,
0020
0000
0000
0030
1000
0000
0010
0000
,
0001
0010
1000
0001
0010
0000
1000
0000
,
0001
1000
0010
0001
1000
0000
0001
0000
,
0100
1000
0001
1000
0010
0000
0001
0000
,
1000
0001
0010
1000
0001
0000
1000
0000
,
0100
0001
1000
0001
0010
0000
0100
0000
,
0001
1000
0001
0010
1000
0000
0010
0000
,
0002
0000
0000
0003
0010
0000
0100
0000
,
2000
0010
0001
3010
,
1000
0000
0001
1000
0010
0000
1000
0000
,
0011
2000
0010
0000
0001
0000
0010
0000
,
0100
3000
0010
0001
,
1100
0001
0010
1000
0001
0000
0100
0001
,
1000
0000
0001
1000
0010
0000
1000
0000
,
0101
0000
0010
0001
1000
0000
0001
0000
,
0200
0000
0000
0300
0010
0000
0001
0000
,
2000
0010
0001
3000
,
0100
1000
0010
1000
,
0001
0100
1000
0001
,
0010
1000
0001
0000
;

//---------------dance-single - ----------------
#NOTES:
     dance-single:
     :
     Medium:
     4:
     0.264,0.249,0,0.060,0:
0000
0000
0001
0000
,
0010
0001
1000
0001
,
0100
0000
2000
0000
0001
0000
0000
3000
,
0010
0100
1000
0001
,
1000
0002
0000
0000
0010
0000
0100
0000
,
1000
0003
0100
0000
0001
0000
0010
0000
,
1000
0100
0010
0100
,
0001
0010
1000
0010
,
0001
1000
0010
0001
,
1000
0010
0001
0100
,
1000
0010
0001
0100
,
1000
0001
0010
0001
,
1000
0002
0100
0000
0010
0000
0100
0000
,
0003
0010
1000
0001
,
1000
0001
1000
0001
,
0010
0000
0100
0000
0010
0000
0100
0020
,
0000
0000
1000
0030
0001
0000
0001
0000
,
0001
0010
0010
0010
,
0010
0010
1000
0001
,
0001
0001
0010
0001
,
1000
1000
0001
0001
,
0010
0010
0010
0100
,
0100
1000
1000
0100
,
0100
0000
0010
0000
0010
0000
0010
2000
,
0000
0001
3001
0100
,
0100
0001
1000
0100
,
0010
1000
0001
0010
,
0100
0001
1000
0100
,
0010
1000
0001
0010
,
0100
0001
1000
0010
,
0001
0100
0010
1000
,
0001
0000
0010
0000
1000
0000
0100
0002
,
0000
0000
1000
0000
0010
0003
0100
0000
,
1000
0010
0001
0100
,
2000
0001
0010
0010
,
0001
3000
0010
0000
1000
0000
0100
0002
,
0010
1000
0010
1000
,
0010
0003
1000
0000
0001
0000
0010
0000
,
0100
1000
0010
1000
,
0001
0010
1000
0001
,
0020
0000
0000
0030
0010
0000
0001
0000
,
0000
1000
0010
0000
0001
0000
0010
0000
,
1000
0001
0010
1000
,
0010
0001
1000
0001
,
1000
0001
0010
1000
,
0100
0010
0001
1000
,
0010
0001
1000
0001
,
0100
0010
0001
1000
,
0010
0100
1000
0010
,
0001
1000
0010
1000
,
0001
0010
1000
0001
,
0100
0001
0010
0001
,
1000
0010
0001
1000
,
0100
1000
0010
0100
,
0001
0001
1000
0010
,
0001
1000
0010
0100
,
1000
0010
0001
0010
,
1000
0001
0010
1000
,
0001
0010
1000
0010
,
0100
1000
0010
0001
,
1000
0010
0001
0100
,
1000
0001
0010
1000
,
0001
0010
1000
0001
,
0100
0001
0010
0001
,
1000
0010
0001
1000
,
0100
1000
0010
1000
,
0001
0100
1000
0001
,
0010
1000
0001
0000
;

//---------------dance-single - ----------------
#NOTES:
     dance-single:
     :
     Challenge:
     7:
     0.401,0.384,0.134,0.013,0.178: // measure 1
0000
0000
0000
0000
,  // measure 2
1000
0000
0001
0000
0000
1000
0000
0000
0001
0000
0000
1000
0000
0000
0001
0000
,  // measure 3
0100
0010
0100
0001
,  // measure 4
0001
0000
0100
0000
0000
0010
0000
0000
0100
0000
0000
0001
0000
0000
1000
0000
,  // measure 5
0100
0000
0010
0000
0100
0001
0100
0000
,  // measure 6
0010
0000
0100
0000
0000
1000
0000
0000
0100
0000
0000
0010
0000
0000
0100
0000
,  // measure 7
0000
0000
1000
0000
0100
0000
0010
0000
0100
0000
0000
0100
0000
0000
1100
0000
,  // measure 8
0000
0000
0000
0000
1000
0000
0000
0000
0010
0000
0000
0010
0000
0000
0110
0000
,  // measure 9
0000
0100
0001
1000
,  // measure 10
0001
0000
0000
0000
0100
0000
0000
0000
0010
0000
0000
0100
0000
0000
0001
0000
,  // measure 11
1000
0100
0010
0100
1000
0001
0100
0000
,  // measure 12
1000
0000
0100
0000
0000
0001
0000
0000
0100
0000
0000
0010
0000
0000
0100
0000
,  // measure 13
0001
0001
0100
0010
,  // measure 14
0100
0000
0001
0000
0000
1000
0000
0000
0100
0000
0000
0010
0000
0000
0100
0000
,  // measure 15
1000
0000
0000
0000
0001
0000
0000
0000
0100
0000
0000
0010
0000
0000
0110
0000
,  // measure 16
0000
0000
0000
0000
0100
0000
0000
0000
0010
0000
0000
0100
0000
0000
0101
0000
,  // measure 17
0000
0000
0100
0000
0010
0000
0000
0000
0100
0000
0000
0010
0000
0000
0101
0000
,  // measure 18
0010
0001
0100
0010
0100
0010
1000
0100
,  // measure 19
0010
0100
1000
0010
0100
0010
1000
0100
,  // measure 20
1000
0100
0010
0100
1000
0100
0001
0100
,  // measure 21
1000
0010
0100
0010
1000
0010
0001
0010
,  // measure 22
1000
0100
0010
0001
0100
0010
0100
0001
,  // measure 23
0010
0100
0010
0001
0100
0010
1000
0100
,  // measure 24
0010
0100
0100
0000
1000
0010
0100
0010
,  // measure 25
1000
0100
0100
0000
1000
0010
1000
0100
,  // measure 26
0001
0001
0100
1000
0010
0000
1000
0100
,  // measure 27
0010
0100
1000
0001
0100
0000
0001
1000
,  // measure 28
0100
0010
0100
0010
0001
1000
0010
0000
,  // measure 29
1000
0000
1000
0000
0100
0000
0010
0000
0100
0000
0000
0100
0000
0000
1000
0000
,  // measure 30
0010
0000
0100
0000
0010
0000
1000
0000
0001
0000
0000
0001
0000
0000
0001
0000
,  // measure 31
0100
0000
0010
0000
0100
0000
0001
0000
1000
0000
0000
0100
0000
0000
1100
0000
,  // measure 32
0000
0000
1000
0000
0010
0000
0100
0000
0010
0000
0000
1000
0000
0000
0100
0000
,  // measure 33
0000
0100
0001
0001
0100
0000
1000
0010
,  // measure 34
1000
0000
0100
0000
0000
0010
0000
0000
0100
0000
0000
1000
0000
0000
0001
0000
,  // measure 35
0100
0010
0100
0001
,  // measure 36
1000
0000
0100
0000
0000
0010
0000
0000
0100
0000
0000
0100
0000
0000
0010
0000
,  // measure 37
0100
1000
0001
0100
,  // measure 38
0010
0000
0100
0000
0000
0001
0000
0000
1000
0000
0000
0100
0000
0000
0010
0000
,  // measure 39
0100
0000
0000
0000
0100
0000
0000
0000
1000
0000
0000
0010
0000
0000
0110
0000
,  // measure 40
0000
0000
0100
0000
0001
0000
0000
0000
1000
0000
0000
0100
0000
0000
1100
0000
,  // measure 41
0000
0100
1000
0000
1000
0000
0100
1001
,  // measure 42
0000
0000
1000
0000
0100
0000
0010
0000
0100
0000
0000
1100
0000
0000
0100
0000
,  // measure 43
0000
0000
1000
0000
0010
0000
0100
0000
0110
0000
0000
0100
0000
0000
0001
0000
,  // measure 44
0100
0000
0010
0000
1000
0000
0100
0000
1100
0000
0000
1000
0000
0000
0010
0000
,  // measure 45
0000
0000
1000
0000
0100
0000
0010
0000
0011
0000
0000
0010
0000
0000
0001
0000
,  // measure 46
0000
0000
0010
0000
0001
0000
0010
0000
0100
0000
0000
0010
0000
0000
0001
0000
,  // measure 47
0000
0000
0100
0000
0010
0000
0100
0000
0001
0000
0000
1000
0000
0000
1001
0000
,  // measure 48
0000
0000
1000
0000
0100
0000
0000
0000
0010
0000
0000
0100
0000
0000
1001
0000
,  // measure 49
0000
0000
1000
0000
0100
0000
0000
0000
1000
0000
0000
0010
0000
0000
0110
0000
,  // measure 50
0000
0010
1000
0100
1000
0100
1000
0100
,  // measure 51
0010
0100
0010
0001
0010
0001
0100
0010
,  // measure 52
0100
0001
0100
0010
1000
0100
0010
0100
,  // measure 53
1000
0010
0100
0010
1000
0100
0010
0100
,  // measure 54
1000
0001
0100
1000
0100
0001
0100
0010
,  // measure 55
0100
0000
0010
0000
1000
0000
0100
0000
0010
0000
0000
0001
0000
0000
1100
0000
,  // measure 56
0000
0000
0000
0000
1000
0000
0000
0000
0010
0000
0000
0100
0000
0000
0110
0000
,  // measure 57
0000
0000
0000
0000
0100
0000
0000
0000
0001
0000
0000
1000
0000
0000
0000
0000
,  // measure 58
0100
0000
0010
0000
0000
0100
0000
0000
1000
0000
0000
0001
0000
0000
0100
0000
,  // measure 59
0100
0001
1000
1000
0100
0100
0010
0010
,  // measure 60
0100
0000
0100
0000
0000
1000
0000
0000
0001
0000
0000
0100
0000
0000
0010
0000
,  // measure 61
0100
0100
0001
0001
1000
1000
0001
0001
,  // measure 62
0100
0000
0010
0000
0000
0100
0000
0000
0001
0000
0000
1000
0000
0000
0100
0000
,  // measure 63
0000
0000
0010
0000
0100
0000
0100
0000
1000
0000
0000
0100
0000
0000
0101
0000
,  // measure 64
0000
0000
0000
0000
0100
0000
0000
0000
0100
0000
0000
1000
0000
0000
2020
0000
,  // measure 65
0000
0000
0000
0000
0000
3030
0000
0000
0100
0000
0000
0010
0000
0000
0010
0000
,  // measure 66
0000
0000
0000
1000
0000
0000
0001
0000
0000
0000
0000
0100
0000
0000
0010
0000
,  // measure 67
0000
0000
0000
1000
0000
0000
0001
0000
0000
0000
0000
0001
0000
0000
0010
0000
,  // measure 68
0000
0000
0000
0010
0000
0000
0100
0000
0000
0000
0000
0000
0000
0000
0000
0000
;
