#TITLE:Forgiven;
#ARTIST:Relient K;
#BANNER:Forgiven - Relient K.PNG;
#BACKGROUND:Forgiven - Relient K-bg.PNG;
#LYRICSPATH:Forgiven - Relient K.lrc;
#CDTITLE:.\CDTITLES\DP2RELIENT.png;
#MUSIC:Forgiven - Relient K.mp3;
#OFFSET:-2.659;
#SAMPLESTART:52.9;
#SAMPLELENGTH:12;
#BPMS:0=136;
#BGCHANGES:0=Forgiven - Relient K.AVI=1=1=1=0,999=-=1=0=0=0;

//---------------dance-single - ----------------
#NOTES:
     dance-single:
     :
     Easy:
     1:
     0.154,0.165,0.007,0.054,0:
1000
0000
0010
0000
,
0001
0000
0100
0000
,
1000
0000
0010
0000
,
0001
0000
0100
0000
,
1000
0000
0010
0000
,
0001
0000
0100
0000
,
0010
0000
0100
0000
,
0010
0000
0100
0000
,
1000
0000
0001
0000
,
1000
0000
0010
0000
,
0001
0000
1000
0000
,
0001
0000
1000
0000
,
0010
0000
0100
0000
,
1000
0000
0001
0000
,
0010
0000
0010
0000
,
1001
0000
0100
0000
,
0010
0000
0001
0000
,
1000
0000
0001
0000
,
0010
0000
1000
0000
,
0001
0000
1000
0000
,
0010
0000
0001
0000
,
2000
0000
0000
0000
,
3000
0000
0010
0000
,
0001
0000
1000
0000
,
0001
0000
1000
0000
,
0010
0000
0100
0000
,
0010
0000
0100
0000
,
2000
0000
0000
0000
,
3000
0000
0001
0000
,
0020
0000
0000
0030
,
1000
0000
0001
0000
,
0010
0000
0100
0000
,
0001
0000
1000
0000
,
0010
0000
0001
0000
,
1000
0000
0010
0000
,
0002
0000
0000
0000
,
0000
0000
0003
0000
,
1000
0000
0001
0000
,
0010
0000
1000
0000
,
0001
0000
1000
0000
,
0010
0000
0001
0000
,
1000
0000
0010
0000
,
0001
0000
0100
0000
,
0010
0000
0100
0000
,
1000
0000
0010
0000
,
0001
0000
0100
0000
,
1000
0000
0010
0000
,
0001
0000
0100
0000
,
0010
0000
0100
0000
,
1000
0000
0010
0000
,
0001
0000
0100
0000
,
0010
0000
0100
0000
,
0001
0000
0010
0000
,
1000
0000
0001
0000
,
0010
0000
0010
0000
,
1000
0000
1000
0000
,
0001
0000
1000
0000
,
0010
0000
0100
0000
,
0001
0000
0001
0000
,
2000
0000
0000
0000
,
3010
0000
0001
0000
,
1000
0000
0100
0000
,
0010
0000
1000
0000
,
0001
0000
1000
0000
,
0010
0000
0010
0000
,
2000
0000
0000
0000
,
3000
0000
0010
0000
,
0002
0000
0000
0003
,
0010
0000
0001
0000
,
1000
0000
1000
0000
,
0010
0000
0100
0000
,
0001
0000
1000
0000
,
0010
0000
0001
0000
,
2000
0000
0000
3000
,
0010
0000
1000
0000
,
0001
0000
1000
0000
,
0010
0000
1000
0000
,
0001
0000
1000
0000
,
0010
0000
0010
0000
,
1000
0000
0100
0000
,
0010
0000
0010
0000
,
1000
0000
0000
0000
;

//---------------dance-single - ----------------
#NOTES:
     dance-single:
     :
     Hard:
     7:
     0.392,0.497,0.238,0.088,0:
0100
0010
0100
0010
0000
0011
0000
0000
,
0001
1000
0001
1000
0000
1010
0000
0000
,
0100
0010
0100
0010
0000
0101
0000
0000
,
0001
0010
1000
0100
0000
1001
0000
0000
,
1000
0100
0010
0001
0000
0110
0000
0000
,
0001
1000
0010
0100
0000
0101
0000
0000
,
1000
0001
0100
0010
0000
1010
0000
0000
,
0010
0010
0010
0010
0000
1100
0000
0000
,
0100
0100
0100
0100
0000
0011
0000
0000
,
1000
1000
1000
1000
0000
0101
0000
0000
,
0001
0001
0001
0001
0000
1010
0000
0000
,
0001
1000
0001
1000
0000
0110
0000
0000
,
0010
0100
0010
0100
0000
1001
0000
0000
,
1000
0001
1000
0001
0000
0110
0000
0000
,
0010
0100
0010
0100
0000
1001
0000
0000
,
0110
1001
0110
1001
,
0011
1100
0011
1100
,
0010
1000
0101
1010
,
0101
1010
0011
1010
,
0011
1010
0101
1100
,
0101
1100
0001
0010
,
2000
0000
0001
0000
0000
0000
0001
3000
,
0001
0100
0010
1000
,
0001
0020
1000
0000
,
1000
0030
1000
0001
,
0010
0001
0100
0001
,
0010
0001
0100
0001
,
2000
0001
0010
0001
,
3000
0010
0001
0100
,
0020
1000
0000
1030
,
1000
0010
0001
0100
,
0010
0002
1000
0010
,
0000
0013
1000
0100
,
0020
1000
0000
0031
,
1000
0001
0010
1000
,
0002
1000
0010
1000
,
0010
0000
1003
0000
0000
0000
0001
0010
,
1000
1000
0010
1000
0001
0000
0100
0000
,
0010
1000
0001
0010
1000
0001
0010
0000
,
0001
1000
0001
0010
1000
0001
0100
0000
,
0010
0001
1000
0010
0001
0000
0010
0000
,
1000
0010
0001
0000
0010
0000
1000
0000
,
0001
0010
0100
0001
,
0010
0001
0100
0001
,
1000
0100
0010
1000
,
0001
1000
0010
1000
0100
1000
0001
0000
,
1000
0001
0100
0001
0010
0000
1000
0000
,
0001
1000
0010
1000
0100
0000
1000
0000
,
0010
1000
0001
0000
0100
0000
0001
0010
,
1000
0100
0010
1000
,
0001
0010
0100
0001
,
0010
0001
0100
1000
,
0001
0100
0010
0001
,
1000
0100
0001
1000
,
0010
1000
0010
0001
,
1000
0000
0010
0000
0001
1000
0100
0000
,
0001
0010
1000
0001
,
0010
0000
1000
0001
0100
0000
0010
1000
,
0001
0000
1000
0000
0001
0000
0100
0001
,
2000
0001
0010
0001
,
3010
0100
0001
0010
,
1000
0002
1000
0010
,
1000
0010
1003
0010
,
0001
0100
1000
0001
,
0010
1000
0010
0100
,
2000
0001
0010
0001
,
3000
0100
0010
0100
,
0002
1000
0010
1000
,
0013
1000
0001
0010
,
0100
2000
0010
0001
,
0010
3000
0100
0010
,
0001
0100
1000
0001
,
0010
1000
0001
0010
,
2000
0001
0010
0001
,
3010
0001
1000
0010
,
0001
0100
1000
0001
,
0010
0001
1000
0010
,
0001
0100
1000
0001
,
0010
1000
0010
0001
,
1000
0001
0100
0001
,
0010
1000
0010
0100
,
1000
0001
0000
0000
;

//---------------dance-single - ----------------
#NOTES:
     dance-single:
     :
     Medium:
     4:
     0.305,0.275,0.007,0.088,0:
0001
0100
0010
0100
,
0001
1000
0100
0010
,
1000
0001
0010
0100
,
0001
1000
0100
0010
,
1000
0001
0010
0100
,
0001
1000
0100
0010
,
0010
0100
0100
0010
,
0010
0100
0100
0010
,
1000
0001
0001
1000
,
1000
0001
0010
0100
,
0001
0010
1000
0100
,
0001
0010
1000
0001
,
0010
1000
0100
0001
,
1000
0010
0001
0100
,
0010
1000
0010
0100
,
1001
0010
0100
0001
,
0010
1000
0001
0010
,
1000
0100
0001
1000
,
0010
0100
1000
0010
,
0001
0001
1000
0001
,
0010
1000
0001
0010
,
2000
0000
0000
0000
0000
0000
0000
3000
,
0001
0100
0010
1000
,
0001
0020
1000
0000
,
1000
0030
1000
0001
,
0010
0001
0100
0001
,
0010
0001
0100
0001
,
2000
0001
0000
0001
,
0000
3000
0010
0000
0001
0000
0100
0000
,
0020
0000
1000
0000
0000
0000
0000
0030
,
1000
0010
0001
0100
,
0010
0002
1000
0000
,
0003
0010
1000
0100
,
0020
0000
1000
0000
0000
0030
0001
0000
,
1000
0001
0010
1000
,
0002
1000
0000
1000
,
0000
0000
1000
0003
0000
0000
0001
0000
,
1000
0010
0001
0100
,
0010
0001
1000
0010
,
0001
0001
1000
0100
,
0010
1000
0001
0010
,
1000
0001
0010
1000
,
0001
0010
0100
0001
,
0010
0001
0100
0001
,
1000
0100
0010
1000
,
0001
0010
0100
0001
,
1000
0100
0010
1000
,
0001
0010
0100
1000
,
0010
0001
0100
0001
,
1000
0100
0010
1000
,
0001
0010
0100
0001
,
0010
0001
0100
1000
,
0001
0100
0010
0001
,
1000
0100
0001
1000
,
0010
1000
0010
0001
,
1000
0010
1000
0100
,
0001
0010
1000
0001
,
0010
1000
0100
0010
,
0001
1000
0001
0100
,
2000
0001
0000
0001
,
0010
3000
0100
0000
0001
0000
0010
0000
,
1000
0002
1000
0000
,
1000
0000
0000
0003
1000
0000
0010
0000
,
0001
0100
1000
0001
,
0010
1000
0010
0100
,
2000
0001
0000
0001
,
0000
3000
0100
0000
0010
0000
0100
0000
,
0002
0000
1000
0000
0000
0000
1000
0003
,
0010
1000
0001
0010
,
0100
2000
0000
0001
,
0000
3000
0100
0010
,
0001
0100
1000
0001
,
0010
1000
0001
0010
,
2000
0000
0001
0000
0000
3000
0001
0000
,
0010
0001
1000
0010
,
0001
0100
1000
0001
,
0010
0001
1000
0010
,
0001
0100
1000
0001
,
0010
1000
0010
0001
,
1000
0001
0100
0001
,
0010
1000
0010
0100
,
1000
0000
0000
0000
;

//---------------dance-single - ----------------
#NOTES:
     dance-single:
     :
     Challenge:
     8:
     0.498,0.469,0.027,0,0: // measure 1
0000
0000
0000
0000
,  // measure 2
0000
0000
0000
0000
,  // measure 3
0000
0000
0000
0000
,  // measure 4
1000
0001
0010
0100
,  // measure 5
0010
0000
0001
0000
0100
0010
0100
0000
,  // measure 6
0001
0000
0001
0000
0100
0001
0100
0000
,  // measure 7
0010
0000
1000
0000
0100
1000
0100
0000
,  // measure 8
1000
0000
0010
0000
1000
0100
0010
0000
,  // measure 9
0100
0000
1000
0000
0001
0100
0010
0000
,  // measure 10
0100
0000
0001
0000
1000
0100
0010
0000
,  // measure 11
0100
0000
0010
0000
0001
0100
0010
0000
,  // measure 12
0100
0001
0010
0100
0010
0001
0100
0010
,  // measure 13
0100
0001
0010
0100
0010
0001
0100
0001
,  // measure 14
1000
0100
1000
0010
1000
0010
1000
0010
,  // measure 15
0100
0010
0100
0010
1000
0010
1000
0010
,  // measure 16
1000
0000
0100
0010
0100
0000
1000
0010
,  // measure 17
0100
0000
0010
1000
0100
0000
1000
0010
,  // measure 18
1000
0000
0100
0010
0100
0000
1000
0001
,  // measure 19
0100
0000
0001
0100
0010
0000
0100
0001
,  // measure 20
1000
0000
0100
1000
0010
0000
1000
0100
,  // measure 21
1000
0000
1000
0010
0100
0001
0010
0000
,  // measure 22
0100
0010
0100
0010
0100
0010
0100
0010
,  // measure 23
0001
0010
0001
0010
0001
0010
0001
0010
,  // measure 24
0001
1000
0001
1000
0001
1000
0001
1000
,  // measure 25
0100
1000
0100
1000
0100
1000
0100
1000
,  // measure 26
0010
1000
0010
1000
0010
1000
0010
1000
,  // measure 27
0010
0100
0010
0100
0010
0100
0010
0100
,  // measure 28
0001
1000
0001
1000
0001
1000
0001
1000
,  // measure 29
0001
0100
0001
0100
0001
0100
0001
0100
,  // measure 30
0010
0100
0001
0100
0010
0100
0001
0010
,  // measure 31
0100
1000
0010
1000
0100
0010
0100
1000
,  // measure 32
0010
0100
0010
0100
0001
0010
0100
0010
,  // measure 33
0001
0100
0010
0100
0001
0100
0010
0100
,  // measure 34
0001
0010
0100
1000
0100
1000
0010
0100
,  // measure 35
0010
1000
0100
0010
0100
1000
0010
0100
,  // measure 36
0001
0010
0100
0010
0001
0010
0001
0100
,  // measure 37
0010
0100
0001
0010
0100
0010
0001
0100
,  // measure 38
0010
1000
0000
0100
0000
0010
0000
0100
,  // measure 39
1000
0010
0000
0100
0000
0001
0000
0100
,  // measure 40
0010
0100
0000
0001
0000
1000
0000
0100
,  // measure 41
1000
0100
0000
1000
0000
0010
0000
0100
,  // measure 42
0001
0100
0000
0010
0000
0100
0000
0000
,  // measure 43
0001
1000
0000
0100
0000
1000
0000
0000
,  // measure 44
0010
0100
0000
0001
0000
0100
0000
0000
,  // measure 45
0010
0100
0000
0001
0000
0100
0000
0000
,  // measure 46
0010
0100
0000
0100
0000
0001
0000
0000
,  // measure 47
0100
0001
0000
1000
0000
0010
0000
0000
,  // measure 48
0100
0001
0000
0100
0000
0001
0000
0000
,  // measure 49
1000
0100
0000
1000
0000
0010
0000
0000
,  // measure 50
0100
0001
0000
0000
0100
0000
0001
0000
,  // measure 51
1000
0100
1000
0010
,  // measure 52
0100
0101
0000
1100
,  // measure 53
1000
1010
1000
0110
,  // measure 54
0100
0100
0100
0100
0100
0100
0100
0100
,  // measure 55
0100
0100
0100
0100
0100
0100
0100
0100
,  // measure 56
0001
0001
0001
0001
0001
0001
0001
0001
,  // measure 57
0001
0001
0001
0001
0001
0001
0001
0001
,  // measure 58
1000
1000
1000
1000
1000
1000
1000
1000
,  // measure 59
1000
1000
1000
1000
1000
1000
1000
1000
,  // measure 60
0010
1000
0010
1000
0010
0100
0010
0100
,  // measure 61
0001
0010
0100
0010
0001
0100
0010
1000
,  // measure 62
0100
0010
0100
1000
0010
1000
0100
0010
,  // measure 63
0100
1000
0010
0100
0010
1000
0010
1000
,  // measure 64
0010
1000
0100
0010
0100
0010
0001
0010
,  // measure 65
0001
0010
0100
0010
0001
0010
0100
0010
,  // measure 66
0001
0100
0010
1000
0100
0010
0100
1000
,  // measure 67
0010
0100
0001
0100
0001
0100
0010
0100
,  // measure 68
0001
0010
0100
1000
0100
1000
0010
0100
,  // measure 69
0010
1000
0100
0010
0100
0010
0100
0010
,  // measure 70
0001
0100
0010
0100
0001
0100
0001
0100
,  // measure 71
0010
0100
0001
0010
0001
0010
0001
1000
,  // measure 72
0001
1000
0001
1000
0010
0100
0010
0100
,  // measure 73
0001
0010
0001
0010
0100
0010
0100
0010
,  // measure 74
0100
1000
0001
1000
0001
1000
0010
0100
,  // measure 75
0010
1000
0001
1000
0001
1000
0001
0100
,  // measure 76
0010
0100
0000
0100
0000
0001
0000
1000
,  // measure 77
0001
0100
0000
0010
0000
0100
0000
0001
,  // measure 78
1000
0100
0000
0010
0000
0100
0000
1000
,  // measure 79
0001
0100
0000
0010
0000
0100
0000
0100
,  // measure 80
0001
0100
0000
0100
0000
0010
0000
1000
,  // measure 81
0010
1000
0000
0010
0000
0100
0000
0001
,  // measure 82
0000
0100
0000
0000
0000
0000
0000
0000
;
