#TITLE:Everlasting God;
#ARTIST:Lincoln Brewster;
#BANNER:Everlasting God - Lincoln Brewster.PNG;
#BACKGROUND:Everlasting God - Lincoln Brewster-bg.PNG;
#LYRICSPATH:Everlasting God - Lincoln Brewster.lrc;
#CDTITLE:.\CDTITLES\DP2LINC.png;
#MUSIC:Everlasting God - Lincoln Brewster.mp3;
#OFFSET:-2.824;
#SAMPLESTART:38.16;
#SAMPLELENGTH:12;
#BPMS:0=110;
#BGCHANGES:0=Everlasting God - Lincoln Brewster.AVI=1.021=1=1=0,999=-=1=0=0=0;

//---------------dance-single - ----------------
#NOTES:
     dance-single:
     :
     Easy:
     2:
     0.140,0.157,0.027,0.040,0:
0000
1000
0000
0010
,
0000
0000
0001
0000
0000
0000
0010
2000
,
0000
3000
0000
0010
,
0000
0001
0000
1000
,
0000
0001
0000
1000
,
0000
0000
0010
0000
0000
0000
0100
0002
,
0000
0003
0000
0100
,
0000
0001
0000
0001
,
0000
0000
0010
0000
0000
1001
0000
0010
,
0000
0001
0000
0010
,
0000
1000
0002
0000
,
0000
0000
0000
0003
0000
0000
1000
0000
,
0000
0011
0000
1000
0000
0000
0010
0000
,
0000
0001
0000
0010
,
2000
0000
0000
3000
,
0000
0001
0000
0100
,
0000
1000
0000
0001
,
0000
0010
0000
0100
,
0000
0010
0000
0100
,
0000
0001
0000
1000
,
0000
0001
0000
0010
,
0000
1000
0000
0001
,
0000
1000
0000
0001
,
0000
0010
0000
0001
,
0000
1000
0000
0100
,
0000
0010
0000
0100
,
0000
0001
0000
1000
,
0000
0010
0000
0100
,
0000
1000
0000
1000
,
0000
0001
0010
0001
,
0000
1000
0000
1000
,
0000
0001
0000
0001
,
0000
0010
0000
0010
,
0000
0001
0000
1000
,
0000
0010
0000
0100
,
0000
1000
0000
0001
,
0000
0010
0000
1000
,
0000
0001
0000
1000
,
0000
0010
0000
0001
,
0000
0000
1000
0000
0000
0101
0000
0010
,
0000
0001
0000
0010
,
0000
1000
0002
0000
,
0000
0000
0000
0003
0000
0000
0010
0000
,
0000
1000
0000
0100
,
0000
0010
0000
0100
,
2000
0000
0000
0000
0000
0000
0000
3000
,
0000
0010
0000
0001
,
0000
1000
0000
0001
,
0000
0010
0000
1000
,
0000
0010
0000
1000
,
0000
0001
0000
1000
,
0000
0001
0000
1000
,
0000
0010
0000
0001
,
0000
1000
0000
0001
,
0000
0010
0000
1000
,
0000
0001
0000
0100
,
0000
0010
0000
0100
,
0000
1000
0000
0001
,
0000
0010
0000
0100
,
0000
0001
0000
1000
,
0000
0001
0010
0001
,
0000
1000
0000
0010
,
0000
0001
1010
0100
,
0000
1000
0000
0001
,
0000
0001
0000
0100
,
0000
1000
0000
0010
,
0000
0001
0000
0100
;

//---------------dance-single - ----------------
#NOTES:
     dance-single:
     :
     Hard:
     6:
     0.372,0.313,0.074,0.067,0: // measure 1
0000
0000
1001
0000
0001
0000
1100
0010
,  // measure 2
0001
0000
1000
0001
0100
0001
0010
2000
,  // measure 3
0000
3000
0001
0100
0010
0000
0001
2000
,  // measure 4
0000
3000
0001
0100
0010
0001
1000
0001
,  // measure 5
0000
0100
0001
1000
0010
0000
1000
0000
,  // measure 6
0001
0000
0010
0001
1000
0001
0100
0002
,  // measure 7
0000
0003
1100
0000
0010
0000
0100
2000
,  // measure 8
0000
3000
0001
0100
0010
1000
0001
0010
,  // measure 9
0000
0100
0001
1000
0010
1001
0000
0110
,  // measure 10
0000
0000
0001
0000
1000
0010
0000
1000
,  // measure 11
0000
0010
0000
0000
0002
0000
1000
0000
,  // measure 12
0010
0000
1003
0000
2000
0000
0000
3000
,  // measure 13
0100
0011
0000
1100
0000
0001
0000
0010
,  // measure 14
0000
1000
0000
0001
0000
0100
0000
0000
,  // measure 15
2000
0000
0010
0000
0001
0000
0010
3000
,  // measure 16
0002
1000
0010
1000
,  // measure 17
0003
0010
1000
0000
0010
1000
0001
0000
,  // measure 18
1000
0001
0010
0000
0001
0010
0100
0000
,  // measure 19
0010
0001
1000
0000
0001
0010
0100
0000
,  // measure 20
1000
0010
0001
0000
0010
0001
1000
0001
,  // measure 21
0010
1000
0001
0000
0100
0001
0010
0000
,  // measure 22
0001
0010
1000
0000
0010
1000
0001
0000
,  // measure 23
0100
0001
1000
0100
0010
1000
0001
0000
,  // measure 24
0100
0001
0010
0000
1000
0010
0001
0000
,  // measure 25
0010
0001
1000
0000
0001
0010
0100
0000
,  // measure 26
1000
0001
0010
0000
0001
0010
1000
0000
,  // measure 27
0100
1000
0001
0000
0001
0010
1000
0000
,  // measure 28
1000
0001
0010
0000
0010
0001
0100
0000
,  // measure 29
0100
0001
1000
0000
0001
0010
1000
0000
,  // measure 30
0010
1000
0001
0000
0010
1000
0001
0000
,  // measure 31
0010
0001
1000
0000
0001
0010
1000
0000
,  // measure 32
0010
1000
0001
0000
1000
0010
0001
0000
,  // measure 33
1000
0100
0010
0000
1000
0001
0010
0000
,  // measure 34
1000
0100
0001
0000
0010
0001
1000
0000
,  // measure 35
0001
0000
1000
0000
0010
0001
0100
0000
,  // measure 36
0001
0000
1000
0000
0010
1000
0001
0000
,  // measure 37
1000
0000
0010
0000
0001
0010
1000
0000
,  // measure 38
0010
0000
0001
0000
0010
0001
1000
0000
,  // measure 39
0001
0000
1000
0000
0010
1000
0001
0000
,  // measure 40
0010
0001
1000
0000
0010
0101
0000
1010
,  // measure 41
0000
0000
0001
0000
1000
0001
0010
0000
,  // measure 42
0001
0010
1000
0000
0002
0000
0010
0000
,  // measure 43
1000
0010
0003
0010
,  // measure 44
0001
0010
1000
0010
0001
0000
0100
0000
,  // measure 45
0001
1000
0010
0000
0001
0010
0100
0000
,  // measure 46
2000
0001
0010
0001
,  // measure 47
3000
0000
0010
0001
1000
0010
0001
1000
,  // measure 48
0010
0001
1000
0000
0100
1000
0001
0000
,  // measure 49
1000
0001
0010
0000
0001
0010
1000
0000
,  // measure 50
0010
0100
0010
0000
0001
0010
1000
0000
,  // measure 51
0100
1000
0001
0000
0100
0001
1000
0000
,  // measure 52
0010
1000
0001
0000
0100
0001
1000
0000
,  // measure 53
0100
1000
0010
0000
1000
0100
0001
0000
,  // measure 54
0100
0001
1000
0000
0001
1000
0001
0000
,  // measure 55
1000
0001
0010
0000
0001
0010
1000
0000
,  // measure 56
0010
1000
0001
0000
1000
0001
0100
0000
,  // measure 57
0001
0100
0010
0000
1000
0001
0100
0000
,  // measure 58
0001
0010
1000
0000
0010
1000
0001
0000
,  // measure 59
1000
0001
0010
0000
0001
0010
0100
0000
,  // measure 60
0010
1000
0001
0000
0010
0001
1000
0000
,  // measure 61
0010
1000
0001
0000
0010
1000
0001
0000
,  // measure 62
0010
0001
1000
0000
0001
1000
0010
0000
,  // measure 63
1000
0010
0001
0000
1010
0000
0100
0000
,  // measure 64
0011
1000
0010
0001
,  // measure 65
1000
0010
0001
0000
0010
0001
0100
0000
,  // measure 66
0001
0010
1000
0000
0001
1000
0010
0000
,  // measure 67
1000
0100
0001
0000
0010
0001
0100
0000
;

//---------------dance-single - ----------------
#NOTES:
     dance-single:
     :
     Medium:
     4:
     0.259,0.246,0.054,0.047,0:
0000
1000
0001
1000
,
0001
0000
1000
0000
0100
0000
0010
2000
,
0000
3000
0010
0001
,
1000
0001
0010
1000
,
0100
0001
0010
1000
,
0001
0000
0010
0000
1000
0000
0100
0002
,
0000
0003
0010
0100
,
1000
0001
0010
0001
,
0100
0000
0001
0000
0010
1001
0000
0110
,
0000
0001
1000
0010
,
0001
1000
0002
1000
,
0000
1000
0003
1000
,
0000
0011
0000
1100
0000
0000
0010
0000
,
0001
0100
0010
0010
,
2000
0010
0000
3010
,
0002
1000
0000
1000
,
0003
1000
0010
0001
,
1000
0010
0001
0100
,
0010
1000
0001
0100
,
1000
0001
0010
1000
,
0010
0001
0100
0010
,
0001
1000
0010
0001
,
0100
1000
0010
0001
,
0100
0010
1000
0001
,
0010
1000
0001
0100
,
1000
0010
0001
1000
,
0100
0001
0001
1000
,
1000
0010
0010
0100
,
0100
1000
0001
1000
,
0010
0001
0010
0001
,
0010
1000
0001
1000
,
0010
0001
1000
0001
,
1000
0010
1000
0010
,
1000
0001
0010
1000
,
0001
1000
0010
0100
,
0001
1000
0010
0001
,
1000
0010
0001
1000
,
0010
0001
0010
1000
,
0001
1000
0010
0001
,
0010
0000
1000
0000
0011
0100
0000
1010
,
0000
0001
1000
0010
,
0001
1000
0002
0010
,
0000
0010
0003
0010
,
0001
1000
0001
0100
,
0001
0010
0001
0100
,
2000
0001
0000
0001
,
3000
0010
1000
0001
,
0010
1000
0100
0001
,
1000
0010
0001
1000
,
0010
0010
0001
1000
,
0100
0001
0100
1000
,
0010
0001
0100
1000
,
0100
0010
1000
0001
,
0100
1000
0001
0001
,
1000
0010
0001
1000
,
0010
0001
1000
0100
,
0001
0010
1000
0100
,
0001
1000
0010
0001
,
1000
0010
0001
0100
,
0010
0001
0010
1000
,
0010
0001
0010
0001
,
0010
1000
0001
0010
,
1000
0001
1010
0100
,
0011
1000
0010
0001
,
1000
0001
0010
0100
,
0001
1000
0001
0010
,
1000
0001
0010
0100
;

//---------------dance-single - ----------------
#NOTES:
     dance-single:
     :
     Challenge:
     7:
     0.382,0.448,0.161,0.154,0: // measure 1
0000
0000
0000
0000
,  // measure 2
1000
0000
0001
0000
0010
0010
0001
0000
,  // measure 3
1000
0000
0100
0000
0010
0010
0100
0000
,  // measure 4
1000
0000
0001
0000
0100
0100
0001
0000
,  // measure 5
1000
0000
0010
0000
1000
1000
1001
0000
,  // measure 6
0010
0000
0001
0000
1000
1000
0001
0000
,  // measure 7
0100
0000
0010
0000
0100
0100
0001
0000
,  // measure 8
1000
0000
0100
0000
0010
0010
0100
0000
,  // measure 9
1000
0000
0001
0000
0100
0010
0110
0101
,  // measure 10
0000
0001
0000
1000
0000
0100
0000
0010
,  // measure 11
0000
0100
0000
2200
0000
0300
0002
3000
,  // measure 12
0020
0000
0033
2002
0000
0000
3003
0000
,  // measure 13
0000
0010
0000
0010
0000
1000
0000
0001
,  // measure 14
0000
0000
0100
0000
0000
0000
0200
0000
0000
0000
0002
0000
0300
0000
2000
0003
,  // measure 15
0000
3000
1000
0000
0100
1000
0010
0000
,  // measure 16
0100
0010
1000
0001
1000
0100
1000
0010
,  // measure 17
0110
0000
0010
1000
0100
0010
1000
0010
,  // measure 18
1000
0100
0010
0100
1000
0010
0100
0001
,  // measure 19
0101
0100
0110
0100
,  // measure 20
0001
1000
0100
0010
0100
1000
0010
0100
,  // measure 21
0110
0000
0100
0000
0100
0001
0100
0000
,  // measure 22
0010
1000
0100
0010
0100
1000
0001
1000
,  // measure 23
0100
0100
1000
1000
,  // measure 24
0010
0010
0100
0100
,  // measure 25
0001
1000
0100
1000
0010
0100
0010
1000
,  // measure 26
0100
0010
0100
1000
0010
1000
0001
0100
,  // measure 27
1000
0100
0001
0010
0100
0010
0001
1000
,  // measure 28
0010
0100
0010
1000
0001
0010
0001
0010
,  // measure 29
1000
0010
0001
0010
1000
0100
1000
0010
,  // measure 30
1000
0100
0001
0100
1000
0010
0100
0010
,  // measure 31
2000
0000
0100
3000
0002
0000
0100
0003
,  // measure 32
0020
0000
0100
0030
2000
0000
0100
0000
,  // measure 33
3001
0000
0010
0100
0001
1000
0001
0100
,  // measure 34
0010
0100
0001
1000
1100
1000
0010
0100
,  // measure 35
0001
1000
0100
1000
1100
1000
0010
0100
,  // measure 36
0001
1000
0001
0100
0110
0100
0001
0101
,  // measure 37
0000
0100
0010
1000
0100
1100
1000
0010
,  // measure 38
0100
0010
1000
0001
0101
0100
0010
1000
,  // measure 39
0001
1000
0010
0100
0110
0100
0001
1000
,  // measure 40
0100
0010
0100
1000
1010
0100
0110
0101
,  // measure 41
0000
0100
0000
0110
0000
0010
0000
1000
,  // measure 42
0000
0001
0000
0100
0010
0100
0010
1000
,  // measure 43
0100
1000
0010
0100
0000
0100
0001
0000
,  // measure 44
1000
0100
1000
1100
0000
1000
0000
1010
,  // measure 45
0000
0010
0000
0100
0000
0001
0000
1000
,  // measure 46
0000
0001
0100
0000
0010
0100
0001
1000
,  // measure 47
0100
1000
0100
1000
0010
0100
0010
1000
,  // measure 48
0100
0000
1000
0010
0000
0100
0000
0001
,  // measure 49
0000
1000
0000
0001
0000
1000
0000
0020
,  // measure 50
0000
0000
0100
0000
0130
0000
0100
0010
,  // measure 51
0000
0001
0000
1000
0000
0100
0000
1000
,  // measure 52
0000
0010
0000
0100
0000
0001
0000
1000
,  // measure 53
0000
0001
0000
0010
0000
0001
0000
0000
,  // measure 54
0220
0030
0002
0300
,  // measure 55
2000
0000
0003
0200
0000
0000
3000
0000
,  // measure 56
0310
0000
0001
1000
0000
0100
0000
0010
,  // measure 57
0000
0001
0000
0010
0000
0010
0000
0001
,  // measure 58
0000
0000
1000
0100
0000
0000
1000
0010
,  // measure 59
0000
0100
0000
0001
0000
1000
0000
0000
,  // measure 60
0010
0000
0100
0001
0000
0000
1000
1000
,  // measure 61
0000
0010
0000
0100
0000
0000
0010
0000
,  // measure 62
2000
0000
0002
3000
,  // measure 63
0200
0000
0003
0020
0000
0000
0330
0000
,  // measure 64
0110
0000
0001
0000
1000
1000
0010
0000
,  // measure 65
0100
0000
0001
0000
0100
0100
0010
0000
,  // measure 66
0100
0000
0001
0000
1000
1000
0100
0000
,  // measure 67
1000
0000
0010
0000
0100
0100
0001
0000
;
