#TITLE:Clap Ya Hands;
#ARTIST:Group 1 Crew;
#BANNER:Clap Ya Hands - Group 1 Crew.PNG;
#BACKGROUND:Clap Ya Hands - Group 1 Crew-bg.PNG;
#LYRICSPATH:Clap Ya Hands - Group 1 Crew.lrc;
#CDTITLE:.\CDTITLES\DP2G1.png;
#MUSIC:Clap Ya Hands - Group 1 Crew.mp3;
#OFFSET:-3.393;
#SAMPLESTART:40.0;
#SAMPLELENGTH:12;
#BPMS:0=98,28=196;

//---------------dance-single - ----------------
#NOTES:
     dance-single:
     :
     Easy:
     3:
     0.176,0.411,0.313,0.007,0.020:
0000
0000
0000
0000
,
1100
0000
0010
0000
,
0001
0000
0010
0000
,
0101
0000
0000
0000
0000
0000
0000
0000
0000
1001
0000
0110
0000
0000
0000
0000
,
0010
0000
0000
0000
0000
0000
0000
0000
0000
1001
0000
0110
0000
0000
0000
0000
,
0010
0000
0000
0000
0000
0000
0000
0000
0000
1001
0000
0110
0000
0000
0000
0000
,
0010
0000
1000
0000
,
0001
0000
0000
0000
,
0010
0000
0000
0000
,
1000
0000
0000
0000
,
0010
0000
0000
0000
,
0001
0000
0000
0000
,
0010
0000
0000
0000
,
1000
0000
0000
0000
,
0001
0000
0000
0000
,
1000
0000
0000
0000
,
0001
0000
0000
0000
,
1000
0000
0000
0000
,
0100
0000
0000
0000
,
0010
0000
0000
0000
,
0100
0000
0000
0000
,
0010
0000
0000
0000
,
0100
0000
0000
0000
,
0010
0000
0000
0000
,
0000
1001
0000
0110
0000
0000
0000
0000
,
1000
0000
0000
0000
,
0000
1001
0000
0110
0000
0000
0000
0000
,
0010
0000
0000
0000
,
0000
1001
0000
0110
0000
0000
0000
0000
,
0001
0000
0000
0000
,
1000
0000
0000
0000
,
0010
0000
0000
0000
,
0000
1001
0000
0110
0000
0000
0000
0000
,
1000
0000
0000
0000
,
0000
1001
0000
0110
0000
0000
0000
0000
,
0010
0000
0000
0000
,
0000
1001
0000
0110
0000
0000
0000
0000
,
0001
0000
0000
0000
,
1000
0000
0000
0000
,
1010
0000
0000
0000
,
0011
0000
0000
0000
,
0101
0000
0000
0000
,
1100
0000
0000
0000
,
1010
0000
0000
0000
,
0011
0000
0000
0000
,
0101
0000
0000
0000
,
1010
0000
0000
0000
,
0001
0000
0000
0000
,
0010
0000
0000
0000
,
1000
0000
0000
0000
,
0100
0000
0000
0000
,
0001
0000
0000
0000
,
0100
0000
0000
0000
,
1000
0000
0000
0000
,
0100
0000
0000
0000
,
0001
0000
0000
0000
,
1000
0000
0000
0000
,
0010
0000
0000
0000
,
0100
0000
0000
0000
,
0001
0000
0000
0000
,
1000
0000
0000
0000
,
0010
0000
0000
0000
,
0100
0000
0000
0000
,
1000
0000
0000
0000
,
0001
0000
0000
0000
,
0010
0000
0000
0000
,
0100
0000
0000
0000
,
0001
0000
0000
0000
,
0100
0000
0000
0000
,
0010
0000
0000
0000
,
0100
0000
0000
0000
,
1000
0000
0000
0000
,
0001
0000
0000
0000
,
0010
0000
0000
0000
,
1000
0000
0000
0000
,
0001
0000
0000
0000
,
0100
0000
0000
0000
,
0010
0000
0000
0000
,
0001
0000
0000
0000
,
2000
0000
0000
0000
0000
0000
0000
3000
,
0000
1001
0000
0110
0000
0000
0000
0000
,
0010
0000
0000
0000
,
0000
1001
0000
0110
0000
0000
0000
0000
,
0001
0000
0000
0000
,
0000
1001
0000
0110
0000
0000
0000
0000
,
0001
0000
0000
0000
,
1000
0000
0000
0000
,
0001
0000
0000
0000
,
0000
1001
0000
0110
0000
0000
0000
0000
,
1000
0000
0000
0000
,
0000
1001
0000
0110
0000
0000
0000
0000
,
1000
0000
0000
0000
,
0000
1001
0000
0110
0000
0000
0000
0000
,
1000
0000
0000
0000
,
0001
0000
0000
0000
,
0010
0000
0000
0000
,
1000
0000
0000
0000
,
0010
0000
0000
0000
,
0000
1001
0000
0110
0000
0000
0000
0000
,
0010
0000
0000
0000
,
1000
0000
0000
0000
,
0010
0000
0000
0000
,
0000
1001
0000
0110
0000
0000
0000
0000
,
1000
0000
0000
0000
,
0010
0000
0000
0000
,
0001
0000
0000
0000
,
0000
1001
0000
0110
0000
0000
0000
0000
,
0010
0000
0000
0000
,
1000
0000
0000
0000
,
0010
0000
0000
0000
,
0010
0000
0000
0000
;

//---------------dance-single - ----------------
#NOTES:
     dance-single:
     :
     Hard:
     8:
     0.496,0.935,0.306,0.007,0.095:
0001
0000
0010
1000
0000
0001
0010
0000
1000
0000
0001
1000
0000
0100
0010
0000
,
1100
0000
0010
0001
0000
0010
1000
0000
1000
0000
0001
1000
0000
1000
0010
0000
,
0001
0000
1000
0001
0000
0100
0010
0000
1000
0000
0001
1000
0000
1000
0001
0000
,
0100
0000
0001
1000
0000
0010
1000
0000
0001
0000
0001
1000
0000
0010
0100
0000
,
1001
0000
0100
0001
0000
0100
1000
0000
1001
0000
0001
0010
0000
0100
1000
0000
,
0011
0000
0001
0100
0000
1000
0001
0000
1001
0000
0001
0100
0000
0100
0001
0000
,
0010
0000
0001
0100
0000
0001
1000
0000
1000
0000
0100
0001
0000
0010
1000
0000
,
0001
1000
0100
0001
,
0010
1000
0001
0010
,
1000
0010
0001
1000
,
0010
0001
1000
0001
,
1000
0000
0001
0000
1100
0000
0000
0011
,
0000
1000
0001
0010
,
1000
0001
0010
1000
,
0001
0010
0100
0001
,
1000
0001
0010
1000
,
0001
0010
0100
0001
,
1000
0100
0001
0010
,
0100
1000
0001
1000
,
0010
0100
1000
0001
,
0100
0010
1000
0001
,
0010
0010
1000
1000
,
0100
0100
0001
0001
,
0010
0000
1000
0100
0000
0001
0010
0000
,
0000
1001
0000
0110
0000
0001
0010
0000
,
1001
0000
1000
0010
0000
1000
0010
0000
,
0000
1001
0000
0110
0000
1000
0001
0000
,
0010
0000
1000
0100
0000
0001
0010
0000
,
0000
1001
0000
0110
0000
0001
1000
0000
,
1001
0000
1000
0010
0000
1000
0001
0000
,
0000
1000
0000
0010
0001
0000
0010
0000
,
0001
0000
1000
0100
0000
0001
0010
0000
,
0000
1001
0000
0110
0000
0001
1000
0000
,
1000
0000
0010
0001
0000
1000
0010
0000
,
0000
1001
0000
0110
0000
1000
0001
0000
,
0010
0000
0001
0100
0000
1000
0010
0000
,
0000
1001
0000
0110
0000
1000
0010
0000
,
0001
0000
0010
1000
0000
0001
0010
0000
,
0001
0000
0010
0000
0100
1000
0001
0000
,
1010
0000
0000
0000
,
0000
0000
0000
0000
,
0101
0000
0000
0000
,
0000
0000
0000
0000
,
1010
0000
0000
0000
,
0000
0000
0000
0000
,
0101
0010
1100
0001
,
1010
0100
0011
1000
,
0001
0000
0000
1000
0000
0000
0001
0000
,
0010
1000
0001
0010
,
1000
0010
0001
0010
,
0100
1000
0010
1000
,
0001
1000
0010
0001
,
0100
0010
0001
0010
,
1000
1000
0010
0010
,
0100
0100
0010
1000
,
0001
0001
0100
0010
,
1000
0100
0001
1000
,
0010
0001
1000
0001
,
0100
0010
1000
0100
,
0001
1000
0010
0001
,
1000
0010
0001
1000
,
0010
0001
1000
0010
,
0100
1000
0001
0010
,
1000
0001
0010
1000
,
0001
0010
0100
1000
,
0010
1000
0001
1000
,
0100
0001
1000
0010
,
0001
1000
0010
0001
,
0100
1000
0001
1000
,
0010
0001
1000
0010
,
0100
1000
0001
0010
,
1000
0001
0010
1000
,
0001
0010
0100
1000
,
0010
1000
0001
0010
,
1000
0100
0010
1000
,
0001
0010
1000
0001
,
0100
1000
0001
1000
,
0010
0001
1000
0010
,
0000
1000
0010
0001
,
2000
0000
0010
0010
0000
0010
0010
3000
,
0010
0000
0000
0110
0000
1000
0001
0000
,
0010
0000
0001
0100
0000
1000
0010
0000
,
0000
1001
0000
0110
0000
0010
1000
0000
,
0001
0000
0010
1000
0000
0001
0010
0000
,
0000
1001
0000
0110
0000
1000
0100
0000
,
0001
0000
1000
0010
0000
1000
0001
0000
,
0000
1000
0000
0100
0000
0010
1000
0010
,
0001
0000
0010
0100
0000
1000
0010
0000
,
0000
1001
0000
0110
0000
1000
0001
0000
,
1000
0000
0010
0001
0000
1000
0010
0000
,
0000
1001
0000
0110
0000
1000
0001
0000
,
1000
0000
0010
0001
0000
1000
0010
0000
,
0000
1001
0000
0110
0000
1000
0001
0000
,
1000
0000
0001
0010
0000
1000
0010
0000
,
0001
0000
0010
1000
0000
0000
0001
0000
,
0010
0000
0000
0100
0000
0000
0001
0000
,
1000
0000
0000
0001
0000
0000
1000
0000
,
0010
0000
0000
0100
0000
0000
0010
0000
,
0000
1001
0000
0110
0000
1000
0001
0000
,
0010
0000
0000
0100
0000
0000
0010
0000
,
1000
0000
0000
0001
0000
0000
1000
0000
,
0010
0000
0000
0100
0000
0000
0010
0000
,
0000
1001
0000
0110
0000
1000
0001
0000
,
1000
0000
0000
0001
0000
0000
1000
0000
,
0010
0000
0000
0100
0000
0000
0010
0000
,
0001
0000
0000
1000
0000
0000
0010
0000
,
0000
1001
0000
0110
0000
1000
0001
0000
,
0010
0000
0000
0100
0000
0000
0010
0000
,
1000
0000
0000
0001
0000
0000
1000
0000
,
0010
0000
0000
0100
0000
0000
0001
0000
,
0010
0000
0000
0000
;

//---------------dance-single - ----------------
#NOTES:
     dance-single:
     :
     Medium:
     5:
     0.264,0.486,0.306,0.007,0.020:
0001
1000
0010
0001
,
1100
0001
0010
1000
,
0001
1000
0010
1000
,
0101
0000
0000
0000
0010
0000
0000
0000
0000
1001
0000
0110
0000
0000
0000
0000
,
0010
0000
0000
0000
0100
0000
0000
0000
0000
1001
0000
0110
0000
0000
0000
0000
,
0010
0000
0000
0000
0100
0000
0000
0000
0000
1001
0000
0110
0000
0000
0000
0000
,
0010
0100
1000
0010
,
0001
0000
0100
0000
,
0010
0000
0001
0000
,
1000
0000
0001
0000
,
0010
0000
1000
0000
,
0001
0000
1000
0000
,
0010
0000
0001
0000
,
1000
0000
0010
0000
,
0001
0000
0100
0000
,
1000
0000
0010
0000
,
0001
0000
0100
0000
,
1000
0000
0001
0000
,
0100
0000
0001
0000
,
0010
0000
1000
0000
,
0100
0000
1000
0000
,
0010
0000
1000
0000
,
0100
0000
0001
0000
,
0010
0000
0100
0000
,
0000
1001
0000
0110
0000
0000
0000
0000
,
1000
0000
0010
0000
,
0000
1001
0000
0110
0000
0000
0000
0000
,
0010
0000
0100
0000
,
0000
1001
0000
0110
0000
0000
0000
0000
,
0001
0000
0010
0000
,
1000
0000
0001
0000
,
0010
0000
0100
0000
,
0000
1001
0000
0110
0000
0000
0000
0000
,
1000
0000
0001
0000
,
0000
1001
0000
0110
0000
0000
0000
0000
,
0010
0000
0100
0000
,
0000
1001
0000
0110
0000
0000
0000
0000
,
0001
0000
1000
0000
,
0001
0000
0100
0000
,
1010
0000
0000
0000
,
0000
0000
0000
0000
,
0101
0000
0000
0000
,
0000
0000
0000
0000
,
1010
0000
0000
0000
,
0000
0000
0000
0000
,
0101
0000
1100
0000
,
1010
0000
0011
0000
,
0001
0000
1000
0000
,
0010
0000
0001
0000
,
1000
0000
0001
0000
,
0100
0000
0010
0000
,
0001
0000
0010
0000
,
0100
0000
0001
0000
,
1000
0000
0010
0000
,
0100
0000
0010
0000
,
0001
0000
0100
0000
,
1000
0000
0001
0000
,
0010
0000
1000
0000
,
0100
0000
1000
0000
,
0001
0000
0010
0000
,
1000
0000
0001
0000
,
0010
0000
1000
0000
,
0100
0000
0001
0000
,
1000
0000
0010
0000
,
0001
0000
0100
0000
,
0010
0000
0001
0000
,
0100
0000
1000
0000
,
0001
0000
0010
0000
,
0100
0000
0001
0000
,
0010
0000
1000
0000
,
0100
0000
0001
0000
,
1000
0000
0010
0000
,
0001
0000
0100
0000
,
0010
0000
0001
0000
,
1000
0000
0010
0000
,
0001
0000
1000
0000
,
0100
0000
0001
0000
,
0010
0000
1000
0000
,
0001
0000
0010
0000
,
2000
0000
0010
3000
,
0000
1001
0000
0110
0000
0000
0000
0000
,
0010
0000
0100
0000
,
0000
1001
0000
0110
0000
0000
0000
0000
,
0001
0000
1000
0000
,
0000
1001
0000
0110
0000
0000
0000
0000
,
0001
0000
0010
0000
,
1000
0000
0010
0000
,
0001
0000
0100
0000
,
0000
1001
0000
0110
0000
0000
0000
0000
,
1000
0000
0001
0000
,
0000
1001
0000
0110
0000
0000
0000
0000
,
1000
0000
0001
0000
,
0000
1001
0000
0110
0000
0000
0000
0000
,
1000
0000
0010
0000
,
0001
0000
1000
0000
,
0010
0000
0100
0000
,
1000
0000
0001
0000
,
0010
0000
0100
0000
,
0000
1001
0000
0110
0000
0000
0000
0000
,
0010
0000
0100
0000
,
1000
0000
0001
0000
,
0010
0000
0100
0000
,
0000
1001
0000
0110
0000
0000
0000
0000
,
1000
0000
0001
0000
,
0010
0000
0100
0000
,
0001
0000
1000
0000
,
0000
1001
0000
0110
0000
0000
0000
0000
,
0010
0000
0100
0000
,
1000
0000
0001
0000
,
0010
0000
0100
0000
,
0010
0000
0000
0000
;

//---------------dance-single - ----------------
#NOTES:
     dance-single:
     :
     Challenge:
     9:
     0.573,0.778,0.102,0.041,0.095: // measure 1
1000
0000
0001
0100
0000
0001
0010
0000
0001
0000
0001
0010
0000
0010
0001
0000
,  // measure 2
0001
0000
1000
0100
0000
1000
0100
0000
0010
0000
0100
0010
0000
0100
0010
0000
,  // measure 3
0010
0000
0100
1000
0000
0100
1000
0000
0010
0000
0100
0010
0000
0100
0001
0000
,  // measure 4
1000
0000
0100
0010
0000
0100
1000
0000
0010
0000
0100
0010
0000
0100
0001
0000
,  // measure 5
1000
0000
0100
1000
0000
0010
0100
0000
0001
0000
0100
0010
0000
0100
0001
0000
,  // measure 6
1000
0000
0100
0010
0000
0100
1000
0000
0010
0000
0100
0010
0000
0100
0001
0000
,  // measure 7
0100
0000
0010
1000
0000
0100
0010
0000
0100
0000
1000
0010
0000
0100
0010
0000
,  // measure 8
1000
0001
0100
0010
,  // measure 9
0100
0001
0010
0001
0000
0000
0100
0000
,  // measure 10
0010
0000
1000
0000
0100
0000
0010
0100
,  // measure 11
1000
0100
1000
0010
0000
0000
1000
0000
,  // measure 12
0010
0000
0100
0000
0001
0000
0000
0010
,  // measure 13
0000
0000
0001
0000
1000
0100
0010
0100
,  // measure 14
0000
1000
0010
0000
0100
0010
1000
0100
,  // measure 15
0010
0001
0100
0100
0000
0100
0010
0100
,  // measure 16
0010
0000
0100
0001
0100
0001
0100
0010
,  // measure 17
0100
0001
0100
0010
0000
0000
0100
0000
,  // measure 18
0001
0100
0001
0010
0001
0010
0001
0100
,  // measure 19
0010
0100
0001
0010
0000
0100
0010
0100
,  // measure 20
0010
0000
0100
0000
1000
0000
1000
0010
,  // measure 21
1000
0010
0100
0010
0000
0000
0100
0000
,  // measure 22
0001
0000
1000
0100
1000
0000
0010
0100
,  // measure 23
0010
1000
0100
0010
0000
0100
1000
0000
,  // measure 24
0010
0000
0100
0001
0000
0010
0100
0000
,  // measure 25
0010
0000
0100
1000
0000
0010
1000
0000
,  // measure 26
0100
0000
0010
0100
0000
1000
0010
0000
,  // measure 27
0100
0000
0001
0010
0000
0100
0010
0000
,  // measure 28
0001
0000
0100
0010
0000
0100
0001
0000
,  // measure 29
0100
0000
0010
1000
0000
0100
1000
0000
,  // measure 30
0010
0000
0100
0010
0000
0100
0010
0000
,  // measure 31
0100
0000
0001
0100
0000
0001
0100
0000
,  // measure 32
1001
0000
0100
1000
0000
0100
1000
0000
,  // measure 33
0010
0000
1000
0100
0000
1000
0010
0000
,  // measure 34
1000
0000
0100
1000
0000
0010
1000
0000
,  // measure 35
0100
0000
1000
0001
0000
1000
0001
0000
,  // measure 36
0100
0000
0010
0100
0000
0010
0100
0000
,  // measure 37
0001
0000
1000
0001
0000
1000
0001
0000
,  // measure 38
1000
0000
0010
0100
0000
0010
0100
0000
,  // measure 39
0001
0000
1000
0100
0000
0010
0100
0000
,  // measure 40
0110
0100
1000
0010
,  // measure 41
0010
0100
0010
0100
0010
0000
0100
0000
,  // measure 42
1001
0000
0100
0010
0100
0010
1000
0010
,  // measure 43
0100
0010
1000
0100
0010
0000
1001
0000
,  // measure 44
0000
1000
0100
1000
0100
1000
0010
0100
,  // measure 45
0010
1000
0010
0100
0010
0000
1001
0000
,  // measure 46
0100
0010
0100
0010
0100
0010
0100
0010
,  // measure 47
0100
0010
0100
0010
0100
0010
0100
0010
,  // measure 48
0100
0001
1000
0010
,  // measure 49
0100
0010
1000
0001
,  // measure 50
0101
0100
0010
0100
,  // measure 51
0001
1000
1100
1000
,  // measure 52
0010
1000
0001
0100
,  // measure 53
0010
1000
1001
0010
,  // measure 54
1000
0010
1000
0100
,  // measure 55
0010
0001
0010
0100
,  // measure 56
0010
0001
1000
0001
,  // measure 57
1000
0000
1000
1001
0000
0000
0001
0000
,  // measure 58
1000
0100
1000
0010
,  // measure 59
1000
0000
0100
1100
0000
0000
0010
0000
,  // measure 60
0001
0010
0001
0010
,  // measure 61
0001
0000
0100
0101
0000
0000
0001
0000
,  // measure 62
1000
0010
1000
0010
,  // measure 63
1000
0000
0010
1010
0000
0000
0010
0000
,  // measure 64
1000
0000
0100
1000
0010
1000
0010
1000
,  // measure 65
0100
0000
0010
0000
0001
0000
0100
0010
,  // measure 66
0000
0000
0000
0001
0001
0100
0100
0100
,  // measure 67
0010
0100
0001
0010
,  // measure 68
0100
0000
0000
0000
0010
0100
0010
0000
,  // measure 69
0100
0000
1000
0010
0000
1000
0010
0000
,  // measure 70
1000
0000
0100
1000
0000
0100
1000
0010
,  // measure 71
1000
0000
0100
1000
0000
0010
1000
0010
,  // measure 72
1000
0000
0010
0100
0000
0000
0010
0100
,  // measure 73
0001
0000
0010
0100
0000
0010
0001
0000
,  // measure 74
0100
0000
0010
0100
0000
0010
0100
0000
,  // measure 75
0001
0000
1000
0100
0000
1000
0010
0000
,  // measure 76
1000
0000
0100
1000
0000
0010
0100
0000
,  // measure 77
0010
0000
0100
0001
0000
0010
0001
0000
,  // measure 78
0010
0000
0001
0100
0000
0010
0100
0001
,  // measure 79
0010
0100
0010
0001
0100
0010
0000
0100
,  // measure 80
0001
0000
0010
0100
0000
0010
0100
0000
,  // measure 81
1000
0000
0100
1000
0000
0100
1000
0000
,  // measure 82
0010
0000
0100
0010
0000
0100
0010
0000
,  // measure 83
0100
0000
0001
0100
0000
0001
0100
0000
,  // measure 84
0001
0000
1000
0001
0000
1000
0001
0000
,  // measure 85
1000
0000
0100
0010
0000
0100
1000
0000
,  // measure 86
0001
0000
1000
0001
0000
1000
0001
0000
,  // measure 87
0100
0000
0010
0100
0000
0010
0100
0000
,  // measure 88
0001
0000
1000
0001
0000
1000
0001
0000
,  // measure 89
1000
0000
0010
1000
0000
0010
1000
0000
,  // measure 90
0010
0000
0100
0010
0000
0100
0010
0000
,  // measure 91
0100
0000
0001
1000
0000
0001
1000
0000
,  // measure 92
0001
0000
0010
0100
0000
0010
0001
0000
,  // measure 93
0100
0000
0010
1000
0000
0010
1000
0000
,  // measure 94
0010
0000
0100
0010
0000
1000
0010
0000
,  // measure 95
1000
0000
0100
0010
0000
0001
0010
0000
,  // measure 96
0001
0000
0000
1000
0000
0001
1000
0000
,  // measure 97
1000
0000
0000
0010
0000
1000
0010
0000
,  // measure 98
0100
0000
0000
0001
0000
1000
0001
0000
,  // measure 99
0202
0000
0000
0303
,  // measure 100
0010
0000
0000
1000
0000
0001
0100
0000
,  // measure 101
0010
0000
0000
0100
0000
0001
1000
0000
,  // measure 102
0100
0000
0000
1000
0000
0010
1000
0000
,  // measure 103
2020
0000
0000
3030
,  // measure 104
0010
0000
0000
1000
0000
0010
0100
0000
,  // measure 105
0001
0000
0000
0010
0000
0001
0100
0000
,  // measure 106
0010
0000
0000
0100
0000
0001
1000
0000
,  // measure 107
2002
0000
0000
3003
,  // measure 108
0100
0000
0000
0001
0000
0100
0001
0000
,  // measure 109
0010
0000
0000
0001
0000
0100
0001
0000
,  // measure 110
0010
0000
0000
0000
;
