#TITLE:Carry Me Down;
#ARTIST:Demon Hunter;
#BANNER:Carry Me Down - Demon Hunter.PNG;
#BACKGROUND:Carry Me Down - Demon Hunter-bg.PNG;
#LYRICSPATH:Carry Me Down - Demon Hunter.lrc;
#CDTITLE:.\CDTITLES\DP2HUNT.png;
#MUSIC:Carry Me Down - Demon Hunter.mp3;
#OFFSET:-4.493;
#SAMPLESTART:81.3;
#SAMPLELENGTH:12;
#BPMS:0=72.5;
#BGCHANGES:0=Carry Me Down - Demon Hunter.AVI=1=1=1=0,999=-=1=0=0=0;

//---------------dance-single - ----------------
#NOTES:
     dance-single:
     :
     Easy:
     1:
     0.141,0.129,0.009,0.139,0:
2000
0000
0000
0000
0000
3000
0010
0000
,
0001
0010
1000
0001
,
2000
0000
3000
0010
,
0001
0010
1000
0001
,
2000
0000
3000
0001
,
0010
1000
0010
1000
,
0002
0000
0000
2003
0000
0000
0000
0000
,
3000
0000
0001
1000
,
0010
1000
0020
0030
,
0001
0020
0030
0001
,
1000
0100
0001
1000
,
0010
1000
0010
1000
,
0001
0100
2000
3000
,
1000
0020
0030
1000
,
0010
0001
1000
0001
,
0010
1000
0002
0000
,
0000
0000
0000
0000
0000
0003
1000
0000
,
0010
1000
0002
0000
,
0000
0000
0000
0000
0000
0003
1000
0000
,
0010
1000
0200
0000
,
0000
0000
0000
0000
0000
0300
1000
0000
,
0001
1000
0002
0000
,
0000
0000
0003
1000
,
0001
1000
0110
1000
,
0010
1000
0002
0000
,
0000
0003
0010
0000
1000
0000
0010
0000
,
0001
1000
0010
1000
,
0010
1000
0001
0100
,
1000
0001
2000
0000
,
0000
3000
0001
0000
0010
0000
1000
0000
,
0010
1000
0001
0010
,
1000
0000
0000
0000
;

//---------------dance-single - ----------------
#NOTES:
     dance-single:
     :
     Hard:
     7:
     0.344,0.330,0.056,0.139,0.069:
2100
0010
0001
0010
0000
3000
0010
1000
,
0001
1000
0010
0001
1000
0001
1000
0001
,
2000
0010
0001
0010
0000
3000
0010
1000
,
0001
1000
0010
0001
1000
0010
0001
0001
,
2000
0010
0001
0010
0000
3000
0001
1000
,
0010
0100
1000
0100
0010
0100
1000
0100
,
0002
0000
0000
2003
0000
0000
0000
0000
,
3001
0100
0010
1000
0001
0010
1000
0001
,
0010
0001
1000
0001
0020
0000
0030
1000
,
0001
0000
1000
0000
0020
0000
0000
0000
0000
0030
0100
0000
0001
0000
0010
0000
,
1000
0001
0100
1000
0001
0010
1000
0000
,
0010
0000
0001
0000
1000
0000
0001
0000
0010
1000
0001
0010
1000
0000
0010
0000
,
0001
0000
1000
0000
0100
0000
0001
1000
0010
0001
2000
0010
0001
0000
3000
0001
,
1000
0000
0100
0000
0020
0000
0000
0000
1030
0001
1000
0001
1000
0000
0001
0000
,
0010
0000
0100
1000
0001
0000
0010
0000
1000
0001
0010
1000
0001
0000
0000
0000
,
0010
1001
1000
0010
1002
0010
1000
0010
,
1000
0010
1000
0010
1000
0010
1003
0001
,
0010
0001
1000
0010
1002
0010
1000
0010
,
1000
0010
1000
0010
1000
0010
1003
0001
,
0010
0001
1000
0001
0200
0010
0001
0010
,
0001
0010
0001
0010
0301
0010
1000
0010
,
0001
0010
1000
0100
0002
0010
1000
0010
,
1000
0010
1000
0010
1000
0010
1003
0010
,
0001
0100
1000
0001
0110
0001
1000
0001
,
0010
0001
1000
0010
0002
0010
1000
0010
,
0003
0010
0100
0000
0010
0000
0001
0000
1000
0000
0001
0000
0010
0000
1000
0000
,
0001
0000
0010
0000
1000
0000
0001
0000
0010
0000
0100
0000
1000
0000
0001
1000
,
0000
0010
0000
0000
0100
1000
0010
0000
0001
0000
1000
0000
0100
0000
0001
0000
,
1000
0010
0001
0100
2010
0010
0010
0000
,
0000
3000
0010
0000
0001
0000
1000
0000
0010
0000
0001
0000
1000
0000
0001
0000
,
0010
0001
1000
0010
0001
1000
0010
0100
,
1000
0000
0000
0000
;

//---------------dance-single - ----------------
#NOTES:
     dance-single:
     :
     Medium:
     4:
     0.250,0.215,0.028,0.139,0:
2000
0000
0001
0000
0000
3000
0010
1000
,
0001
0010
1000
0001
,
2000
0000
0000
0000
0001
0000
0000
0000
0000
3000
0000
0000
0010
0000
1000
0000
,
0001
0010
1000
0001
,
2000
0000
0001
0000
0000
3000
0001
1000
,
0010
1000
0010
1000
,
0002
0000
0000
2003
0000
0000
0000
0000
,
0000
3000
0000
0000
0010
0000
0000
0000
0001
0000
0000
0000
1000
0000
0001
0000
,
0010
0000
0001
0000
1000
0000
0001
0000
0020
0000
0000
0000
0000
0030
1000
0000
,
0001
0000
1000
0000
0020
0000
0000
0000
0000
0030
0100
0000
0001
0000
0010
0000
,
1000
0001
0100
1000
0001
0010
1000
0000
,
0010
0001
1000
0001
0010
0000
1000
0010
,
0001
0000
1000
0000
0100
0000
0001
0000
2000
0000
0000
0000
0000
3000
0001
0000
,
1000
0100
0020
0000
0000
0030
1000
0001
,
0010
1000
0001
0010
1000
0010
0001
0000
,
0010
0001
1000
0010
1002
0000
1000
0000
,
1000
0000
1000
0000
1003
0010
1000
0001
,
0010
0001
1000
0010
1002
0000
1000
0000
,
1000
0000
0000
0000
1003
0010
1000
0001
,
0010
0001
1000
0001
0200
0000
0001
0000
,
0001
0000
0001
0000
0301
0010
1000
0010
,
0001
0010
1000
0100
0002
0000
1000
0000
,
1000
0000
1000
0000
1003
0010
1000
0010
,
0001
0100
1000
0001
0110
0001
1000
0000
,
0010
1000
0002
1000
,
0000
0003
0000
0000
0010
0000
0001
0000
1000
0000
0001
0000
0010
0000
1000
0000
,
0001
0010
1000
0001
0010
0000
1000
0000
,
0010
0000
1000
0010
0001
1000
0100
0001
,
1000
0010
0001
0100
2000
0000
0000
0000
,
0000
0000
3001
1000
0010
0001
1000
0001
,
0010
0001
1000
0010
0001
1000
0010
0100
,
1000
0000
0000
0000
;

//---------------dance-single - ----------------
#NOTES:
     dance-single:
     :
     Challenge:
     7:
     0.324,0.386,0.056,0.009,0.176: // measure 1
1000
0000
0001
0000
0010
0000
0001
0000
0000
0001
1000
0000
0100
0000
0010
0000
,  // measure 2
0100
1000
0001
0000
0100
0001
1000
0000
,  // measure 3
0100
0000
0010
0000
0010
0000
0001
0000
0000
0001
1000
0000
0001
0000
0100
0000
,  // measure 4
0010
0100
0001
1000
,  // measure 5
0100
0000
0000
0000
0100
0000
0010
0000
0000
0010
0001
0000
1000
0000
0100
0000
,  // measure 6
0010
0001
1000
0001
,  // measure 7
0100
0010
1000
0002
0000
0000
0000
0003
,  // measure 8
0100
0100
0000
0001
0000
0000
1000
0000
0001
0000
0001
0000
0100
0000
0000
0000
,  // measure 9
0010
0010
1000
0000
0001
0001
0100
0000
,  // measure 10
0010
1000
0001
0000
0100
0000
0001
0000
,  // measure 11
1000
0100
1000
0000
0010
0000
1000
0000
,  // measure 12
0100
0010
0100
0000
1000
0001
0100
0010
,  // measure 13
0100
0010
0100
0010
1000
0001
1000
0100
,  // measure 14
0010
0100
0010
0100
1000
0100
1000
0100
,  // measure 15
0001
0100
0001
0100
1000
0010
1000
0010
,  // measure 16
0001
0010
0001
0010
1000
0000
0010
0001
,  // measure 17
0000
0001
0010
0000
0010
0000
1000
0000
0001
0000
0000
0000
0100
0000
0001
0000
,  // measure 18
0000
0001
0100
0000
0100
0000
0010
0000
1000
0000
0000
0000
0001
0000
0000
0000
,  // measure 19
1000
0000
0001
0000
0001
0000
0010
0001
,  // measure 20
0000
0001
0000
0000
1000
0000
1000
0000
0100
0000
1000
0000
0010
0000
1000
0000
,  // measure 21
0100
1000
0010
1000
1010
0000
0110
0000
,  // measure 22
0101
0001
1000
1000
0001
0001
0010
0010
,  // measure 23
0001
0001
0100
0100
0010
0100
0010
1000
,  // measure 24
0100
0000
1000
0000
0010
0000
0100
0000
0010
1000
0100
0000
0010
0000
0100
1000
,  // measure 25
0000
0000
0010
0000
0100
0010
0000
0000
0100
0001
0100
0001
0100
0000
0110
0000
,  // measure 26
0000
0010
1000
0000
0100
0000
0010
0000
0100
0000
1000
0000
0010
0000
1000
0000
,  // measure 27
0010
0000
0100
0000
0010
0000
1000
0000
0100
0010
0100
0010
0100
0000
1010
0000
,  // measure 28
0000
0010
0100
0000
0100
0000
0001
0000
1000
0100
1000
0100
1000
0010
1000
0010
,  // measure 29
0100
0010
0100
0010
0100
0001
0100
0001
0010
0100
0010
0001
0010
0000
0010
0000
,  // measure 30
0000
0001
0100
0000
0010
0000
0100
0000
0001
1000
0100
1000
0100
0001
0100
0001
,  // measure 31
0100
1000
0100
1000
0010
1000
0010
1000
0010
0100
0010
0100
0010
0000
1001
0000
;
