#TITLE:Can You Feel It;
#ARTIST:David Crowder*Band;
#BANNER:Can You Feel It - David CrowderBand.PNG;
#BACKGROUND:Can You Feel It - David CrowderBand-bg.PNG;
#LYRICSPATH:Can You Feel It - David CrowderBand.lrc;
#CDTITLE:.\CDTITLES\DP2DAVID2.png;
#MUSIC:Can You Feel It - David CrowderBand.mp3;
#OFFSET:-3.178;
#SAMPLESTART:50.3;
#SAMPLELENGTH:12;
#BPMS:0=120;
#BGCHANGES:0=Can You Feel It - David CrowderBand.AVI=1=1=1=0,999=-=1=0=0=0;

//---------------dance-single - ----------------
#NOTES:
     dance-single:
     :
     Easy:
     2:
     0.182,0.171,0.000,0.040,0.000:
0010
0000
0100
0000
,
0010
0000
0100
0000
,
0010
0000
0100
0000
,
1000
0000
0001
0000
,
1000
0000
0001
0000
,
1000
0000
0001
0000
,
0001
0000
1000
0000
,
0001
0000
1000
0000
,
0001
0000
1000
0000
,
0010
0000
0100
0000
,
0000
0000
1000
0000
,
0001
0000
1000
0000
,
0010
0001
0010
0000
,
0010
1000
0010
0000
,
0010
0001
0010
0000
,
0010
1000
0010
0000
,
0001
1000
0001
0000
,
1000
0001
1000
0000
,
0001
1000
0001
0000
,
1000
0001
1000
0000
,
0010
0010
0010
0000
,
0001
0001
0001
0000
,
1000
1000
1000
0000
,
0010
1000
0010
0000
,
1000
0001
1000
0000
,
0001
0010
1000
0000
,
0010
1000
0010
0000
,
1000
0001
1000
0000
,
0010
1000
0001
0000
,
0001
0010
0100
0000
,
1000
0001
1000
0000
,
1000
0001
1000
0000
,
0010
1000
0010
0000
,
0001
0010
0001
0000
,
2000
0000
0001
0000
,
0000
0000
0001
0000
,
3000
0001
1000
0000
,
0010
1000
0010
0000
,
0002
0000
1000
0000
,
0000
0000
1000
0000
,
0003
1000
0001
0000
,
0001
0010
0001
0000
,
1000
0010
1000
0000
,
0001
0010
0001
0000
,
1000
0010
1000
0000
,
1000
0001
1000
0000
,
0010
1000
0100
0020
,
0000
0000
0000
0000
,
0030
1000
0000
0000
,
0001
0010
0001
0000
,
1000
0010
1000
0000
,
0001
1000
0001
0000
,
0010
1000
0010
0000
,
0001
1000
0001
0000
,
0010
0010
0010
0000
,
0001
0001
0001
0000
,
1000
1000
1000
0000
,
0010
1000
0010
0000
,
0010
0001
0010
0000
,
2000
0000
0001
0000
,
0000
0000
0001
0000
,
3000
0001
1000
0000
,
0010
1000
0010
0000
,
0002
0000
1000
0000
,
0000
0000
1000
0000
,
0003
0010
1000
0000
,
1000
0010
1000
0000
,
0001
0010
0001
0000
,
1000
0010
1000
0000
,
0001
0010
0001
0000
,
1000
0010
1000
0000
,
0001
0010
0001
0020
,
0000
0000
0000
0000
,
0030
0000
0000
0000
;

//---------------dance-single - ----------------
#NOTES:
     dance-single:
     :
     Hard:
     5:
     0.315,0.392,0.309,0.080,0.000:
1010
0100
0010
0100
,
0011
1000
0001
1000
,
0101
1000
0001
0010
,
1100
0001
1000
0001
,
1010
0001
1000
0001
,
1010
0100
0010
0100
,
0011
0100
0010
0100
,
1001
1000
0001
1000
,
0011
0000
1000
0001
,
0010
1000
0100
0001
,
0000
0010
1000
0100
,
0001
0010
0000
1000
0000
0000
0001
1000
,
0110
0001
0010
1000
,
0011
1000
0010
0001
,
1010
0001
0010
0001
,
0110
1000
0010
0100
,
1001
0100
0001
0100
,
1010
0001
1000
0100
,
0011
1000
0001
0010
,
1100
0001
1000
0001
,
0110
0110
0110
1000
,
0101
0101
0101
0010
,
1100
1100
1100
0001
,
0010
1000
0010
0001
,
1010
0001
1000
0010
,
0101
0010
1000
0100
,
0011
1000
0010
0001
,
1100
0001
1000
0001
,
0110
1000
0001
1000
,
1001
0010
0100
0001
,
1010
0001
1000
0010
,
1100
0001
1000
0001
,
0010
1000
0010
1000
,
0001
0010
0001
0110
,
2000
0010
0001
0010
,
0000
0010
0001
0010
,
3000
0001
1000
0001
,
0010
1000
0010
1000
,
0002
0010
1000
0010
,
0000
0000
0000
0000
0010
0000
0000
0000
1000
0000
0000
0000
0010
0003
0000
0000
,
0000
1000
0001
1000
,
0001
0010
0001
0100
,
1000
0000
0010
0000
2000
0000
0000
3000
,
0001
0000
0010
0000
0002
0000
0000
0003
,
1000
0010
1000
0002
,
1000
0003
1000
0001
,
0010
1000
0100
0020
,
0000
0000
0000
0030
,
1001
0010
1000
0101
,
0010
0001
0010
1001
,
0010
1000
0010
0101
,
1000
0001
1000
0011
,
1000
0010
1000
0011
,
1000
0001
1000
0110
,
0010
0010
0010
1001
,
0001
0001
0001
1010
,
1000
1000
1000
0011
,
0000
0000
1000
0001
0010
0000
1000
0000
,
0010
0001
0010
0101
,
2000
0010
0001
0010
,
0000
0010
0001
0010
,
3001
0010
1000
0001
,
0010
1000
0010
1000
,
0002
0010
1000
0010
,
0000
0010
1000
0010
,
0003
0000
0010
0001
1000
0000
0001
0000
,
1000
0010
1000
0010
,
0001
0000
0010
0000
0002
0000
0000
0003
,
1000
0000
0010
0000
2000
0000
0000
3000
,
0001
0010
0001
0020
,
1000
0030
1000
0100
,
0001
0010
0001
0020
,
0000
0000
0000
0000
,
0030
0000
0000
0000
;

//---------------dance-single - ----------------
#NOTES:
     dance-single:
     :
     Medium:
     3:
     0.264,0.294,0.047,0.040,0.000:
0010
0100
0010
0100
,
0010
1000
0001
1000
,
0001
1000
0001
0000
,
1000
0001
1000
0001
,
1000
0001
1000
0000
,
0010
0100
0010
0100
,
0010
0100
0010
0000
,
0001
1000
0001
1000
,
0011
0000
1000
0001
,
0010
1000
0100
0001
,
0000
0010
1000
0100
,
0001
0000
0000
1000
0000
0000
0001
0000
,
0010
0001
0010
1000
,
0010
1000
0010
0001
,
0010
0001
0010
0001
,
0010
1000
0010
0100
,
0001
1000
0001
0100
,
1000
0001
1000
0100
,
0001
1000
0001
0010
,
1000
0001
1000
0001
,
0010
0010
0010
1000
,
0001
0001
0001
0010
,
1000
1000
1000
0100
,
0010
1000
0010
0001
,
1000
0001
1000
0010
,
0001
0010
1000
0100
,
0010
1000
0010
0001
,
1000
0001
1000
0001
,
0010
1000
0001
1000
,
0001
0010
0100
0001
,
1000
0001
1000
0010
,
1000
0001
1000
0001
,
0010
1000
0010
1000
,
0001
0010
0001
0110
,
2000
0000
0001
0010
,
0000
0000
0001
0010
,
0000
3000
0001
0000
1000
0000
0001
0000
,
0010
1000
0010
1000
,
0002
0000
1000
0010
,
0000
0000
1000
0010
,
0003
1000
0001
1000
,
0001
0010
0001
0100
,
1000
0010
1000
0100
,
0001
0010
0001
0010
,
1000
0010
1000
0001
,
1000
0001
1000
0001
,
0010
1000
0100
0020
,
0000
0000
0000
0000
,
0000
1030
0001
0000
0010
0000
1000
0000
,
0101
0010
0001
0010
,
1001
0010
1000
0010
,
0101
1000
0001
1000
,
0011
1000
0010
1000
,
0001
1000
0001
1000
,
0010
0010
0010
0010
,
0001
0001
0001
0001
,
1000
1000
1000
1000
,
0010
1000
0010
1000
,
0010
0001
0010
0101
,
2000
0000
0001
0010
,
0000
0000
0001
0010
,
0000
3000
0001
0000
1000
0000
0001
0000
,
0010
1000
0010
1000
,
0002
0000
1000
0010
,
0000
0000
1000
0010
,
0003
0010
1000
0001
,
1000
0010
1000
0010
,
0001
0010
0001
0010
,
1000
0010
1000
0100
,
0001
0010
0001
0010
,
1000
0010
1000
0100
,
0001
0010
0001
0020
,
0000
0000
0000
0000
,
0030
0000
0000
0000
;

//---------------dance-single - ----------------
#NOTES:
     dance-single:
     :
     Challenge:
     7:
     0.325,0.367,0.094,0.060,0.000:
0000
0000
0000
0000
,
0001
0010
0001
0000
,
1000
0100
1000
0000
,
0010
0100
0010
0000
,
0100
0001
0100
0000
,
0010
1000
0100
0000
,
1000
0010
0100
0000
,
0001
0000
0000
0000
1000
0001
0010
0000
,
0100
0000
0000
0010
0000
0001
0000
1000
,
0000
0100
0000
0010
0000
0001
0000
0000
,
1000
0000
0000
0001
0000
0010
0000
0001
,
0000
0000
1000
1000
0000
0001
0001
0000
,
0010
0000
0000
0001
0000
1000
0000
0100
,
0000
1000
0000
0010
0000
0100
0000
0000
,
0001
0000
0000
1000
0000
0001
0000
0010
,
0000
0001
0001
0000
1000
1000
0000
0100
,
0100
0000
0000
0010
0000
0001
0000
1000
,
0000
0001
0000
0010
0000
0100
0000
0010
,
0000
0001
0001
1000
0000
0001
0000
0010
,
0010
0100
0000
0010
0000
0001
0001
0000
,
1000
0000
0100
0010
0000
0100
0000
1000
,
0000
0001
0000
0100
0000
0001
1000
0000
,
0100
0000
1000
0010
0000
1000
0001
0000
,
0100
0010
0100
0001
1000
0100
0010
0100
,
1000
0000
0010
0100
0010
1000
0100
0010
,
0000
0100
1000
0010
0100
0001
0100
0010
,
0000
0100
0001
1000
0000
0100
1000
0010
,
0000
1000
0100
0000
0010
0100
1000
0001
,
0000
0100
0001
0000
1000
0100
0010
0100
,
0000
0010
0100
0000
1000
0001
1000
0100
,
0000
1000
0001
0100
0000
0010
0100
0001
,
0000
0100
0010
0000
0100
0010
0100
0001
,
1000
0000
0000
0100
0010
0000
0100
0000
,
0010
0000
0100
0000
,
0020
0000
0000
1000
,
0100
1000
0100
1000
,
0100
0000
1000
0030
0100
0000
0010
0000
,
1000
0001
0100
1000
,
0020
0100
0001
0100
,
0001
0100
0100
0001
,
0100
0000
0001
0030
0010
0000
0001
0000
,
1000
0100
0010
0100
,
2000
0001
0010
0000
0001
0000
0001
0000
,
0100
0001
0100
0000
0001
0000
0010
0000
,
0001
0001
0010
0001
,
0010
0000
0010
0000
0100
0000
0100
3000
,
0020
0000
0000
0002
0000
0030
2000
0000
,
0000
0000
0000
0000
0000
0000
0003
3000
,
1001
0010
0000
0010
,
1010
0100
0000
0100
,
1001
0001
0011
0001
,
1001
0100
0000
1100
,
0010
1010
0000
1010
,
0010
0110
0000
0101
,
0100
0110
0100
0101
,
0001
1001
1000
1100
,
0100
0000
0010
0000
0100
0010
0100
0000
,
0010
0000
0001
1000
,
0001
0000
0100
0000
,
0001
1000
0001
0100
0010
0100
0001
1000
,
0100
0010
0100
1000
0010
1000
0100
0010
,
0100
1000
0010
0100
,
0001
1000
0001
0100
,
0010
0100
0010
0100
0001
0100
0001
0100
,
0001
1000
0001
1000
0001
1000
0100
1000
,
0100
0010
0100
1000
,
0010
1000
0010
0100
,
0010
1000
0100
0010
0100
0000
1000
0000
,
0001
0100
0001
0010
0100
0000
0010
0000
,
0001
0100
0010
0100
0010
1000
0010
1000
,
0100
1000
0100
1000
0100
0010
0100
0010
,
0200
0000
0000
0320
0000
0000
2030
0000
,
0000
0000
0000
0000
,
3000
0000
0000
0000
;
