#TITLE:Black Box;
#ARTIST:This Beautiful Republic;
#BANNER:Black Box - This Beautiful Republic.png;
#BACKGROUND:Black Box - This Beautiful Republic-bg.png;
#LYRICSPATH:Black Box - This Beautiful Republic.lrc;
#CDTITLE:.\CDTITLES\DP2THIS.png;
#MUSIC:Black Box - This Beautiful Republic.mp3;
#OFFSET:-2.250;
#SAMPLESTART:77.1;
#SAMPLELENGTH:15.0;
#BPMS:0=192;

//---------------dance-single - ----------------
#NOTES:
     dance-single:
     :
     Easy:
     1:
     0.117,0.194,0.034,0.007,0:
1000
0000
0000
0000
,
0010
0000
0000
0000
,
0001
0000
0000
0000
,
0010
0000
0000
0000
,
1000
0000
0000
0000
,
0100
0000
0000
0000
,
0001
0000
0000
0000
,
0010
0000
0000
0000
,
1000
0000
0000
0000
,
0100
0000
0000
0000
,
0001
0000
0000
0000
,
0100
0000
0000
0000
,
0010
0000
0000
0000
,
0001
0000
0000
0000
,
1000
0000
0000
0000
,
0001
0000
0000
0000
,
1000
0000
0000
0000
,
0001
0000
0000
0000
,
0010
0000
0000
0000
,
1000
0000
0000
0000
,
0010
0000
0000
0000
,
1000
0000
0000
0000
,
0001
0000
0000
0000
,
0110
0000
0000
0000
,
1001
0000
0000
0000
,
0100
0000
0000
0000
,
0010
0000
0000
0000
,
0001
0000
0000
0000
,
1000
0000
0000
0000
,
0100
0000
0000
0000
,
0001
0000
0000
0000
,
0100
0000
0000
0000
,
0010
0000
0000
0000
,
0001
0000
0000
0000
,
1000
0000
0000
0000
,
0010
0000
0000
0000
,
0001
0000
0000
0000
,
0100
0000
0000
0000
,
0010
0000
0000
0000
,
0001
0000
0000
0000
,
1000
0000
0000
0000
,
0100
0000
0000
0000
,
0001
0000
0000
0000
,
1000
0000
0000
0000
,
0010
0000
0000
0000
,
0001
0000
0000
0000
,
1000
0000
0000
0000
,
0100
0000
0000
0000
,
0001
0000
0000
0000
,
0010
0000
0000
0000
,
1000
0000
0000
0000
,
0100
0000
0000
0000
,
0001
0000
0000
0000
,
0010
0000
0000
0000
,
1000
0000
0000
0000
,
0100
0000
0000
0000
,
0001
0000
0000
0000
,
0010
0000
0000
0000
,
1000
0000
0000
0000
,
0110
0000
0000
0000
,
1001
0000
0000
0000
,
0100
0000
0000
0000
,
0010
0000
0000
0000
,
0001
0000
0000
0000
,
1000
0000
0000
0000
,
0001
0000
0000
0000
,
0010
0000
0000
0000
,
1000
0000
0000
0000
,
0001
0000
0000
0000
,
0100
0000
0000
0000
,
0010
0000
0000
0000
,
0001
0000
0000
0000
,
1000
0000
0000
0000
,
0100
0000
0000
0000
,
0010
0000
0000
0000
,
1000
0000
0000
0000
,
0001
0000
0000
0000
,
0100
0000
0000
0000
,
0010
0000
0000
0000
,
0001
0000
0000
0000
,
1000
0000
0000
0000
,
0100
0000
0000
0000
,
0001
0000
0000
0000
,
1000
0000
0000
0000
,
0010
0000
0000
0000
,
0100
0000
0000
0000
,
0001
0000
0000
0000
,
1000
0000
0000
0000
,
0010
0000
0000
0000
,
0001
0000
0000
0000
,
2000
0000
0000
0000
,
0000
0000
0000
0000
,
3001
0000
0000
0000
,
0100
0000
0000
0000
,
0010
0000
0000
0000
,
1000
0000
0000
0000
,
0001
0000
0000
0000
,
0100
0000
0000
0000
,
1000
0000
0000
0000
,
0001
0000
0000
0000
,
0010
0000
0000
0000
,
0100
0000
0000
0000
,
0001
0000
0000
0000
,
0010
0000
0000
0000
,
1000
0000
0000
0000
,
0100
0000
0000
0000
,
0001
0000
0000
0000
,
0100
0000
0000
0000
,
1001
0000
0000
0000
,
0100
0000
0000
0000
,
0010
0000
0000
0000
,
1000
0000
0000
0000
,
0001
0000
0000
0000
,
1000
0000
0000
0000
,
0010
0000
0000
0000
;

//---------------dance-single - ----------------
#NOTES:
     dance-single:
     :
     Hard:
     6:
     0.356,0.467,0.068,0.034,0:
1000
0010
0001
0000
,
0010
1000
0100
0000
,
0001
0010
1000
0000
,
0010
0001
0100
0000
,
1000
0010
0001
0000
,
0100
1000
0010
0000
,
0001
0010
1000
0000
,
0010
1000
0100
0000
,
1000
0010
0001
0000
,
0100
0001
0010
0000
,
0001
1000
0001
0000
,
0100
0001
0100
0000
,
0010
1000
0010
0000
,
0001
0010
0001
0000
,
1000
0100
1000
0000
,
0001
0100
0001
0000
,
1000
0010
1000
0000
,
0001
1000
0001
0000
,
0010
1000
0001
0000
,
1000
0010
0001
0000
,
0010
0001
0100
0000
,
1000
0100
0010
0000
,
0001
0010
1000
0000
,
0110
0000
0000
0000
,
1001
0100
0010
0000
,
0100
1000
0001
0000
,
0010
0001
1000
0000
,
0001
1000
0010
0000
,
1000
0010
0001
0000
,
0100
1000
0010
0000
,
0001
0010
1000
0000
,
0200
0000
0302
0000
,
0003
0000
1000
0010
,
0001
0000
0010
0001
,
1000
0000
0100
1000
,
0010
0000
1000
0100
,
0001
0000
0010
0001
,
0100
0000
1000
0001
,
0010
0000
0100
1000
,
0001
0000
0020
0000
,
1000
0000
0100
0000
,
1000
0000
0130
0000
,
0001
0000
0100
0001
,
1000
0000
0001
1000
,
0010
0000
1000
0010
,
0001
0000
0010
0001
,
1000
0000
0001
1000
,
0100
0000
0010
0100
,
0001
0000
1100
0001
,
0010
0000
0100
0010
,
1000
0000
0001
1000
,
0100
0000
0010
0100
,
0001
0000
1000
0001
,
0010
0000
0100
0010
,
1000
0000
0001
1000
,
0100
0000
0010
0100
,
0001
0000
1000
0001
,
0010
0000
0100
0001
,
1000
0000
0001
1000
,
0110
0000
0000
0000
,
1001
0100
0010
0000
,
0100
1000
0001
0000
,
0010
0001
1000
0000
,
0001
1000
0010
0000
,
1000
0001
0100
0000
,
0001
0010
1000
0000
,
0010
0001
0100
0000
,
2000
0000
0000
0000
0010
0000
0000
3000
,
0001
0010
1000
0000
,
0100
1000
0001
0000
,
0010
0001
1000
0000
,
0001
0100
0010
0000
,
1000
0010
0001
0000
,
0100
0001
1000
0000
,
0010
0001
0100
0000
,
1000
0100
0010
0000
,
0001
0010
1000
0000
,
0100
0001
1000
0000
,
0010
0100
1000
0000
,
0001
0100
0010
0000
,
1000
0010
0001
0000
,
0100
1000
0010
0000
,
0001
0010
0100
0000
,
1000
0010
0100
0000
,
0011
0000
1100
0010
,
0001
0000
0010
1000
,
0001
0000
0100
0010
,
1000
0000
0001
0100
,
0010
0000
1000
0010
,
0001
0000
0010
0100
,
2001
0000
0010
0000
,
0001
0000
0000
0000
0010
3000
0000
0000
,
0001
0010
0000
0100
0010
0000
1000
0001
,
0000
1000
0001
0000
0100
0010
0100
0000
,
1000
0001
0000
1000
0001
0000
0010
0100
,
0000
0100
0010
0000
0001
1000
0001
0000
,
0100
0010
0000
0010
0100
0000
0001
1000
,
0000
0001
1000
0000
0010
0001
0100
0000
,
0001
1000
0000
1000
0001
0000
0001
1000
,
0000
0010
0100
0000
0100
0010
0100
0000
,
0001
0000
0000
0000
1000
0000
0000
0100
,
0000
0010
1000
0100
,
0001
0000
0010
0000
1000
0000
0000
0010
,
0000
0001
0100
1000
,
0000
0010
0001
0100
,
0000
0001
0010
0000
,
0001
0010
1000
0000
,
0110
0000
0000
0000
,
1001
0100
0010
0000
,
0100
1000
0001
0000
,
0010
1000
0100
0000
,
1000
0001
0010
0000
,
0001
0010
0100
0000
,
1000
0100
0001
0000
,
0010
0001
1000
0000
;

//---------------dance-single - ----------------
#NOTES:
     dance-single:
     :
     Medium:
     3:
     0.226,0.270,0.068,0.027,0:
1000
0000
0001
0000
,
0010
0000
0100
0000
,
0001
0000
1000
0000
,
0010
0000
0100
0000
,
1000
0000
0001
0000
,
0100
0000
0010
0000
,
0001
0000
1000
0000
,
0010
0000
0100
0000
,
1000
0000
0001
0000
,
0100
0000
0010
0000
,
0001
0000
0001
0000
,
0100
0000
0100
0000
,
0010
0000
0010
0000
,
0001
0000
0001
0000
,
1000
0000
1000
0000
,
0001
0000
0001
0000
,
1000
0000
1000
0000
,
0001
0000
0001
0000
,
0010
0000
0001
0000
,
1000
0000
0001
0000
,
0010
0000
0100
0000
,
1000
0000
0010
0000
,
0001
0000
1000
0000
,
0110
0000
0000
0000
,
1001
0000
0010
0000
,
0100
0000
0001
0000
,
0010
0000
1000
0000
,
0001
0000
0010
0000
,
1000
0000
0001
0000
,
0100
0000
0010
0000
,
0001
0000
1000
0000
,
0200
0000
0001
0000
,
0000
0300
0000
0000
1000
0000
0000
0000
,
0001
0000
0010
0000
,
1000
0000
0100
0000
,
0010
0000
1000
0000
,
0001
0000
0010
0000
,
0100
0000
1000
0000
,
0010
0000
0100
0000
,
0001
0000
0020
0000
,
1000
0000
0000
0000
,
1000
0000
0030
0000
,
0001
0000
0100
0000
,
1000
0000
0001
0000
,
0010
0000
1000
0000
,
0001
0000
0010
0000
,
1000
0000
0001
0000
,
0100
0000
0010
0000
,
0001
0000
1100
0000
,
0010
0000
0100
0000
,
1000
0000
0001
0000
,
0100
0000
0010
0000
,
0001
0000
1000
0000
,
0010
0000
0100
0000
,
1000
0000
0001
0000
,
0100
0000
0010
0000
,
0001
0000
1000
0000
,
0010
0000
0100
0000
,
1000
0000
0001
0000
,
0110
0000
0000
0000
,
1001
0000
0010
0000
,
0100
0000
0001
0000
,
0010
0000
1000
0000
,
0001
0000
0010
0000
,
1000
0000
0100
0000
,
0001
0000
1000
0000
,
0010
0000
0100
0000
,
2000
0000
0000
0000
,
0001
3000
0000
0000
1000
0000
0000
0000
,
0100
0000
0001
0000
,
0010
0000
1000
0000
,
0001
0000
0010
0000
,
1000
0000
0001
0000
,
0100
0000
1000
0000
,
0010
0000
0100
0000
,
1000
0000
0010
0000
,
0001
0000
1000
0000
,
0100
0000
1000
0000
,
0010
0000
1000
0000
,
0001
0000
0010
0000
,
1000
0000
0001
0000
,
0100
0000
0010
0000
,
0001
0000
0100
0000
,
1000
0000
0100
0000
,
0011
0000
1100
0000
,
0001
0000
0010
0000
,
0001
0000
0100
0000
,
1000
0000
0001
0000
,
0010
0000
1000
0000
,
0001
0000
0010
0000
,
2001
0000
0000
0000
,
0001
0000
0000
0000
0000
0000
0000
3000
,
0001
0000
0010
0000
,
0100
0000
1000
0000
,
0010
0000
0001
0000
,
1000
0000
0010
0000
,
0001
0000
1000
0000
,
0100
0000
0001
0000
,
1000
0000
0010
0000
,
0001
0000
0100
0000
,
0010
0000
1000
0000
,
0100
0000
1000
0000
,
0001
0000
1000
0000
,
0010
0000
0100
0000
,
1000
0000
0001
0000
,
0100
0000
0010
0000
,
0001
0000
1000
0000
,
0110
0000
0000
0000
,
1001
0000
0010
0000
,
0100
0000
0001
0000
,
0010
0000
0100
0000
,
1000
0000
0010
0000
,
0001
0000
0100
0000
,
1000
0000
0001
0000
;

//---------------dance-single - ----------------
#NOTES:
     dance-single:
     :
     Challenge:
     9:
     0.617,0.662,0.313,0.068,0:
0000
0000
0000
0000
,
0000
0000
0000
0000
,
1000
0000
0001
0000
,
0010
0000
0001
0000
,
1000
0100
0010
0010
,
0100
1000
0001
0001
,
0100
0010
0100
0100
,
0001
1000
0100
0100
,
0010
0000
0100
0010
0100
0000
0010
0000
,
0001
0000
0100
0001
0100
0000
0010
0000
,
0100
0000
0010
0100
0010
0000
1000
0000
,
0100
0010
0000
0100
0000
0000
1000
0000
,
0010
0000
0100
0010
0100
0000
0001
0000
,
1000
0000
0100
1000
0100
0000
1000
0000
,
0010
0000
0100
0010
0100
0000
0001
0000
,
0010
0100
0010
0001
,
0100
0010
0100
0000
0001
0100
0001
0000
,
1000
0100
1000
0000
0001
0100
0001
0000
,
0100
0010
0100
0000
0001
0100
0001
0000
,
1000
0100
1000
0000
0100
0010
0100
0000
,
1000
0100
1000
0000
0100
0010
0100
0010
,
0100
0010
0100
0000
0010
0001
0100
0000
,
0010
1000
0001
0010
0100
0010
0100
1000
,
0202
0000
0000
0303
,
0101
1000
1100
1000
,
0110
0100
0101
0001
,
1000
0100
1000
0100
1000
0100
1000
0000
,
0010
0100
0110
0000
0001
1000
1100
0000
,
0100
1000
0100
1000
0010
0100
0010
0100
,
0001
0100
0001
0100
0001
0010
0100
0010
,
0100
0010
0001
0000
0100
0010
0100
0000
,
0100
0001
1010
0000
0100
0010
1001
0000
,
0100
0010
0100
0010
,
1000
0100
0010
0100
,
1000
0010
0100
0010
1000
1000
0100
0010
,
0100
1000
0110
0000
0100
0010
0110
0000
,
0010
0100
0010
0001
0100
0010
1000
0100
,
0010
0100
1000
0010
0100
0010
1000
0100
,
0010
0001
0100
0010
0100
0001
0010
0100
,
0010
0001
0100
0010
0100
0010
0100
0000
,
0110
0000
0100
0010
0000
0100
0010
1000
,
0100
0000
0010
0100
0000
0100
0010
0100
,
0010
0000
0100
0001
0000
0010
0001
0100
,
0010
0000
0100
0010
0000
0010
1000
0010
,
0100
0000
0010
0100
0010
0100
0010
1000
,
0000
0010
0100
0100
0010
0100
0001
0010
,
0000
0100
0010
0001
0100
0010
0100
0000
,
0010
0100
0000
0010
0000
0001
0100
0000
,
0010
0100
0001
0010
0100
0010
0001
0001
,
0000
0100
0010
0100
0001
0010
0100
0100
,
0000
0010
0100
0010
0001
0010
0100
0010
,
0000
1000
0000
0010
1000
0100
0010
0100
,
1000
1000
0010
0010
,
0100
0100
0001
0001
,
0010
0010
0100
0100
,
1000
1000
0001
1000
,
0100
0010
0100
1000
,
0010
0100
0101
0001
,
0011
0010
0110
0010
,
0022
0000
0000
0033
,
1100
1000
0010
0100
0010
0100
0010
1000
,
0100
0010
0001
0010
0100
0010
0100
0000
,
0001
0010
0100
0010
0001
0100
0110
0000
,
0001
0010
0101
0000
0001
0010
0110
0000
,
0010
0100
0100
1000
0100
0010
0100
1000
,
0010
0100
0010
1000
0100
0010
0100
1000
,
0100
0001
0100
1000
0100
0001
0100
1000
,
0010
0100
1010
0000
0100
0010
1010
0000
,
0100
0010
0100
0001
0010
0100
0010
0001
,
0100
0010
0100
0010
0100
0010
1000
0100
,
0010
0100
1000
0010
0100
0010
1000
0100
,
0010
0001
0100
0010
0100
1000
0100
0001
,
0100
1000
0100
1000
0100
0100
0001
0100
,
0010
0010
0100
0100
0001
0010
0100
0010
,
0001
0100
0010
0001
0010
0100
1000
0010
,
0001
0010
1000
0010
0001
0010
1000
0100
,
0020
0000
2030
0000
,
3010
0010
1000
1000
,
0001
0001
0100
0100
,
0010
0100
0101
0001
,
1001
1000
1000
0010
,
0010
1000
0001
1000
,
0100
0001
0101
0100
,
1000
1000
1100
1000
,
1010
0010
1000
0100
,
1000
0010
0100
0010
,
1000
0100
1100
1000
,
0010
0010
1000
0001
,
0101
0100
0001
0001
,
1000
1000
0010
0010
,
1001
0001
1000
0001
,
1001
0000
1001
0000
,
1000
0001
0000
1000
0001
0000
1000
0010
,
0000
0010
1000
0000
0110
0000
0110
0000
,
0010
0100
0000
0100
0001
0000
1000
0100
,
0000
0010
0100
0000
1001
0000
1001
0000
,
0100
0001
0000
0001
0010
0000
0001
0010
,
0000
0010
0100
0000
1010
0000
1010
0000
,
1000
0010
0000
0010
1000
0000
1000
0100
,
0000
0100
1000
0000
0011
0000
0011
0000
,
2000
0000
3020
0000
,
0030
0000
0010
0100
,
0000
0200
0020
0000
,
0330
0000
1000
0001
,
1000
0000
0001
0000
,
0010
0000
0001
0000
,
1000
1000
0001
0001
,
0101
0000
0000
0000
,
0101
0100
0110
0010
,
0100
0100
0101
0001
,
1000
0100
0010
0100
,
1000
0010
1000
0000
0100
0010
0100
0000
,
1000
0010
0110
0100
,
0101
0001
0010
0001
,
0100
0000
0100
0000
;
