#TITLE:(Never Gonna) Steal My Joy;
#ARTIST:Mandisa;
#BANNER:(Never Gonna) Steal My Joy - Mandisa.png;
#BACKGROUND:(Never Gonna) Steal My Joy - Mandisa-bg.png;
#LYRICSPATH:(Never Gonna) Steal My Joy - Mandisa.lrc;
#CDTITLE:.\CDTITLES\DP2MANDI.png;
#MUSIC:(Never Gonna) Steal My Joy - Mandisa.mp3;
#OFFSET:-1.969;
#SAMPLESTART:40.3;
#SAMPLELENGTH:16.0;
#BPMS:0=125;

//---------------dance-single - ----------------
#NOTES:
     dance-single:
     :
     Easy:
     2:
     0.155,0.177,0.051,0.015,0:
0000
0000
0000
0000
,
1000
0000
0001
0000
,
1000
0000
0002
0000
,
0000
0003
0100
0000
,
0011
0000
0100
0000
,
1000
0000
0001
0000
,
0010
0000
1000
0000
,
0001
0000
1000
0000
,
0010
0000
0001
0000
,
1000
0000
0100
0000
,
0010
0000
0100
0000
,
0001
0000
0100
0000
,
0010
0000
0100
0000
,
1000
0000
0001
0000
,
0010
0000
0001
0000
,
1000
0000
0001
0000
,
1000
0001
0100
0000
,
0001
0000
1000
0000
,
0010
0001
1000
0000
,
0001
0000
1000
0000
,
0110
0000
0001
0000
,
1000
0000
0100
0000
,
0010
0000
1000
0000
,
0001
0000
1000
0000
,
0110
0000
0001
0000
,
0001
0000
1000
0000
,
0001
0000
1000
0000
,
0010
0000
0100
0000
,
1001
0000
0100
0000
,
0010
0000
1000
0000
,
0010
0000
0001
0000
,
1000
0000
0010
0000
,
1000
0000
0100
0000
,
0001
0000
1000
0000
,
0001
0000
0100
0000
,
0010
0000
1000
0000
,
0001
0000
0010
0000
,
1000
0000
0100
0000
,
0001
0000
1000
0000
,
0010
0000
1000
0000
,
0001
0010
1000
0000
,
0010
0000
0001
0000
,
1000
0001
0100
0000
,
0010
0000
0100
0000
,
1001
0000
0010
0000
,
1000
0000
0100
0000
,
0001
0000
0010
0000
,
1000
0000
0100
0000
,
0011
0000
0100
0000
,
0001
0000
0010
0000
,
1000
0000
0001
0000
,
0010
0000
0010
0000
,
1001
0000
0010
0000
,
1000
0000
0001
0000
,
0010
0000
1000
0000
,
0001
0000
1000
0000
,
0010
0000
0001
0000
,
1000
0000
0100
0000
,
0010
0000
1000
0000
,
0001
0000
0100
0000
,
0010
0000
0001
0000
,
1000
0000
1000
0000
,
0002
0000
0003
0000
,
1000
0000
0001
0000
,
0010
0000
1000
0000
,
0001
0000
0010
0000
,
1000
0000
0100
0000
,
0010
0000
0100
0000
,
0001
0000
0010
0000
,
1000
0000
0100
0000
;

//---------------dance-single - ----------------
#NOTES:
     dance-single:
     :
     Hard:
     6:
     0.390,0.406,0.452,0.051,0.157:
0000
0000
0000
0000
,
0001
1000
0001
1000
,
0010
0000
1000
0001
0000
0000
0002
0000
0000
1000
0000
0000
,
0013
0000
0000
0001
0100
0001
1000
0100
0010
0001
0000
0000
,
1000
0100
0001
1000
,
0020
0000
0000
0001
0000
0000
2030
0000
0000
0000
3000
0000
,
0001
0000
0000
1000
0000
0000
0010
0000
1000
0001
0000
0000
,
0010
0000
0000
1000
0000
0000
0100
0000
0000
0010
0000
1000
,
0100
0000
0000
0001
0010
0000
0001
0000
0000
1000
0000
0000
,
0011
1000
0001
0010
,
1000
0000
0001
0100
0000
0000
1000
0000
0010
0001
0000
0000
,
1000
0000
0001
0100
0000
0000
0001
0000
0000
0010
0000
0000
,
0001
0000
1000
0100
0000
0000
0001
0000
0010
1000
0000
0000
,
0010
0000
1000
0001
0000
0000
0100
0000
0000
0010
0000
0000
,
0100
0000
1000
0001
0000
0000
0010
0000
0001
0000
1000
0000
,
0010
0000
0100
0000
0002
0000
0010
0000
0003
0000
0000
0000
,
1100
0000
0000
0110
0000
0000
0011
0000
0000
1000
0000
0010
,
0001
0000
0000
0010
0000
0001
1000
0000
0000
0100
0000
0000
,
0011
0000
0000
0110
0000
0000
1100
0000
0000
0001
0000
1000
,
0001
0000
0000
1000
0000
0001
1000
0000
0000
0010
0000
0000
,
0110
1100
0011
0100
,
1010
0110
0101
0000
,
1010
0110
1001
0010
,
0101
0110
1100
0000
,
0110
1100
0011
1000
,
0101
0110
1100
0000
,
1001
0011
1100
0010
,
0101
0011
1100
0010
,
1001
0000
0100
1000
,
0002
0000
0000
1000
0000
0000
0010
0000
0000
1000
0003
0000
,
0110
0001
1000
0010
,
0100
0001
1000
0000
,
0100
0000
0000
0010
0000
0000
0100
0000
0000
0010
0000
1000
,
0100
0010
1001
0110
,
0001
0000
1000
0100
0000
0000
0001
0000
0001
0000
0010
0000
,
1000
0000
0010
0000
0001
0000
0001
0000
0000
1000
0000
0000
,
0010
0000
1000
0001
0000
0000
1000
0000
0001
1000
0000
0000
,
0100
0000
0000
0010
0000
0000
0001
0000
0000
0100
0000
0001
,
1000
0000
0000
0001
0000
1000
0010
0000
0000
0011
0000
0000
,
2000
0010
0001
0010
,
3000
0000
0000
0001
0000
1000
0010
0000
0000
1000
0000
0010
,
0001
0010
1000
0001
,
0100
0000
0000
1000
0000
0001
0010
0000
0000
1000
0000
0001
,
0100
0010
1001
0110
,
1010
0001
1100
1001
,
0110
0010
0101
1100
,
0110
0001
1010
0101
,
0110
1000
0011
1010
,
0101
1000
0101
1010
,
0011
0100
1010
0110
,
0011
0100
0011
1100
,
0011
0100
1001
0100
,
0010
0100
1000
0010
,
0001
0100
0010
0110
,
1000
0010
0001
0100
,
1000
0000
0001
1000
0000
0000
0010
0000
0000
1000
0000
0000
,
0001
0010
1000
0010
,
0100
0000
0000
1000
0000
0001
0010
0000
0000
0100
0000
0000
,
1000
0000
0000
0010
0000
0000
0001
0000
0000
0010
0000
0001
,
0100
1000
0010
1000
,
0001
0000
0000
0010
0000
0001
1000
0000
0000
0010
0000
0000
,
1000
0000
0000
0100
0000
0000
0001
0000
0000
0001
0000
2000
,
0000
0000
0000
3100
0000
0001
1000
0000
0000
0010
0000
0000
,
0001
0100
0010
0100
,
1000
0010
0001
1000
,
0010
0001
1000
0010
,
0100
1000
0010
0001
,
0100
0010
0001
0100
,
0010
0100
1000
0010
,
0100
1000
0010
0000
;

//---------------dance-single - ----------------
#NOTES:
     dance-single:
     :
     Medium:
     4:
     0.328,0.355,0.321,0.029,0.007:
0000
0000
0010
1000
,
0001
0000
0000
1000
0000
1000
0001
0000
0000
0001
0000
0000
,
1000
0010
2000
0001
,
3010
0100
1000
0011
,
1000
0100
0001
1000
,
0010
0001
1000
0010
,
0001
1000
0010
0001
,
0010
1000
0100
0010
,
0100
0001
0010
1000
,
0001
1000
0001
0010
,
1000
0100
1000
0001
,
1000
0100
0001
0010
,
0001
0100
0001
1000
,
0010
0001
0100
0010
,
0100
0001
0010
1000
,
0100
0001
0001
0010
,
1100
0110
0011
1000
,
0001
0010
1000
0100
,
0011
0110
1100
0001
,
0001
1000
1000
0001
,
0110
1000
0011
0100
,
1010
0100
0101
0000
,
1010
0100
1001
0010
,
0101
0010
1100
0000
,
0110
1000
0011
1000
,
0101
0010
1100
0000
,
1001
0010
1100
0010
,
0101
0010
1100
0010
,
1001
0000
0100
1000
,
0002
0000
0000
0000
0000
0000
0000
0000
0000
0000
0003
0000
,
0110
0001
1000
0010
,
0100
0001
1000
0000
,
0100
0010
0100
0010
,
0100
0010
1001
0110
,
0001
0100
0001
0010
,
0001
1000
0010
0001
,
1000
0010
0001
1000
,
0001
0100
0010
0001
,
0100
1000
0001
0010
,
2000
0000
0001
0000
,
3000
0001
0010
1000
,
0001
0010
1000
0001
,
0100
1000
0010
1000
,
0100
0010
1001
0100
,
1010
0001
1100
0001
,
0110
0010
0101
1000
,
0110
0001
1010
0001
,
0110
1000
0011
1000
,
0101
1000
0101
1000
,
0011
0100
1010
0100
,
0011
0100
0011
1000
,
0011
0100
1001
0100
,
0010
0100
1000
0010
,
0001
0100
0010
0100
,
1000
0010
0001
0100
,
1000
0001
0010
1000
,
0001
0010
1000
0010
,
0100
1000
0010
0100
,
1000
0010
0001
0010
,
0100
1000
0010
1000
,
0001
0010
1000
0010
,
1000
0000
0000
0100
0000
0000
0001
0000
0000
0010
0000
2000
,
0000
3100
1000
0010
,
0001
0100
0010
0100
,
1000
0010
0001
1000
,
0010
0001
1000
0010
,
0100
1000
0010
0001
,
0100
0010
0001
0100
,
0010
0100
1000
0010
,
0100
1000
0010
0000
;

//---------------dance-single - ----------------
#NOTES:
     dance-single:
     :
     Challenge:
     7:
     0.460,0.595,0.212,0.511,0.500:
0000
0000
0000
0000
,
0000
0000
0000
0000
,
0001
0000
0100
0000
0000
0001
0000
1000
0000
0010
0000
0000
,
0010
0000
0100
0000
0000
0010
0000
1000
0000
0001
0000
0000
,
1001
0000
0000
0100
0000
0001
0000
1000
0000
0001
0000
0000
,
0100
0000
0010
0000
0000
0100
0000
0010
0000
1000
0000
0000
,
0010
0000
0100
0000
0000
0010
0000
1000
0000
0001
0000
0000
,
0001
1000
0001
0010
0000
0000
0100
1000
0001
1000
0000
0000
,
1001
0000
0001
1000
0001
0100
0001
0000
0000
0001
0000
0100
,
0010
0000
0000
1000
0000
0100
1000
0000
0000
0110
0000
0000
,
0100
0000
0000
0010
1000
0100
0010
0000
0100
0000
1000
0000
,
0010
0000
1000
0000
0001
0000
0100
0000
0000
0110
0000
0000
,
0100
0000
0000
0001
1000
0001
1000
0000
0000
0100
0000
1000
,
0010
0000
0100
0010
0000
1000
0001
0000
0000
0101
0000
0000
,
0010
0000
0010
0100
0001
1000
0100
0000
0010
0000
0100
0000
,
1000
0000
0001
0000
1000
0000
0100
0000
0000
0010
0000
0000
,
0200
0000
0000
2300
0000
0002
0000
3003
0000
1000
0010
1000
,
0010
0000
0010
0100
0000
0001
0100
0000
0000
0001
0000
0000
,
1000
0000
0000
2000
0000
3001
0000
0000
0000
0001
0100
0010
,
0100
0000
0000
0101
0000
0001
1000
0000
0000
0001
0000
0000
,
0200
0320
2030
3002
,
0203
0000
0000
0302
0000
1000
0103
2000
0000
0000
0000
0000
,
3010
0000
0010
0000
0100
0000
0200
0000
0000
0301
0000
0000
,
1000
0000
1000
0000
0001
0000
0001
0000
0000
1010
0000
0000
,
0010
0100
0010
1000
,
0001
0000
0000
0100
0000
0010
0100
0001
0000
0000
0000
0000
,
1001
0110
0101
0001
,
1001
0000
0000
0110
0000
0010
0100
0000
0000
1000
0000
0000
,
0001
0000
0001
0000
1000
0000
0010
0000
0100
0000
0010
0000
,
1000
0000
0001
0000
0100
0000
0010
0000
0100
0000
0001
0000
,
1000
0000
0001
0000
0100
0000
0001
0000
1000
0000
0100
0000
,
0010
0100
1000
0100
0000
0000
0010
0100
0010
0100
0000
0000
,
0010
0000
0000
0100
0000
1000
0000
0000
1000
0001
0000
0100
,
0000
0000
0010
0100
0000
0001
0100
0000
0000
0002
0000
0000
,
1000
0000
0003
1000
0010
0100
0010
0000
1000
0000
0100
0000
,
0010
0000
0100
0000
1000
0000
2000
0000
0000
0010
0000
3000
,
0100
0000
0010
1000
0000
1000
0001
0000
0100
0010
0000
0010
,
0100
0000
0010
1000
0000
0100
0010
0000
0000
0110
0000
0000
,
1000
0000
0000
0001
0100
0010
0100
0000
0100
0000
0010
0000
,
0010
0000
1000
0000
0100
0000
0010
0000
0000
0100
0000
0000
,
2000
0000
0000
0001
0000
0001
0000
0000
3000
0100
0010
0100
,
0001
0000
0100
0001
0000
1000
0001
0000
0000
0200
0000
0000
,
0002
0000
0303
1000
0000
2000
0000
0000
3000
0010
0100
0010
,
1000
0000
0000
0100
0000
0010
0100
0000
0000
1000
0000
0000
,
2002
0000
3003
1000
0000
0000
0220
0000
0330
0010
0000
0000
,
0220
0000
0330
0100
0000
0000
0202
0000
0303
0001
0000
0000
,
1001
0000
1010
0000
0011
0000
2002
0000
3003
0001
0000
0000
,
0011
0000
0110
0000
1100
0000
0220
0000
0330
0100
0000
0000
,
2002
0000
3003
0001
0000
0000
0220
0000
0330
0010
0000
0000
,
0202
0000
0303
0001
0000
1000
0001
1000
0000
0000
0001
0100
,
0002
0000
0000
0203
0000
0000
0310
0000
1000
0100
0000
0100
,
1000
0000
1000
0010
0000
0100
0010
0000
0000
1000
0000
0002
,
0000
0000
0000
0003
0100
0010
0100
0000
0001
0000
0000
0001
,
1000
0000
0001
0000
0100
0000
0010
0000
1000
0000
0100
0000
,
0010
0000
0100
0000
1000
0010
1000
0000
0001
0000
0000
0000
,
0010
0100
1000
0100
0000
0000
1000
0010
1000
0010
0000
0100
,
0020
2030
3002
0003
,
0002
0203
0320
1030
,
2000
3020
0230
0300
,
0002
2003
3002
0103
,
0200
0320
2030
3000
,
0002
0203
0302
0003
,
2000
3200
0320
0230
,
2300
0000
0000
3002
0000
0000
0203
0000
0000
0320
0000
0030
,
0202
0000
0000
0000
0000
0000
0000
0000
0000
0000
0000
0300
,
2000
0000
0000
0000
0000
0000
0000
0000
0000
0000
0000
0003
,
0020
0000
0000
0000
0000
0000
0000
0000
0000
0000
0000
3000
,
0200
0000
0000
0000
,
0330
0000
0000
0000
;
