#TITLE:You're Worthy Of My Praise;
#ARTIST:Big Daddy Weave & Barlow Girl;
#BANNER:You're Worthy Of My Praise - Big Daddy Weave & Barlow Girl.png;
#BACKGROUND:You're Worthy Of My Praise - Big Daddy Weave & Barlow Girl-bg.png;
#LYRICSPATH:You're Worthy Of My Praise - Big Daddy Weave & Barlow Girl.lrc;
#CDTITLE:.\CDTITLES\DP2BIG1.png;
#MUSIC:You're Worthy Of My Praise - Big Daddy Weave & Barlow Girl.mp3;
#OFFSET:-2.487;
#SAMPLESTART:55.0;
#SAMPLELENGTH:19.0;
#BPMS:0=106.92;

//---------------dance-single - ----------------
#NOTES:
     dance-single:
     :
     Easy:
     3:
     0.168,0.219,0.305,0,0:
0000
0000
1000
0000
,
0001
0000
0010
0000
,
0001
0000
0010
0000
,
0100
0000
1000
0000
,
0001
0000
1000
0000
,
0001
0000
0010
0000
,
0100
0000
0010
0000
,
0100
0000
0001
0000
,
0010
0000
1000
0000
,
0100
0000
0010
0000
,
0001
0000
0100
0000
,
1000
0000
0001
0000
,
0010
0000
1000
0000
,
0100
0000
0010
0000
,
0001
0000
0001
0000
,
0000
0000
0010
0000
,
0001
0000
0100
0000
,
1000
0000
0001
0000
,
0010
0000
1000
0000
,
0100
0000
0010
0000
,
0001
0000
1000
0000
,
0100
0000
0001
0000
,
0010
0000
0100
0000
,
1000
0000
1001
0000
,
1010
0000
0110
0000
,
0101
0000
1001
0000
,
1010
0000
0110
0000
,
0101
0000
1001
0000
,
1010
0000
0110
0000
,
0101
0000
1001
0000
,
0110
0000
1001
0000
,
0110
0000
1001
0000
,
1010
0000
0110
0000
,
0010
0000
0001
0000
,
0010
0000
0001
0000
,
0010
0000
1000
0000
,
0100
0000
0010
0000
,
0001
0000
1000
0000
,
0100
0000
0010
0000
,
0001
0000
1000
0000
,
0100
0000
0010
0000
,
0001
0000
0100
0000
,
1000
0000
0010
0000
,
0001
0000
1000
0000
,
0100
0000
0001
0000
,
0010
0000
1000
0000
,
0100
0000
0010
0000
,
0001
0000
0100
0000
,
1000
0000
0001
0000
,
0010
0000
1000
0000
,
0100
0000
0010
0000
,
1001
0000
0110
0000
,
1010
0000
1001
0000
,
0101
0000
0110
0000
,
1010
0000
1001
0000
,
0101
0000
0110
0000
,
1010
0000
1001
0000
,
0101
0000
0110
0000
,
1010
0000
1001
0000
,
0101
0000
0110
0000
,
1010
0000
1001
0000
,
0101
0000
0110
0000
,
1010
0000
1001
0000
,
0101
0000
0000
0000
;

//---------------dance-single - ----------------
#NOTES:
     dance-single:
     :
     Hard:
     7:
     0.366,0.437,0.659,0.056,0:
0000
0000
1000
0010
,
0001
1000
0010
1000
,
0001
1000
0010
1000
,
0100
0001
1000
0010
,
0001
0100
1000
0010
,
0001
0100
0010
1000
,
0100
0001
0010
1000
,
0100
0010
0001
0010
,
0010
0001
1000
0100
,
0100
0000
1000
0001
0010
0000
0001
0010
,
0002
0000
0000
0003
0100
0000
1000
0000
,
0100
0000
1000
0010
0001
0000
0001
0000
,
0010
0010
1000
1000
,
0100
0000
0100
0001
0010
0000
0001
0010
,
0002
0000
0000
0003
0001
0000
0000
0000
,
0000
0001
0010
0010
,
0001
0001
0100
0100
,
1000
1000
0001
0010
,
0010
0001
1000
0100
,
0100
0000
1000
0001
0010
0000
0001
0010
,
0010
0001
1000
0100
,
1000
0000
0100
0001
0010
0000
0001
0000
,
0010
0000
0001
0000
0100
0000
1000
0001
,
0100
0000
1010
0000
1001
0000
0110
0101
,
1010
0101
0110
1001
,
0101
0000
1010
0000
1001
0000
0110
0101
,
1010
1001
0110
1010
,
0101
0000
0110
0000
1001
0000
0101
0110
,
1010
1001
0110
1010
,
0101
0000
0110
0000
1001
0000
0101
1010
,
0110
1010
1001
0101
,
0110
1010
1001
0202
,
0000
0000
0303
0000
,
0010
0001
0001
0010
,
0010
0001
0010
0001
,
0010
0100
1000
0100
,
0100
1000
0010
0001
,
0010
0001
1000
0100
,
0100
1000
0010
0001
,
0001
0010
1000
0100
,
1000
0000
0100
0000
0010
0000
0010
0001
,
1000
1001
1100
1000
,
0100
0000
1000
0000
0010
0000
0001
1000
,
0010
0001
1000
1000
,
0100
0100
0001
0001
,
0010
0000
0010
0000
1000
0000
0100
1000
,
0100
0000
1000
0000
0010
0000
0001
0010
,
0001
0010
0100
1000
,
0100
1000
0001
0010
,
0001
2000
0010
3000
1000
0000
0100
0000
,
2000
0000
0000
0000
0010
3000
0210
0000
,
2301
0000
0010
0000
0010
3000
0101
0110
,
1010
0110
1001
1010
,
0101
0000
1001
0000
0110
0000
0101
0110
,
1010
0110
1001
1010
,
0101
0000
1001
0000
0110
0000
0101
0110
,
1010
0110
1001
1010
,
0101
0000
1001
0000
0110
0000
0101
0110
,
1010
0110
1001
1010
,
0101
0000
1001
0000
0110
0000
0101
0110
,
1010
0110
1001
1010
,
0101
0000
1001
0000
0110
0000
0101
0110
,
1010
0110
1001
1010
,
0101
0000
0000
0000
;

//---------------dance-single - ----------------
#NOTES:
     dance-single:
     :
     Medium:
     5:
     0.329,0.393,0.604,0,0:
0000
0000
1000
0000
,
0001
0000
0010
1000
,
0001
1000
0010
1000
,
0100
0001
1000
0010
,
0001
0100
1000
0010
,
0001
0100
0010
1000
,
0100
0001
0010
1000
,
0100
0010
0001
0010
,
0010
0001
1000
0100
,
0100
1000
0010
0001
,
0010
0001
0100
1000
,
0100
1000
0001
0001
,
0010
0010
1000
1000
,
0100
0100
0010
0001
,
0010
0001
0001
0000
,
0000
0000
0010
0010
,
0001
0001
0100
0100
,
1000
1000
0001
0010
,
0010
0001
1000
0100
,
0100
1000
0010
0001
,
0010
0001
1000
0100
,
1000
0100
0010
0001
,
0010
0001
0100
1000
,
0100
1000
1001
0110
,
1010
0101
0110
1001
,
0101
1010
1001
0110
,
1010
1001
0110
1010
,
0101
0110
1001
0101
,
1010
1001
0110
1010
,
0101
0110
1001
0101
,
0110
1010
1001
0101
,
0110
1010
1001
0101
,
1010
0101
0110
0000
,
0010
0001
0001
0010
,
0010
0001
0010
0001
,
0010
0100
1000
0100
,
0100
1000
0010
0001
,
0010
0001
1000
0100
,
0100
1000
0010
0001
,
0001
0010
1000
0100
,
1000
0100
0010
0010
,
0001
0001
0100
1000
,
0100
1000
0010
0001
,
0010
0001
1000
1000
,
0100
0100
0001
0001
,
0010
0010
1000
0100
,
0100
1000
0010
0001
,
0001
0010
0100
1000
,
0100
1000
0001
0010
,
0001
0010
1000
0100
,
1000
0100
0010
0110
,
1001
1010
0110
0101
,
1010
0110
1001
1010
,
0101
1001
0110
0101
,
1010
0110
1001
1010
,
0101
1001
0110
0101
,
1010
0110
1001
1010
,
0101
1001
0110
0101
,
1010
0110
1001
1010
,
0101
1001
0110
0101
,
1010
0110
1001
1010
,
0101
1001
0110
0101
,
1010
0110
1001
1010
,
0101
0000
0000
0000
;

//---------------dance-single - ----------------
#NOTES:
     dance-single:
     :
     Challenge:
     8:
     0.489,0.479,0.201,0.264,0.212:
0000
0000
0000
0000
,
0000
0000
0000
0000
0101
0000
0000
0000
1000
0000
0010
0100
0000
0010
0100
0000
,
0110
0000
1000
0000
0010
0000
0000
0000
0110
0000
1000
0010
0000
1000
0010
0000
,
0110
0000
0010
0000
1000
0000
0000
0000
0001
0000
0100
0001
0000
0001
0100
0000
,
0010
0000
0100
0000
0110
0000
0000
0000
0100
0000
0001
1000
0000
1000
0001
0000
,
0100
0000
0001
0000
0101
0000
0000
0000
0001
0000
1000
0100
0000
0100
1000
0000
,
0010
0000
0100
0000
0110
0000
0000
0000
0010
0000
0100
0001
0000
0001
0100
0000
,
0001
1000
2002
0000
3003
2000
0100
3000
,
0010
0000
0100
0010
1000
0010
0100
0010
,
1000
0000
0100
0000
0011
0000
0000
0010
0000
0000
0010
0000
0002
0000
0000
0000
,
0103
0000
0000
0000
0010
0000
0000
0010
0000
0000
0200
0000
0000
0000
0002
0000
,
0303
1000
0200
0300
0100
0010
0020
0000
,
0002
0030
0100
0000
0203
0000
0010
0000
,
0310
0000
1000
0000
0010
0000
0000
0010
0000
0000
0100
0000
0200
0000
0000
0000
,
0000
0300
2002
0000
0000
0000
0000
0000
,
0000
3003
1000
0001
0100
0010
0110
0100
,
0101
0000
0001
1000
0100
1000
1100
1000
,
1010
0000
0010
1000
0010
0100
0110
0100
,
0101
0000
0001
1000
1000
0001
1001
0001
,
0011
0000
0010
0001
0100
0010
0110
0100
,
0101
0000
0001
1000
0100
1000
1100
1000
,
1010
0000
0110
0010
1000
0100
0110
0010
,
0011
0000
0011
0001
0101
0100
0110
0100
,
0110
0000
0010
0000
0010
0000
1000
0000
0100
0000
1000
0100
0000
1000
0010
0000
,
0010
0000
0100
0000
0010
0000
1000
0000
0100
0000
0010
0100
0000
0010
0100
0000
,
0010
0000
0001
0000
0100
0000
0010
0000
0100
0000
0001
0100
0000
0001
1000
0000
,
0001
0000
0100
0000
0010
0000
0100
0000
0001
0000
0010
0001
0000
0010
0001
0000
,
0100
0000
0010
0000
1000
0000
0100
0000
0010
0000
0100
1000
0000
0100
1000
0000
,
0010
0000
0100
0000
0010
0000
1000
0000
0100
0000
0010
0100
0000
0010
0100
0000
,
0010
0000
0001
0000
0100
0000
0010
0000
0100
0000
0001
0010
0000
0001
0010
0000
,
0001
0000
0100
0000
0010
0000
0100
0000
0010
0000
1000
0010
0000
1000
0010
0000
,
1000
0100
0010
0001
0010
0001
0010
0001
,
0010
0001
0100
0010
0100
0010
0100
0010
,
0100
0010
1000
0010
1000
0010
1000
0010
,
1000
0010
1000
0001
1000
0001
1000
0001
,
1000
0001
2000
0000
3100
0010
0100
0000
,
0200
0300
2000
0000
3001
0001
0100
0000
,
0100
0000
0010
0000
0100
0000
0000
0100
0000
0000
0001
0000
0000
0000
0002
0000
,
0000
0000
0000
0000
1003
0000
0000
1000
0000
0000
0010
0000
0000
0000
0020
0000
,
0000
0030
0010
0000
1000
0001
0100
0000
,
0100
0000
0001
1000
0100
0010
0010
0000
,
0100
0000
1000
0000
0010
0000
0000
0010
0000
0000
0100
0000
0000
0000
0200
0000
,
0000
0000
0302
0000
2000
0003
0200
3000
,
0020
0330
0020
0000
0000
0031
0001
0100
,
0020
0030
0020
0030
1000
1000
0020
0030
,
0010
0000
0100
0000
0100
0000
0000
0001
0000
0000
2000
0000
0000
0000
0000
0020
,
0000
0000
3030
0000
0100
0000
0000
0100
0000
0000
0002
0000
0000
0000
2000
0000
,
0000
3003
1000
0000
0010
0100
0010
0000
,
0020
0030
2000
0000
3001
0001
0020
0030
,
0001
0000
1000
0000
0100
0000
0000
0010
0000
0000
0010
0000
0000
0000
0002
0000
,
0000
0000
0000
0000
0103
0000
0000
0100
0000
0000
0010
0000
0020
0000
0030
0000
,
0100
0000
0010
0000
0100
0000
0010
0000
0010
0000
0010
1000
0000
1000
0100
0000
,
0100
0000
0010
0000
0100
0000
1000
0000
0010
0000
0100
0010
0000
0100
0010
0000
,
0100
0000
0001
0000
0010
0000
0100
0000
0010
0000
0001
0010
0000
0010
0001
0000
,
1000
0000
0010
0000
0100
0000
0010
0000
1000
0000
0100
1000
0000
0100
1000
0000
,
0010
0000
0100
0000
0001
0000
0010
0000
0100
0000
0010
0001
0000
0010
0001
0000
,
0100
0000
0010
0000
0100
0000
0001
0000
0010
0000
0100
0010
0000
0100
0010
0000
,
0100
0000
1000
0000
0010
0000
0100
0000
0010
0000
1000
0100
0000
1000
0100
0000
,
1000
0000
0010
0000
0100
0000
0010
0000
0100
0000
0001
0100
0000
0001
0100
0000
,
0001
0000
0010
0000
0100
0000
0010
0000
0001
0000
1000
0001
0000
1000
0001
0000
,
0100
0000
0010
0000
0100
0000
0001
0000
1000
0000
0001
1000
0000
0001
1000
0000
,
0001
0000
0010
0000
0100
0000
1000
0000
0010
0000
0100
0010
0000
0100
0010
0000
,
1000
0001
2000
0000
0002
0000
3003
0000
;
