#TITLE:Word of Mouth;
#ARTIST:John Reuben;
#BANNER:Word of Mouth - John Reuben.png;
#BACKGROUND:Word of Mouth - John Reuben-bg.png;
#LYRICSPATH:Word of Mouth - John Reuben.lrc;
#CDTITLE:.\CDTITLES\DP2JOHN.png;
#MUSIC:Word of Mouth - John Reuben.mp3;
#OFFSET:-2.825;
#SAMPLESTART:44.4;
#SAMPLELENGTH:12;
#BPMS:0=92;
#BGCHANGES:0=Word of Mouth - John Reuben.AVI=1=1=1=0,999=-=1=0=0=0;

//---------------dance-single - ----------------
#NOTES:
     dance-single:
     :
     Easy:
     2:
     0.120,0.166,0.063,0,0:
0000
0000
0010
0000
,
0001
0000
0010
0000
,
1000
0000
0010
0000
,
0001
0000
0010
0000
,
1000
0000
0010
0000
,
0001
0000
0100
0000
,
1000
0000
0100
0000
,
0001
0000
0010
0000
,
1000
0000
0100
0000
,
0001
0000
0010
0000
,
1000
0000
0100
0000
,
0010
0000
0001
0000
,
0010
0000
1000
0000
,
0010
0000
0001
0000
,
1000
0000
0100
0000
,
0010
0000
0100
0000
,
0011
0000
0100
0000
,
1000
0000
0010
0000
,
0001
0000
0100
0000
,
1000
0000
0100
0000
,
0010
1001
0110
0000
0010
0000
0000
0000
,
0001
0000
0010
0000
,
1000
0000
0001
0000
,
0010
0000
0100
0000
,
1000
0000
0010
0000
,
0001
0000
0100
0000
,
1000
0000
0001
0000
,
0010
0000
1000
0000
,
0001
0000
0010
0000
,
1000
0000
0001
0000
,
0010
0000
1000
0000
,
0001
0000
0000
0000
1000
0000
0000
0011
,
1100
0000
1000
0000
,
0010
0000
0010
0000
,
1000
0000
0100
0000
,
0001
0000
0100
0000
,
1000
0000
0100
0000
,
0010
0000
0001
0000
,
1000
0000
0010
0000
,
0001
0000
0100
0000
,
1010
0000
0010
0000
,
1000
0000
0010
0000
,
0001
0000
1000
0000
,
0010
0000
0001
0000
,
1000
0011
0101
0000
1000
0000
0000
0000
,
0001
0000
0010
0000
,
1000
0000
0100
0000
,
0010
0000
0000
0000
;

//---------------dance-single - ----------------
#NOTES:
     dance-single:
     :
     Hard:
     5:
     0.330,0.335,0.055,0,0:
0000
0000
0001
1000
0010
1000
0001
1000
,
0000
0001
1000
0001
0010
0100
0010
0001
,
0000
1000
0001
0010
1000
0010
1000
0001
,
1000
0000
1000
0001
0010
0001
0010
0000
,
1000
0001
1000
0010
1000
0010
1000
0001
,
0000
0001
1000
0001
0100
0010
0100
0010
,
0000
1000
0001
0000
0100
0010
0001
1000
,
0001
0000
1000
0000
0010
0000
0001
0010
,
1000
0000
0001
1000
0100
0001
0000
1000
,
0001
0010
1000
0001
0010
0001
0000
0010
,
1000
0010
0001
1000
0100
0000
0001
0010
,
0001
1000
0010
0001
1000
0000
0000
0000
,
1000
0001
0010
1000
0001
0000
1000
0010
,
0001
1000
0010
0001
1000
0000
0001
1000
,
0010
0001
1000
0100
1000
0000
0001
0010
,
0001
1000
0001
0100
1000
0001
0000
0000
,
0011
0000
1000
0001
0000
0000
0000
0000
,
1000
0010
0001
0000
0010
1000
0100
1000
,
0001
0010
1000
0001
0000
0000
0000
0001
,
1000
0001
0100
1000
,
0010
1001
0110
1000
0010
0000
0100
0000
,
0001
0010
0000
0000
0010
0000
0001
0000
,
1000
0000
0010
0000
0001
0000
1000
0001
,
0010
0001
0000
1000
0000
0001
0000
0000
,
0000
1000
0100
1000
0010
1000
0100
1000
,
0001
0010
1000
0001
0100
0000
0000
0000
,
0000
1000
0010
1000
0001
1000
0010
1000
,
0010
1000
0001
0010
1000
0000
0000
0000
,
0000
0001
1000
0001
0010
0000
0000
0000
,
0000
1000
0010
1000
0001
0010
0001
0000
,
0010
1000
0001
0010
1000
0001
0000
1000
,
0001
0010
0100
0001
1000
0001
1000
0011
,
1100
0010
0001
0010
1000
0001
1000
0010
,
0001
1000
0001
0010
1000
0001
0000
0001
,
1000
0001
0010
0100
0010
0001
1000
0000
,
0001
1000
0001
0100
0001
0010
0100
0000
,
0010
0001
1000
0100
1000
0010
1000
0000
,
0010
1000
0100
0001
1000
0001
0010
0000
,
1000
0001
0100
0010
0100
0010
1000
0001
,
0001
0000
1000
0100
0001
0010
0100
1000
,
0010
0000
0100
0010
0000
0000
0000
0000
,
1000
0010
0001
0000
0010
1000
0010
1000
,
0001
0010
0100
0001
0000
0000
0000
1000
,
0010
0100
0001
0010
,
1000
0011
0101
0010
1000
0000
0010
0000
,
0001
0010
0000
0000
0010
0000
0100
0000
,
1000
0010
0001
0000
1000
0100
0000
0001
,
1000
0010
1000
0000
0000
0000
0000
0000
;

//---------------dance-single - ----------------
#NOTES:
     dance-single:
     :
     Medium:
     3:
     0.170,0.186,0.063,0,0:
0000
0000
0010
0000
,
0001
1000
0010
0000
,
1000
0001
0010
0000
,
0001
1000
0010
0000
,
1000
0001
0010
0000
,
0001
1000
0100
0000
,
1000
0001
0100
0000
,
0001
1000
0010
0000
,
1000
0001
0100
0000
,
0001
1000
0010
0000
,
1000
0001
0100
0000
,
0010
1000
0001
0000
,
0010
0001
1000
0000
,
0010
1000
0001
0000
,
1000
0001
0100
0000
,
0010
1000
0100
0000
,
0011
1000
0100
0000
,
1000
0001
0010
0000
,
0001
1000
0100
0000
,
1000
0001
0100
0000
,
0010
1001
0110
0000
0010
0000
0000
0000
,
0001
1000
0010
0000
,
1000
0010
0001
0000
,
0010
1000
0100
0000
,
1000
0100
0010
0000
,
0001
1000
0100
0000
,
1000
0010
0001
0000
,
0010
0001
1000
0000
,
0001
1000
0010
0000
,
1000
0010
0001
0000
,
0010
0001
1000
0000
,
0001
0000
0100
0000
1000
0000
0000
0011
,
1100
0000
1000
0000
,
0010
1000
0010
0000
,
1000
0001
0100
0000
,
0001
1000
0100
0000
,
1000
0001
0100
0000
,
0010
1000
0001
0000
,
1000
0001
0010
0000
,
0001
1000
0100
0000
,
1010
0100
0010
0000
,
1000
0001
0010
0000
,
0001
0100
1000
0000
,
0010
0100
0001
0000
,
1000
0011
0101
0000
1000
0000
0000
0000
,
0001
1000
0010
0000
,
1000
0001
0100
0000
,
0010
0001
0000
0000
;

//---------------dance-single - ----------------
#NOTES:
     dance-single:
     :
     Challenge:
     6:
     0.399,0.335,0.299,0.047,0:
1001
0000
0001
0010
0001
1000
1001
0001
,
0000
0010
0100
0010
1000
0001
1001
1000
,
0000
0010
0110
0000
0100
0001
1000
0100
,
1100
0000
1000
0010
0100
0010
1010
0000
,
1001
0000
0100
1000
0010
0100
0110
0100
,
0000
0001
1000
0100
1100
1000
1010
0010
,
0000
1000
0001
0000
0011
0001
1001
0001
,
1000
0000
0010
0010
0100
0001
1001
0001
,
0100
0000
0100
0010
0100
0101
0000
0001
,
1000
0100
1000
0010
0100
0101
0000
1000
,
0100
1000
0010
1000
1010
0000
1000
0010
,
0100
0010
1000
0001
0011
0001
0000
0000
,
0001
1000
0001
1000
0100
1000
1100
0000
,
1000
0010
1000
0010
1000
0010
1001
0000
,
0010
0001
1000
0001
1000
0001
1001
0000
,
1000
0010
1000
0001
0010
0001
0011
0000
,
0001
0000
0002
2000
0000
3003
1000
0000
,
0010
0100
0010
0000
0100
0001
1000
0001
,
1000
0100
1000
1001
0000
1000
0010
0000
,
0010
1000
0001
0010
,
1001
0001
0000
0001
0010
0000
0001
0000
,
1100
1000
0000
1000
0010
0000
0010
0000
,
0100
0100
0010
0000
0100
0001
0001
0000
,
1000
1000
0100
0000
1000
1000
0010
0000
,
0100
0100
0010
0100
0010
1000
0001
0001
,
0010
0001
1000
0001
1001
0000
1001
0000
,
1000
1000
0010
1000
0010
0010
0100
0010
,
1000
0001
1001
0001
0011
0000
1001
0000
,
0001
0010
0010
0010
0001
0001
1001
0000
,
0001
0001
0010
0001
1000
0001
1001
0000
,
1000
1000
0010
0010
1000
0001
0011
0000
,
0010
0001
1000
0100
1000
0100
1100
0000
,
1000
0010
1000
0010
0100
0010
0100
0010
,
0100
0001
0100
0001
0010
0001
0010
0001
,
0010
0100
0010
0100
0010
0100
1000
0100
,
1000
0010
1000
0010
0100
0010
0100
0010
,
0100
0001
1000
0001
0100
0001
1000
0001
,
1000
0100
1000
0010
1000
0100
1000
0010
,
0100
0010
1000
0001
1000
0010
0100
0010
,
1000
0100
0010
0001
0010
0100
0010
0001
,
0100
0000
0200
0020
0000
0330
0110
0000
,
0100
0001
1000
0000
0001
0100
0010
0100
,
0001
1000
0001
2002
0000
3003
1000
0010
,
0010
0100
0010
0100
,
0001
1000
1010
0010
0100
0000
0110
0000
,
0100
0001
1001
0000
1000
0000
0010
0000
,
1000
0001
0010
0010
0001
0000
1000
0000
,
0100
1000
0010
0000
0000
0000
0000
0000
;
