#TITLE:Who Can Compare;
#ARTIST:Foolish Things;
#BANNER:Who Can Compare - Foolish Things.png;
#BACKGROUND:Who Can Compare - Foolish Things-bg.png;
#LYRICSPATH:Who Can Compare - Foolish Things.lrc;
#CDTITLE:.\CDTITLES\DP2FOOL.png;
#MUSIC:Who Can Compare - Foolish Things.mp3;
#OFFSET:-1.852;
#SAMPLESTART:51.9;
#SAMPLELENGTH:12;
#BPMS:0=140;
#BGCHANGES:5.67=Who Can Compare - Foolish Things1.AVI=1.035=1=1=0,196=Who Can Compare - Foolish Things2.AVI=1.035=1=1=0,999=-=1=0=0=0;

//---------------dance-single - ----------------
#NOTES:
     dance-single:
     :
     Easy:
     2:
     0.170,0.171,0.056,0.007,0:
0000
0000
0000
0000
,
1000
0000
0001
0000
,
0010
0000
1000
0000
,
0001
0000
1000
0000
,
0010
0000
0001
0000
,
1000
0000
0001
0000
,
0010
0000
0100
0000
,
1001
0000
0100
0000
,
0010
0000
1000
0000
,
0001
0000
0010
0000
,
1000
0000
0001
0000
,
0010
0000
1000
0000
,
0001
0000
1000
0000
,
0010
0000
1000
0000
,
0001
0000
1000
0000
,
0010
0000
0001
0000
,
1000
0000
0100
0000
,
0010
0000
0100
0000
,
1000
0000
0001
0000
,
1000
0000
0001
0000
,
1000
0000
0010
0000
,
0001
0000
0100
0000
,
1000
0000
0010
0000
,
0001
0000
1000
0000
,
0010
0000
0001
0000
,
1000
0000
0001
0000
,
0010
0000
1000
0000
,
0001
0000
0010
0000
,
1000
0000
0001
0000
,
0010
0000
1000
0000
,
0001
0000
1000
0000
,
0110
0000
0001
0000
,
1000
0000
0001
0000
,
0110
0000
0001
0000
,
1000
0000
0001
0000
,
0010
0000
1000
0000
,
0001
0000
1000
0000
,
0010
0000
0001
0000
,
1000
0000
1000
0000
,
0011
0000
1000
0000
,
0010
0000
1000
0000
,
0002
0000
0000
0003
,
1000
0000
0100
0000
,
0010
0000
0001
0000
,
1000
0000
0010
0000
,
0001
0000
0100
0000
,
0001
0000
0010
0000
,
1001
0000
0100
0000
,
0001
0000
0010
0000
,
1001
0000
0100
0000
,
0010
0000
1000
0000
,
0001
0000
1000
0000
,
0010
0000
1000
0000
,
0001
0000
1000
0000
,
0010
0000
0001
0000
,
1000
0000
0001
0000
,
0010
0000
0001
0000
,
1000
0000
0001
0000
,
0010
0000
0001
0000
,
1000
0000
0100
0000
,
0010
0000
0001
0000
,
1000
0000
0100
0000
,
0010
0000
1000
0000
,
0001
0000
1000
0000
,
0010
0000
0001
0000
,
1100
0000
0001
0000
,
0010
0000
1000
0000
,
0001
0000
1000
0000
,
0010
0000
0001
0000
,
1000
0000
0100
0000
,
0010
0000
1000
0000
,
0001
0000
1000
0000
,
0010
0000
0001
0000
,
1100
0000
0001
0000
,
0010
0000
0001
0000
,
1000
0000
0100
0000
,
0001
0000
0100
0000
,
0010
0000
0001
0000
,
1000
0000
0010
0000
,
0001
0000
0100
0000
,
0010
0000
0001
0000
,
1000
0000
0010
0000
,
0001
0000
0000
0000
;

//---------------dance-single - ----------------
#NOTES:
     dance-single:
     :
     Hard:
     6:
     0.380,0.313,0.298,0.062,0:
0000
0000
0010
0100
,
1000
0001
1000
0001
,
0010
0100
0010
0100
,
0001
0000
1000
0000
,
0010
0000
0100
0000
,
1000
0010
1000
0010
,
0001
0100
0001
0100
,
1001
0010
0100
0010
,
0100
0001
1000
0010
,
0101
1000
0110
0001
,
1000
0010
0001
1000
,
0110
0001
1100
0010
,
0001
0100
1000
0001
,
1010
0001
1010
0100
,
0001
0010
1000
0001
,
0010
1000
0001
0010
,
1000
0001
0100
0001
,
0010
0000
0001
0000
0100
0000
0010
2000
,
0001
0010
3001
0010
,
1000
0000
0100
0000
0001
0000
0010
2000
,
0001
0010
3001
0010
,
0001
0010
0100
0001
,
1000
0001
0010
0100
,
1001
0010
1000
0001
,
0010
1000
0001
0100
,
1000
0000
0010
0000
0001
0000
1000
0020
,
1000
1000
1030
0100
,
0001
0000
1000
0000
0010
0000
0001
2000
,
0001
0010
3001
0010
,
0100
0001
1000
0010
,
0001
0100
1000
0001
,
0110
1000
0101
0010
,
1000
0100
0001
1000
,
0110
1000
0101
0010
,
1000
0100
0001
1000
,
0110
0001
1100
0010
,
0001
0100
1000
0001
,
0110
1000
0101
0010
,
1000
0100
1000
0100
,
0011
0100
1010
0001
,
0010
0001
1000
0010
,
0002
1000
0010
1000
,
0103
0001
0100
1000
,
0011
1000
0101
0010
,
1000
0100
0010
1000
,
0101
0010
0101
1000
,
0001
1000
0010
0100
,
1001
0010
0101
1000
,
0001
0100
0010
0100
,
1001
0010
0100
0001
,
0010
0001
1000
0010
,
0001
0000
0100
0000
1000
0000
0010
0002
,
1000
1000
1003
0100
,
0001
0000
0100
0000
1000
0000
0001
2000
,
0010
0001
3010
0001
,
1010
0100
0001
1000
,
0010
1000
0001
0010
,
1000
0100
0001
1000
,
0010
1000
0001
0010
,
1000
0000
0001
0000
0100
0000
0001
0020
,
1000
1000
1000
1030
,
0100
0000
0001
0000
0100
0000
0001
0020
,
1000
1000
1000
1030
,
0001
0100
1000
0001
,
0010
1000
0001
0010
,
1100
0010
0101
1000
,
0010
0100
1000
0100
,
1001
0010
1100
0001
,
0010
1000
0001
0010
,
1100
0001
0110
1000
,
0010
0100
1000
0010
,
1001
0100
1010
0001
,
0010
1000
0001
0010
,
1100
0010
1001
1000
,
0010
1000
0001
0010
,
1100
0001
1100
0010
,
0001
1000
0100
1000
,
0011
1000
0101
0010
,
1000
0001
0010
1000
,
0101
0010
1100
0001
,
0010
1000
0001
0010
,
1001
0100
0010
1000
,
0001
0000
0000
0000
;

//---------------dance-single - ----------------
#NOTES:
     dance-single:
     :
     Medium:
     5:
     0.330,0.285,0.153,0.062,0:
0000
0000
0010
0100
,
1000
0001
1000
0001
,
0010
0100
0010
0100
,
0001
0000
1000
0000
,
0010
0000
0100
0000
,
1000
0010
1000
0010
,
0001
0100
0001
0100
,
1001
0010
0100
0010
,
0100
0001
1000
0010
,
0101
1000
0010
0001
,
1000
0010
0001
1000
,
0110
0001
1000
0010
,
0001
0100
1000
0001
,
1010
0001
1000
0100
,
0001
0010
1000
0001
,
0010
1000
0001
0010
,
1000
0001
0100
0001
,
0010
0000
0001
0000
0100
0000
0010
2000
,
0000
0000
0000
3000
0001
0000
0010
0000
,
1000
0000
0100
0000
0001
0000
0010
2000
,
0000
0000
0000
0000
0000
0000
0000
3000
,
0001
0010
0100
0001
,
1000
0001
0010
1000
,
0001
0010
1000
0001
,
0010
1000
0001
0100
,
1000
0000
0010
0000
0001
0000
1000
0020
,
0000
0000
0030
1000
,
0001
0000
1000
0000
0010
0000
0001
2000
,
0000
0000
0000
0000
0000
0000
0000
3000
,
0010
0001
1000
0010
,
0001
0100
1000
0001
,
0110
1000
0001
0010
,
1000
0100
0001
1000
,
0110
1000
0001
0010
,
1000
0100
0001
1000
,
0110
0001
1000
0010
,
0001
0100
1000
0001
,
0110
1000
0001
0010
,
1000
0100
1000
0100
,
0011
0100
1000
0001
,
0010
0001
1000
0010
,
0002
0000
1000
0000
0000
0000
0010
0003
,
1000
0001
0100
1000
,
0011
1000
0001
0010
,
1000
0100
0010
1000
,
0101
0010
0100
1000
,
0001
1000
0010
0100
,
1001
0010
0100
1000
,
0001
0100
0010
0100
,
1001
0010
0100
0001
,
0010
0001
1000
0010
,
0001
0000
0100
0000
1000
0000
0001
0020
,
0000
0000
0030
1000
,
0001
0000
0100
0000
1000
0000
0001
2000
,
0000
0000
0000
3000
,
0001
0100
0001
1000
,
0010
1000
0001
0010
,
1000
0100
0001
1000
,
0010
1000
0001
0010
,
1000
0000
0001
0000
0100
0000
0001
0020
,
0000
0000
0000
0030
,
1000
0000
0001
0000
0100
0000
0001
0020
,
0000
0000
0000
0030
,
0001
0100
1000
0001
,
0010
1000
0001
0010
,
1100
0010
0001
1000
,
0010
0100
1000
0100
,
1001
0010
1000
0001
,
0010
1000
0001
0010
,
1100
0001
0100
1000
,
0010
0100
1000
0010
,
1001
0100
1000
0001
,
0010
1000
0001
0010
,
1100
0010
0001
1000
,
0010
1000
0001
0010
,
1100
0001
0100
0010
,
0001
1000
0100
1000
,
0011
1000
0001
0010
,
1000
0001
0010
1000
,
0101
0010
0100
0001
,
0010
1000
0001
0010
,
1001
0100
0010
1000
,
0001
0000
0000
0000
;

//---------------dance-single - ----------------
#NOTES:
     dance-single:
     :
     Challenge:
     8:
     0.478,0.487,0.007,0.125,0:
0000
0000
0000
0000
,
0001
0000
0010
0000
0001
0000
1000
0100
,
1000
0000
0010
0000
0100
0000
0010
1000
,
0010
0000
1000
0000
0001
0000
0010
0001
,
0010
0000
0001
1000
0000
0000
0100
1000
,
0100
0000
1000
0010
0000
0000
0100
0010
,
0100
0000
0001
1000
0000
0000
0001
0000
,
1000
0100
1000
0100
1000
0100
1000
0100
,
1000
0001
1000
0001
1000
0001
1000
0001
,
0010
0001
0010
0001
0010
0001
0010
0001
,
1000
0001
1000
0001
1000
0001
1000
0001
,
1000
0010
1000
0010
1000
0010
1000
0010
,
0100
0010
0100
0010
0100
0010
0100
0010
,
0100
0001
0100
0001
0100
0001
0100
0001
,
1000
0001
1000
0001
1000
0001
1000
0001
,
1000
0000
1000
0000
0010
0000
0010
0100
,
0000
0100
0001
1000
,
0001
0000
0001
0010
0000
0000
0010
0001
,
0000
1000
0100
0100
,
1000
0000
1000
0010
0000
0000
0010
0200
,
0000
0000
0000
0300
,
0100
0010
0010
2000
,
0000
0002
3000
0020
,
0003
0000
0031
0000
0001
0000
1000
1000
,
0000
0001
0001
0010
,
0001
0000
0001
1000
0000
0000
1000
0100
,
0000
0100
1000
0010
,
0100
0000
0100
0010
0000
0010
0000
0200
,
0000
0000
0002
0303
,
1000
1000
0100
0200
,
0000
2000
0300
0020
,
3000
0000
0030
0000
0100
0010
0100
0010
,
0100
0010
0100
0010
0100
0010
0100
0010
,
0100
0001
0100
0001
0100
0001
0100
0001
,
0100
0001
0100
0001
0100
0001
0100
0001
,
1000
0001
1000
0001
1000
0001
1000
0001
,
1000
0001
1000
0001
1000
0001
1000
0001
,
1000
0100
1000
0100
1000
0100
1000
0100
,
1000
0100
1000
0100
1000
0100
1000
0100
,
1000
0010
1000
0010
0100
0010
1000
0010
,
0100
0010
1000
0010
0100
0010
1000
0010
,
0100
0010
0100
0010
0100
0010
0100
0010
,
0100
0010
0100
0010
0100
0010
0100
0010
,
0100
0001
1000
0100
1000
0001
0100
0001
,
1000
0100
1000
0001
0100
0001
0100
0001
,
1000
0010
1000
0001
0010
0001
1000
0010
,
1000
0001
0010
0001
1000
0010
0100
0010
,
2000
3010
0010
0010
,
1000
1000
0001
0001
,
0010
0000
0010
0000
0001
0000
0001
1000
,
0000
1000
0000
0000
0100
0000
0100
1000
,
0000
0000
1000
0000
0010
0000
0010
0100
,
0000
0100
0001
0001
,
1000
0000
1000
0100
0000
0000
0100
0000
,
1000
1000
0010
0010
,
0100
0001
2000
0001
,
0000
3002
0000
2000
,
3003
0000
1000
0000
0001
0000
0001
1000
,
0000
0100
0000
0100
0000
0000
1000
0000
,
0010
0000
0010
0100
0000
0000
0001
0000
,
1000
0001
0010
0010
,
0001
0000
0001
1000
0000
0000
0100
0000
,
1000
1000
0010
0100
,
0010
1000
0002
0010
,
0000
2003
0000
0200
,
3000
0000
0000
0000
1300
0010
0100
0010
,
1000
0010
0100
0010
1000
0010
0100
0010
,
1000
0001
0010
0001
0100
0010
0100
0001
,
0010
0100
0010
0001
0100
0010
0100
0001
,
1000
0100
1000
0100
1000
0010
1000
0010
,
0100
0010
0100
0010
1000
0010
1000
0001
,
1000
0001
1000
0100
1000
0100
1000
0001
,
1000
0001
1000
0001
0010
0001
0010
0001
,
0100
0010
0100
0010
0100
0001
0100
0001
,
0100
0010
0100
0010
0100
0010
0100
0001
,
1000
0001
1000
0001
0010
0100
0010
0001
,
0010
0001
0010
0100
0010
0100
1000
0010
,
0100
0010
0100
0010
0100
0010
0100
0010
,
1000
0010
1000
0010
1000
0010
1000
0010
,
0100
0010
0100
0010
0100
0010
0100
0010
,
1000
0001
1000
0001
1000
0001
1000
0001
,
2002
0000
0000
0000
,
0000
0000
3003
0000
;
