#TITLE:When Tomorrow Comes;
#ARTIST:Pillar;
#BANNER:When Tomorrow Comes - Pillar.png;
#BACKGROUND:When Tomorrow Comes - Pillar-bg.png;
#LYRICSPATH:When Tomorrow Comes - Pillar.lrc;
#CDTITLE:.\CDTITLES\DP2PILLAR.png;
#MUSIC:When Tomorrow Comes - Pillar.mp3;
#OFFSET:-2.864;
#SAMPLESTART:41.8;
#SAMPLELENGTH:12;
#BPMS:0=95;
#BGCHANGES:0=When Tomorrow Comes - Pillar.AVI=1=1=1=0,999=-=1=0=0=0;

//---------------dance-single - ----------------
#NOTES:
     dance-single:
     :
     Easy:
     2:
     0.107,0.095,0,0.020,0.007:
0000
0000
0000
0010
0000
0000
0000
1000
,
0000
0000
0000
0100
0000
0000
0000
0001
,
0000
0000
0000
0010
0000
0000
1000
0000
,
0000
0100
0000
0001
,
0000
1000
0000
0010
,
0000
0001
0000
1000
,
0000
0100
0000
0001
,
0000
0010
0000
1000
,
0000
0100
0000
0010
,
0000
0100
0000
0001
,
0000
0010
0000
1000
,
0000
0001
0000
0010
,
0000
0001
0000
0100
,
0000
1000
0000
0001
,
0000
0010
0000
1000
,
0002
0000
0000
0000
0000
0003
0000
0000
,
1000
0000
0001
0000
,
0010
0000
0001
0000
,
0100
1000
0000
0000
,
0002
0000
0000
0000
,
0000
0000
0003
0010
,
0000
0001
0000
1000
,
0000
0010
0000
0001
,
0000
0100
0000
0010
,
0000
0001
0000
1000
,
0000
0001
0000
0010
,
0000
0001
0000
1000
,
0000
0001
0000
0010
,
0000
0001
0000
1000
,
0000
0000
0000
0000
0001
0000
0000
0000
0000
0000
0000
0000
0000
0000
0010
1000
,
0000
0000
0001
0010
0000
0000
0000
0000
0000
0000
0000
0000
1000
0000
0000
0000
,
0000
0001
0000
0010
,
0000
1000
0000
0001
,
0000
1000
0000
0010
,
0000
1000
0000
0001
,
0000
0010
0000
1000
,
0000
0001
0000
0010
,
0000
0001
0000
1000
,
0000
0010
0000
0001
,
0000
0100
0000
1000
,
0000
0001
0000
0010
,
0000
0001
0000
1000
,
0000
0001
0000
0010
,
0000
0001
0000
1000
,
0000
0100
0000
0001
,
0000
0000
0010
0000
,
1000
0000
0001
0000
,
0010
0000
1000
0000
,
0001
0000
0010
0000
,
0002
0000
0000
0000
,
0000
0000
0000
0000
0000
0000
0000
0003
,
0000
0010
0000
0001
,
0000
1000
0000
0010
,
0000
0001
0000
0100
,
0000
0010
0000
1000
,
0000
0001
0000
0010
,
0000
1000
0000
0001
;

//---------------dance-single - ----------------
#NOTES:
     dance-single:
     :
     Hard:
     7:
     0.320,0.344,0.007,0.034,0.184:
0000
0000
0000
0000
0000
0000
1000
0001
0000
0000
1000
0000
0000
0000
0001
0010
,
0000
0000
0100
0000
0000
0000
0010
1000
0000
0000
0001
0000
0000
0000
1000
0010
,
0000
0000
0010
0000
0000
0000
0001
0010
0000
0000
1000
0000
0000
0000
0000
0000
,
0001
1000
0000
0000
0100
0000
1000
0001
0000
0000
0000
0000
0001
1000
0000
0000
,
0100
0010
0000
0000
1000
0000
0010
0100
0000
0001
1000
0000
0010
0000
0001
0000
,
1000
0001
0000
0000
0001
0000
1000
0001
0000
0000
0001
0000
1000
0000
0001
0000
,
0001
1000
0000
0000
0100
0000
1000
0001
0000
1000
0000
0001
0000
0010
0000
0100
,
1000
0000
0000
0000
0010
0000
0000
0000
0001
0000
0000
1000
0001
0000
0000
0000
,
1000
0000
0000
0100
1000
0000
0000
0000
0001
0000
0000
0010
0100
0000
0000
0000
,
0001
0000
0000
0100
0001
0000
0000
0000
0001
0000
0000
1000
0001
0000
0000
0010
,
0000
1000
0000
0010
0000
0010
0000
1000
0000
0001
0000
1000
0000
0001
0000
0010
,
0100
0000
0000
0000
0001
0000
0000
1000
0001
0000
0000
0000
0010
0000
0000
1000
,
0001
0000
0000
0000
0001
0000
0000
0001
1000
0000
0000
0000
0110
0000
0000
0001
,
1000
0000
0000
0000
1000
0000
0000
0001
1000
0000
0000
0000
0001
0000
0000
1000
,
0001
0010
0010
1000
,
0002
0000
0000
0000
0000
0000
0003
1000
0010
0000
0000
0000
0001
0000
0010
0000
,
1000
0000
0010
0000
0001
0010
1000
0000
,
0010
0000
0010
0000
0001
0010
1000
0000
,
0100
0000
1000
0010
0001
0000
1000
0000
,
0002
1000
0000
1000
,
0000
0000
1000
0000
0003
0000
0010
0100
,
1000
0010
0001
0000
0010
0000
1000
0010
,
0001
0000
0010
0100
1000
0000
0001
0000
,
0010
0000
0100
0000
1000
0000
0010
0001
,
1000
0010
0001
0000
0010
0000
1000
0001
,
0100
0010
0001
0000
0100
0000
0010
0000
,
1000
0000
0001
1000
0010
0000
1000
0000
,
0200
0001
0000
0001
,
0320
1000
0030
1000
,
0010
0000
0000
0000
0001
0000
0000
0000
0100
0000
0000
0000
0000
0000
1000
0010
,
0000
0000
0001
0010
0000
0000
1000
0010
0000
0000
1000
0010
0000
0000
0010
1000
,
0000
0000
1000
0001
0000
0000
0000
0000
1000
0000
0000
0000
0010
0000
1000
0000
,
0001
0010
1000
0001
0010
0000
0001
0000
,
0100
0000
1000
0010
0001
0000
0010
0001
,
0100
0001
1000
0001
0010
0000
0001
0000
,
0100
1000
0010
1000
0001
0000
1000
0001
,
0010
1000
0001
0010
1000
0000
0010
0000
,
1000
0010
0001
1000
0010
0000
1000
0010
,
0001
1000
0010
0001
1000
0000
0001
1000
,
0010
1000
0100
1000
0001
0000
1000
0001
,
0010
1000
0001
0010
1000
0001
0010
0000
,
0010
1000
0000
0000
0001
0000
0000
1000
0100
0000
0000
0000
1000
0001
0000
0000
,
0001
0010
0000
0000
0001
0000
0010
1000
0000
0000
0000
0000
0010
0001
0000
0000
,
1000
0001
0000
0000
0001
0000
1000
0010
0000
0000
0000
0000
1000
0001
0000
0000
,
0001
0000
0100
1000
0010
0000
0001
0000
,
1000
0000
0000
0000
0010
1000
0001
0010
,
1000
0000
0010
0000
0001
0010
1000
0001
,
0010
0000
0010
0000
1000
0001
0010
1000
,
0001
0000
1000
0001
0010
0000
1000
0000
,
0002
1000
0000
1000
,
0000
0000
1000
0000
0003
0000
1000
0010
,
0001
1000
0010
0000
1000
0010
0001
0000
,
0010
0001
1000
0010
0001
1000
0010
0000
,
1000
0000
0001
0000
0010
0001
0100
0000
,
1000
0001
0010
0000
0001
0010
1000
0001
,
0010
1000
0001
0000
1000
0000
0010
0000
,
0001
0000
1000
0001
0010
1000
0001
0000
,
1000
0000
0000
0000
;

//---------------dance-single - ----------------
#NOTES:
     dance-single:
     :
     Medium:
     4:
     0.205,0.210,0,0.034,0.013:
0000
0000
0000
0010
0000
0001
0000
1000
,
0000
0001
0000
0100
0000
1000
0000
0001
,
0000
1000
0000
0010
0000
0001
0000
0000
,
1000
0001
0100
0010
,
0100
1000
0001
0010
,
1000
0001
0010
1000
,
0001
0100
0010
0001
,
1000
0010
0001
1000
,
0001
0100
1000
0010
,
0001
0100
0010
0001
,
1000
0010
0001
1000
,
0010
0001
1000
0010
,
1000
0001
0010
0100
,
0001
1000
0010
0001
,
1000
0010
0010
1000
,
0002
0000
0000
0003
,
1000
0010
0001
1000
,
0010
0010
0001
1000
,
0100
1000
0001
1000
,
0002
0000
0000
0000
,
0000
0000
0000
0000
0000
0003
0010
0000
,
1000
0001
0010
1000
,
0001
0010
1000
0001
,
0010
0100
1000
0010
,
1000
0001
0010
1000
,
0100
0001
0100
0010
,
1000
0001
0010
1000
,
0200
0000
0000
0000
,
0320
0000
0000
0000
0000
0030
1000
0000
,
0010
0000
0000
0000
0001
0000
0000
0000
0100
0000
0000
0000
0000
0000
0010
1000
,
0000
0000
0001
0010
0000
0000
0001
1000
0000
0000
0010
1000
0000
0000
0000
0000
,
0010
0001
1000
0010
,
0001
1000
0010
0001
,
0100
1000
0001
0010
,
0100
1000
0010
0001
,
0100
0010
0001
1000
,
0010
0001
1000
0010
,
1000
0001
0010
1000
,
0001
0010
1000
0001
,
0010
0100
0001
1000
,
0010
0001
1000
0010
,
0010
0001
0100
1000
,
0010
0001
1000
0010
,
1000
0001
0010
1000
,
0001
0100
0010
0001
,
1000
0000
0010
0001
,
1000
0010
0001
1000
,
0010
0010
1000
0010
,
0001
1000
0010
1000
,
0002
0000
0000
0000
,
0000
0000
0000
0000
0000
0003
1000
0000
,
0001
0010
1000
0001
,
0010
1000
0001
0010
,
1000
0001
0010
0100
,
1000
0010
0001
1000
,
0010
0001
1000
0010
,
0001
1000
0010
0001
,
1000
0000
0000
0000
;

//---------------dance-single - ----------------
#NOTES:
     dance-single:
     :
     Challenge:
     7:
     0.430,0.365,0.262,0.134,0.148:
0000
1000
0000
1100
0000
1000
0000
1010
,
0000
0010
0000
0110
0000
0100
0000
0101
,
0000
0001
0000
1000
0000
0001
0000
1000
,
1000
0001
1000
1000
0100
1000
1010
0000
,
1000
1000
0010
0100
0010
1000
1001
0000
,
0001
0001
0010
0001
1000
0100
1100
0000
,
1000
0000
1000
0000
0010
0000
0100
0010
0000
0010
0000
1000
0000
0001
0000
0000
,
0011
0000
0010
0000
0001
0001
1000
1000
,
1100
0000
1010
0000
0010
0010
0100
0100
,
0101
0000
1001
0000
1000
1000
0010
0010
,
1000
0001
0010
0010
0001
0001
1000
0100
,
1100
0000
1010
0000
0010
0010
0100
0100
,
0101
0000
1001
0000
0001
0001
1000
2000
,
0000
0002
0000
3003
0010
0010
0001
0000
,
1000
1000
0100
0000
1000
0010
0100
0010
,
0220
0000
0000
0330
0100
0001
1000
0001
,
0022
0000
0000
0033
0001
1000
0010
0100
,
0220
0000
0000
0000
0000
0000
0330
0000
0100
0000
0000
0001
0000
0000
0001
0000
,
1000
0000
0000
1000
0000
0000
0010
0000
0010
0000
0000
0000
0100
0000
0000
0000
,
0001
0000
1000
0000
0001
0000
0100
0001
0000
0001
0100
0000
0100
0000
0010
0000
,
0100
0000
0001
0000
0010
0000
0100
0010
0000
0001
0010
0000
0001
0000
0100
0000
,
0010
0000
0100
0000
0010
0000
0010
1000
0000
0010
1000
0000
1000
0000
0100
0000
,
0010
0000
0100
0000
1000
0000
0001
0100
0000
0001
1000
0000
0001
0000
0100
0000
,
0010
0000
0100
0000
0001
0000
1000
0100
0000
1000
0010
0000
0100
0000
0010
0000
,
1000
0000
0100
0000
0010
0000
0100
1000
0000
0100
0010
0000
0100
0000
0010
0000
,
0100
0000
1000
0000
0010
0000
0100
0010
0000
1000
0010
0000
1000
0000
0010
0000
,
0100
0010
1000
0010
1000
0010
0100
0010
,
1000
0000
0001
0000
1000
0000
0001
0100
0000
0100
0001
0000
1000
0000
0100
0000
,
1000
0000
0010
0000
0100
0000
0010
1000
0000
0010
1000
0000
0010
0000
0100
0000
,
0010
0000
0000
1001
0000
0010
0000
1001
,
0000
1000
0000
1100
0000
1000
0000
1001
,
0001
0010
0010
0001
0001
1000
0100
0000
,
1000
0000
1000
0000
0010
0000
0010
0000
1000
0000
1000
0001
0000
0010
0000
0001
,
0000
0001
1000
1000
0001
0001
0010
0001
,
1000
0000
0100
0100
1000
0010
0100
0010
,
1010
0000
1000
1000
0010
0100
0010
0010
,
0100
0001
1000
0001
0100
0010
0100
0001
,
1001
0000
1100
0000
1000
1000
0010
0100
,
0110
0000
0101
0000
0001
1000
0001
0010
,
0011
0000
1001
0000
0001
0010
0010
0001
,
0100
0010
0010
0100
0001
1000
0100
1000
,
1001
0000
1010
0000
0010
0010
0100
0001
,
1001
0000
1001
0001
0010
0100
0010
0001
,
0101
0000
1001
0000
0100
0100
1000
0000
,
0010
0010
0100
0000
0010
0010
1000
0001
,
0022
0000
0000
0033
1000
0010
0100
0010
,
0220
0000
0000
0330
0100
0001
1000
0001
,
2002
0000
0000
0000
0000
0000
3003
0000
0001
0000
0000
1000
0000
0000
1000
0000
,
0010
0000
0000
0010
0000
0000
0100
0000
0001
0000
0000
0000
1000
0000
0000
0000
,
0001
0000
0100
0000
0001
0000
1000
0100
0000
1000
0010
0000
1000
0000
0001
0000
,
1000
0000
0100
0000
1000
0000
0010
0100
0000
0010
1000
0000
0001
0000
0010
0000
,
0001
0000
0100
0000
0010
0000
0100
0001
0000
0100
0001
0000
1000
0000
0100
0000
,
0010
0000
0100
0000
1000
0000
0010
0100
0000
0010
1000
0000
0100
0000
0010
0000
,
0001
0000
0100
0000
0010
0000
0100
0001
0000
0100
0001
0000
1000
0000
0100
0000
,
0010
0000
0100
0000
0010
0000
0001
0010
0000
0001
0010
0000
0001
0000
0100
0000
,
0010
0000
0100
0000
0001
0000
1000
0001
0000
1000
0001
0000
1000
0000
0100
0000
,
0020
0000
0000
0002
0030
0000
0203
0000
0020
0000
0300
0000
2000
0000
0030
0000
,
0002
0000
0000
0000
0000
0000
0000
0000
0000
0000
0000
0000
0000
0000
0000
0000
0000
0000
0000
0000
0000
0000
0000
0000
0000
0000
0000
0000
0000
0000
0000
0000
0000
0000
0000
0000
0000
0000
0000
0000
0000
0000
0000
0000
0000
0000
0000
0000
0000
3003
0000
0000
0000
0000
0000
0000
0000
0000
0000
0000
0000
0000
0000
0000
0000
0000
0000
0000
0000
0000
0000
0000
0000
0000
0000
0000
0000
0000
0000
0000
0000
0000
0000
0000
0000
0000
0000
0000
0000
0000
0000
0000
0000
0000
0000
0000
0000
0000
0000
0000
0000
0000
0000
0000
0000
0000
0000
0000
0000
0000
0000
0000
0000
0000
0000
0000
0000
0000
0000
0000
0000
0000
0000
0000
0000
0000
0000
0000
0000
0000
0000
0000
0000
0000
0000
0000
0000
0000
0000
0000
0000
0000
0000
0000
0000
0000
0000
0000
0000
0000
0000
0000
0000
0000
0000
0000
0000
0000
0000
0000
0000
0000
0000
0000
0000
0000
0000
0000
0000
0000
0000
0000
0000
0000
0000
0000
0000
0000
0000
0000
0000
0000
0000
0000
0000
0000
0000
0000
0000
0000
0000
0000
;
