#TITLE:We Live;
#ARTIST:Superchick;
#BANNER:We Live - Superchick.png;
#BACKGROUND:We Live - Superchick-bg.png;
#LYRICSPATH:We Live - Superchick.lrc;
#CDTITLE:.\CDTITLES\DP2CHICK.png;
#MUSIC:We Live - Superchick.mp3;
#OFFSET:-2.846;
#SAMPLESTART:37.3;
#SAMPLELENGTH:12;
#BPMS:0=91;
#BGCHANGES:0=We Live - Superchick.AVI=1=1=1=0,999=-=1=0=0=0;

//---------------dance-single - ----------------
#NOTES:
     dance-single:
     :
     Easy:
     2:
     0.117,0.130,0.027,0,0.007:
0000
0000
0000
1000
0000
0000
0000
0000
,
0010
0000
0000
0001
0000
0000
0000
0000
,
0010
0000
0000
1000
0000
0000
0000
0000
,
0010
0000
0000
0001
0000
0000
0000
0000
,
1000
0000
0000
0010
0000
0000
0000
0000
,
0001
0000
0000
1000
0000
0000
0000
0000
,
1000
0000
0000
0010
0000
0000
0000
0000
,
0010
0000
0000
1000
0000
0000
0000
0000
,
0010
0000
0000
0001
0000
0000
0000
0000
,
1000
0000
0000
0010
0000
0000
0000
0000
,
0010
0000
0000
0001
0000
0000
0000
0000
,
1001
0000
0000
0010
0000
0000
0000
0000
,
1000
0000
0000
0001
,
1100
0000
0000
0000
0010
0000
0000
0001
,
0000
0000
0000
0001
,
1000
0000
0100
0000
,
0010
0000
0000
0000
0000
0000
0000
0001
,
1000
0000
0000
0000
0010
0000
0000
0001
,
0000
0000
0100
0000
,
0010
0000
0000
0000
0000
0001
0000
0000
,
1000
0000
0000
0000
0000
0000
0000
1000
,
0001
0000
0110
0000
,
1000
0001
0000
0000
,
0010
0000
0000
0000
0000
0000
0000
0001
,
1000
0000
0000
0000
0000
0010
0000
0000
,
0001
0000
0000
0000
0000
1000
0000
0000
,
0010
0000
0000
0000
0000
0000
0000
0001
,
1000
0000
0000
0000
0000
0010
0000
0000
,
0001
0000
0000
0000
0000
0000
0000
0001
,
1000
0000
0000
0000
0000
0010
0000
0000
,
0001
0000
0000
0000
0000
0000
0000
0001
,
1000
0000
0000
0010
0000
0001
1000
0000
,
0001
0000
0000
0000
0000
0010
0000
0000
,
1000
0000
0000
0000
0000
0000
0000
0000
0001
0000
0000
1000
0000
0000
0010
0000
,
0000
0001
0000
0000
0000
0100
0000
0000
,
0010
0000
0000
0000
0000
0001
0000
0000
,
1000
0000
0000
0000
0000
0010
0000
0000
,
0001
0000
0000
0000
0000
0000
0000
0000
0001
0000
0000
1000
0000
0000
0010
0000
,
0000
0001
0000
0000
0000
0001
0000
0000
,
1000
0000
0000
0000
0000
0010
0000
0000
,
0001
0000
0000
0000
0000
0010
0000
0000
,
1000
0000
0110
0000
,
0001
1000
0000
0000
,
1000
0000
0000
0000
0000
0010
0000
0000
,
0001
0000
0000
0000
0000
1000
0000
0000
,
0010
0000
1000
0000
0000
0001
0000
0000
,
1000
0000
0000
0000
0000
1000
0000
0000
,
0001
0000
0000
0000
0000
1000
0000
0000
,
0010
0000
0000
0000
0000
0001
0000
0000
,
1000
0000
0000
0000
0000
0010
0000
0000
,
0001
0000
0000
0100
,
1000
0000
0000
0010
,
0001
0000
0010
0000
0000
0000
0000
1000
,
0001
0000
0000
0000
0000
0000
0000
0010
,
0000
0000
1000
0000
;

//---------------dance-single - ----------------
#NOTES:
     dance-single:
     :
     Hard:
     6:
     0.311,0.296,0.034,0.020,0.058:
0000
0000
0000
1000
0000
0000
0001
0000
,
0010
0000
1000
0001
0000
0000
1000
0000
,
0010
0000
0001
1000
0000
0000
0001
0000
,
0010
0000
1000
0001
0000
0000
0010
0000
,
1000
0000
0001
0010
0000
0000
1000
0000
,
0001
0000
0010
1000
0000
0000
0001
0000
,
1000
0000
0001
0010
0000
0000
1000
0000
,
0010
0001
0000
1000
0000
0000
0001
0010
,
0000
1000
0000
0001
0000
0000
0001
0000
,
1000
0000
0001
0010
0000
0000
1000
0000
,
0010
0000
1000
0001
0000
0000
0010
0000
,
1001
0000
0100
0010
0000
0001
2000
0000
,
0000
0000
3000
0000
0001
0000
0000
0000
1000
0000
0010
0000
0002
0000
0000
0003
,
1100
0000
0010
0000
0000
0001
0000
0000
0010
0000
0000
1000
0000
0000
0010
0000
,
0001
1000
0010
0001
1000
0010
0100
0001
,
1000
0010
0001
0000
0100
0001
1000
0001
,
0010
0001
1000
0001
0010
1000
0010
0001
,
1000
0000
0010
0000
0000
0001
0000
0000
1000
0000
0000
0010
0000
0000
1000
0000
,
0010
0001
0010
1000
0001
0100
1000
0001
,
0010
0001
1000
0000
0001
1000
0010
0001
,
1000
0010
0001
0000
0010
1000
0001
1000
,
0001
0000
1000
0000
0110
0000
0001
0010
,
1000
0000
0001
0000
1000
0000
0001
1000
,
0010
0000
1000
0000
0010
1000
0010
0001
,
1000
0010
0001
1000
0001
0010
1000
0000
,
0001
1000
0010
0000
0001
1000
0100
0000
,
0010
0001
1000
0001
0010
1000
0010
0001
,
1000
0001
0100
1000
0001
0010
0001
0010
,
0000
2000
0000
3000
0100
0000
0000
0001
,
1000
0000
0100
1000
0001
0010
1000
0000
,
0001
0010
1000
0001
0100
0001
1000
0001
,
1000
0000
0001
0010
0001
1000
0010
0000
,
0001
0010
1000
0001
1000
0010
0100
0000
,
1001
0000
0100
0000
0000
0010
0000
0000
0001
0000
0000
1000
0000
0000
0010
0000
,
0001
0000
1000
0000
0000
0001
0000
0000
0001
0000
0100
0000
1000
0000
0000
0000
,
0010
0001
1000
0000
1000
0001
0000
0010
,
1000
0010
0001
0000
0100
0010
1000
0010
,
0001
0000
0010
0000
0000
0001
0000
0000
1000
0000
0000
0001
0000
0000
1000
0000
,
0001
0000
1000
0000
0000
0100
0000
0000
1000
0000
0001
0000
0010
0000
0100
0000
,
1000
0010
0001
0000
1000
0010
1000
0010
,
0001
0010
1000
0000
0001
0010
0100
0001
,
1000
0001
0110
1000
,
0001
1000
0000
0001
,
1000
0001
0100
0000
1000
0010
0100
1000
,
0001
0100
0010
0001
0010
1000
0001
1000
,
0010
0000
1000
0010
0100
1000
0001
0010
,
1000
0000
0001
0010
0100
0000
1000
0010
,
0001
1000
0010
0000
0001
1000
0001
0000
,
0010
0000
0000
0000
0100
0000
0000
0000
1000
0000
0000
0001
0000
0000
0001
0000
,
1000
0000
0000
0000
0001
0000
0000
0000
1000
0000
0000
0010
0000
0000
1000
0000
,
0001
0000
0000
0000
1000
0000
0000
0000
0001
0000
0000
0100
0000
0000
0001
0000
,
1000
0000
0000
0000
0001
0000
0000
0000
1000
0000
0000
0010
0000
0000
1000
0000
,
0001
0000
1000
0010
0100
0001
0010
1000
,
0001
0000
0010
0000
0000
1000
0000
0000
0001
0000
0000
0100
0000
0000
0010
0000
,
0000
0000
0001
0000
0000
1000
0000
0000
0010
0000
0000
0000
0000
0000
0000
0000
;

//---------------dance-single - ----------------
#NOTES:
     dance-single:
     :
     Medium:
     4:
     0.194,0.204,0.020,0,0.051:
0000
0000
0000
1000
0000
0000
0001
0000
,
0010
0000
0000
0001
0000
0000
1000
0000
,
0010
0000
0000
1000
0000
0000
0001
0000
,
0010
0000
0000
0001
0000
0000
0010
0000
,
1000
0000
0000
0010
0000
0000
1000
0000
,
0001
0000
0000
1000
0000
0000
0001
0000
,
1000
0000
0000
0010
0000
0000
1000
0000
,
0010
0000
0000
0001
1000
0000
0001
0010
,
0000
0001
0000
0001
0000
0000
0001
0000
,
1000
0000
0000
0010
0000
0000
1000
0000
,
0010
0000
1000
0001
0000
0000
0010
0000
,
1001
0000
0000
0010
0000
0000
0001
0000
,
1000
0000
0001
0000
1000
0001
1000
0000
,
0100
0000
0001
0000
0000
0001
0000
0000
0010
0000
0000
1000
0000
0000
0001
0000
,
0000
0000
0000
0000
0000
0010
0000
0000
1000
0000
0000
0000
0001
0000
0000
0000
,
1000
0001
0100
1000
,
0010
0000
1000
0000
0010
0000
0000
0001
,
1000
0000
0001
0000
0000
0001
0000
0000
0010
0000
0000
1000
0000
0000
0001
0000
,
0000
0000
0000
0000
0000
1000
0000
0000
0100
0000
0000
0000
0000
0000
0000
0000
,
0010
0000
1000
0000
0000
0001
0010
0000
,
1000
0000
0001
0000
0010
0000
0000
1000
,
0001
1000
0110
0001
,
1000
0001
1000
0001
,
0010
0000
1000
0000
0010
0000
0000
0001
,
1000
0000
0001
0000
0000
0010
0000
0000
,
0001
0000
0010
0000
0000
1000
0000
0000
,
0010
0000
1000
0000
0010
0000
0000
0001
,
1000
0000
0100
0000
0000
0010
0000
0000
,
0001
0000
1000
0000
0100
0000
0000
0001
,
1000
0000
0100
0000
0000
0010
0000
0000
,
0001
0000
1000
0000
0100
0000
0000
0001
,
1000
0000
0000
0010
0001
1000
0000
0000
,
0001
0000
1000
0000
0000
0010
0000
0000
,
1000
0000
0010
0000
0000
0001
0000
0000
0010
0000
0000
1000
0000
0000
0010
0000
,
0000
0000
0001
0000
0000
1000
0000
0000
0000
0000
0100
0000
0000
0000
0000
0000
,
0010
0000
1000
0000
0000
0001
0000
0000
,
1000
0000
0001
0000
0000
0010
0000
0000
,
0001
0000
0010
0000
0000
1000
0000
0000
0010
0000
0000
1000
0000
0000
0010
0000
,
0000
0000
0100
0000
0000
0010
0000
0000
0000
0000
0001
0000
0000
0000
0000
0000
,
1000
0000
0001
0000
0000
0010
0000
0000
,
0001
0000
1000
0000
0000
0010
0000
0000
,
1000
0001
0110
0000
,
0001
1000
0000
0001
,
1000
0000
0100
0000
0000
0010
0000
0000
,
0001
0000
0010
0000
0000
1000
0000
0000
,
0010
0000
1000
0000
0000
0001
0000
0000
,
1000
0000
0001
0000
0000
1000
0000
0000
,
0001
0000
0010
0000
0000
1000
0000
0000
,
0010
0000
0100
0000
0000
0001
0000
0000
,
1000
0000
0001
0000
0000
0010
0000
0000
,
0001
0000
1000
0000
0000
0100
0000
0000
,
1000
0001
0010
1000
,
1000
0000
0010
0000
0001
1000
0001
0000
,
0001
0000
1000
0000
0000
0100
0000
0000
0010
0000
0000
0001
0000
0000
0010
0000
,
0000
0000
0001
0000
0000
1000
0000
0000
0010
0000
0000
0000
0000
0000
0000
0000
;

//---------------dance-single - ----------------
#NOTES:
     dance-single:
     :
     Challenge:
     9:
     0.398,0.414,0.286,0.102,0.374:
0000
0000
0000
0000
,
0000
0000
0000
0000
,
0000
0000
0000
0000
,
0100
0000
0000
0010
0000
0000
0020
0000
0000
0000
0000
0000
1030
0000
0100
0000
,
1000
0000
0000
0010
0000
0000
0020
0000
0000
0000
0000
0000
0130
0000
0001
0000
,
0010
0010
0100
0000
1000
0100
1100
0000
,
0000
0010
0000
0010
0100
0000
0000
0000
0001
0000
0100
0000
0101
0000
0000
0000
,
2000
0000
3002
0000
2003
0000
3001
0020
,
0000
0230
0000
0000
0300
0000
0000
0010
,
0001
0000
0000
0000
0000
0100
1000
0100
1000
0000
0000
0000
0000
0000
0100
0000
,
0001
0000
1000
0000
0100
0000
0000
0100
1000
0001
0000
0001
0100
0000
0000
0000
,
0100
0000
0000
0101
0000
0000
1001
0000
0000
0000
0010
1000
0000
0100
0010
0000
,
0100
0000
0000
1100
0000
0000
1001
0000
0000
0000
0010
0000
0110
0000
0000
0000
,
1000
0000
0010
0000
0000
0100
0000
0000
0010
0000
0000
1000
0000
0000
0100
0000
,
0000
0000
1100
0000
0000
1001
0000
0100
0010
0000
1000
0000
0000
0000
1000
0000
,
0001
0000
0000
0000
0000
0000
0000
0000
0000
0001
0000
0000
0010
0000
0000
0000
0000
0000
0001
0000
0000
0000
0000
0000
0100
0000
0000
0000
0010
0000
0000
0000
1000
0000
0000
0000
0001
0000
0000
0000
0000
0000
0000
0000
0000
0000
0000
0000
,
1000
0000
0000
1000
0010
0000
1000
0000
0100
0010
0000
0001
1000
0000
0001
0000
,
0100
0000
0001
0000
0000
0010
0000
0000
0100
0000
0000
0010
0000
0000
0001
0000
,
0000
0000
0011
0000
0000
1001
0000
0010
1000
0000
0001
0000
0000
0000
0001
0000
,
0100
0000
0000
0000
0000
0000
0000
0000
0000
0100
0000
0000
0010
0000
0000
0000
0000
0000
0100
0000
0000
0000
0000
0000
0001
0000
0000
0000
0010
0000
0000
0000
0001
0000
0000
0000
1000
0000
0000
0000
0000
0000
0000
0000
0000
0000
0000
0000
,
0010
0000
0000
0010
0100
0000
0010
0000
1000
0100
0000
1000
0001
0000
0010
0000
,
1100
0000
0000
0001
0000
0000
0000
0000
0101
0000
0000
1000
0000
0000
0000
0000
,
1001
0000
0000
2002
0000
0000
0000
0000
0000
0000
0000
0000
3003
0000
0000
0000
,
0100
0000
0000
0001
0000
0000
0020
0000
0000
0000
0000
0000
0031
1000
0001
0000
,
0100
0000
0000
0010
0000
0000
2000
0000
0000
0000
0000
0000
3001
0100
0001
0000
,
1000
0100
0100
0000
0001
0100
1100
0000
,
0001
0000
0010
0000
0010
0000
0001
1000
0000
0010
0000
0100
0010
0000
0000
0000
,
1000
0010
0001
0010
1000
0100
0001
0100
,
0000
2200
0000
0000
0000
0000
3300
0000
,
0001
0100
0100
1000
0100
0100
0101
0000
,
1000
0000
1000
0000
0010
0000
0010
0000
1000
0000
0010
0000
0100
0010
0100
0000
,
0001
0000
0000
0011
0000
0000
1001
0000
0000
0100
1000
0000
1001
0000
0000
0000
,
0110
0000
0000
0000
0000
0000
0000
0000
0010
0000
1001
0000
0100
0010
1000
0001
,
0100
0000
0001
0000
0000
1000
0000
0000
0010
0000
0000
1000
0000
0000
0001
0000
,
0000
0000
1100
0000
0000
1001
0000
0100
0010
1000
0010
0100
0000
0000
0100
0001
,
1000
0000
0000
0000
0000
0000
0000
0000
0000
1000
0000
0000
0100
0000
0000
0000
0000
0000
0010
0000
0000
0000
0000
0000
1000
0000
0000
0000
0010
0000
0000
0000
0100
0000
0000
0000
0001
0000
0000
0000
0000
0000
0100
0000
0000
0000
0000
0000
,
1000
0000
0000
1000
0010
0000
0100
0000
1000
0100
0000
0010
0001
0000
0010
0000
,
0100
0000
0001
0000
0000
0010
0000
0000
0100
0000
0000
1000
0000
0000
0010
0000
,
0000
0000
0101
0000
0000
1001
0000
0010
0001
0100
0001
0010
0000
0000
0010
0001
,
0100
0000
0000
0000
0000
0000
0000
0000
0000
0100
0000
0000
0010
0000
0000
0000
0000
0000
0001
0000
0000
0000
0000
0000
0010
0000
0000
0000
0100
0000
0000
0000
0001
0000
0000
0000
1000
0000
0000
0000
0000
0000
0100
0000
0000
0000
0000
0000
,
0010
0000
0000
0010
0100
0000
0001
0000
0100
0010
0000
0001
1000
0000
0010
0000
,
0110
0000
0000
0001
0000
0000
0000
0000
0110
0000
0000
1000
0000
0000
0000
0000
,
1001
0000
0000
2002
0000
0000
0000
0000
3003
0000
0000
0000
0110
0000
0000
0000
,
0001
0000
1000
0000
1000
0000
0000
0100
1000
0000
0001
0000
0001
0000
0100
0000
,
0010
0000
1000
0000
1000
0000
0000
0010
0100
0000
0001
0000
0001
0000
0010
0000
,
0100
0000
0100
1000
0010
0000
0100
0001
0010
0000
0100
1000
0000
0100
1000
0100
,
1000
0001
1000
0000
0001
0000
1001
0000
1000
0000
0001
0100
1000
0100
0001
0000
,
0100
0000
0000
0000
0000
0000
0100
0000
0000
0010
0000
0000
0000
0000
0000
1000
0000
0000
0000
0000
0000
0001
0000
0000
0010
0000
0000
0000
0100
0000
0000
0000
0100
0000
0000
0000
1000
0000
0000
0000
0001
0000
0000
0000
0000
0000
0000
0000
,
0010
0000
0000
0000
0000
0000
0010
0000
0000
0000
0000
0000
0100
0000
0000
0000
0000
0000
0010
0000
0000
0001
0000
0000
1000
0000
0000
0000
0000
0000
0010
0000
0000
1000
0000
0000
0001
0000
0000
0000
0100
0000
0000
0000
0000
0000
0000
0000
,
0001
0000
0001
0000
0010
0000
0001
0000
1000
0000
1000
0100
0000
1000
0001
0000
,
1001
0000
0000
0000
0010
0000
0010
0100
0000
0100
0001
1000
0000
1000
0100
0000
,
1001
0000
0000
0000
0100
0000
0100
0010
0000
0010
1000
0001
0000
0001
0010
0000
,
1001
0000
0000
1001
0000
0000
0110
0000
0000
1001
0000
0000
1100
0000
0100
0000
0010
0000
0011
0000
0010
0000
0100
0000
,
1001
0000
0000
0000
;
